<?xml version="1.0" standalone="no"?>
<!DOCTYPE svg PUBLIC "-//W3C//DTD SVG 1.1//EN" "http://www.w3.org/Graphics/SVG/1.1/DTD/svg11.dtd" >
<svg xmlns="http://www.w3.org/2000/svg" xmlns:xlink="http://www.w3.org/1999/xlink" version="1.1">
<metadata>
Created by FontForge 20201107 at Mon Mar  6 10:17:17 2023
 By 
Copyright (c) 2018-2021 by TypeType. All rights reserved.
</metadata>
<defs>
<font id="TTCommonsProTrial-Db" horiz-adv-x="0" >
  <font-face 
    font-family="TT Commons Pro Trial DemiBold"
    font-weight="600"
    font-stretch="normal"
    units-per-em="1000"
    panose-1="2 11 1 3 3 1 2 2 2 4"
    ascent="800"
    descent="-200"
    x-height="506"
    cap-height="700"
    bbox="-489 -382 1438 1089"
    underline-thickness="63"
    underline-position="-248"
    unicode-range="U+0020-FB06"
  />
<missing-glyph horiz-adv-x="900" 
d="M100 284h45v-139h33v139h50v31h-128v126l19 -61h23l34 106l33 -106h23l54 170h-32l-34 -110l-35 110h-19l-35 -110l-31 103v157h700v-150h-110v-170h110v-91q-6 13 -19.5 20t-30.5 7q-27 0 -43.5 -14.5t-16.5 -34.5q0 -22 14.5 -32.5t39.5 -17.5q17 -5 25.5 -9.5
t8.5 -13.5q0 -21 -28 -21q-14 0 -21 7t-7 18h-33q0 -24 17 -39.5t44 -15.5q17 0 30.5 6.5t19.5 13.5v-163h-700v284zM344 380v62h24l35 -62h37l-40 67q36 17 36 50q0 22 -16 37.5t-41 15.5h-68v-170h33zM469 380h33v170h-33v-170zM580 380h32v139h50v31h-132v-31h50v-139z
M379 519q10 0 17 -6.5t7 -16.5q0 -12 -7.5 -17.5t-16.5 -5.5h-35v46h35zM722 483v36h78v-36h-78zM722 411v41h78v-41h-78zM387.5 167.5q22.5 24.5 22.5 61.5t-23 62t-59 25t-59 -25t-23 -62t22.5 -61.5t59.5 -24.5t59.5 24.5zM549 315h-32v-106q0 -28 19.5 -47t48.5 -19
t48 19t19 47v106h-32v-106q0 -15 -9.5 -25t-25.5 -10q-17 0 -26.5 10.5t-9.5 24.5v106zM800 224q-15 14 -46 22q-16 5 -23 9t-7 12q0 9 7.5 14.5t18.5 5.5q10 0 18 -7t8 -18h24v-38zM291.5 190q-14.5 16 -14.5 39q0 25 14 40.5t37 15.5q24 0 37.5 -15.5t13.5 -40.5
q0 -23 -14.5 -39t-36.5 -16t-36.5 16z" />
    <glyph glyph-name="f_f.liga" unicode="ff" horiz-adv-x="613" 
d="M507 594.5q-20 -20.5 -20 -61.5v-27h113v-95h-109v-411h-110v411h-178v-411h-109v411h-69v95h69v11q0 81 44.5 128t114.5 47q34 0 60 -10v-93q-15 6 -37 6q-36 0 -56 -20.5t-20 -61.5v-7h181v31q0 81 44.5 128t114.5 47q34 0 60 -10v-93q-15 6 -37 6q-36 0 -56 -20.5z
" />
    <glyph glyph-name="fi.liga" unicode="fi" horiz-adv-x="549" 
d="M200 506h291v-506h-110v411h-178v-411h-109v411h-69v95h69v3q0 97 60.5 152t171.5 55q61 0 110 -20v-93q-44 16 -104 16q-63 0 -97.5 -29t-34.5 -82v-2z" />
    <glyph glyph-name="fl.liga" unicode="fl" horiz-adv-x="559" 
d="M491 688v-688h-110v614q-32 5 -56 5q-59 0 -92 -29.5t-33 -81.5v-2h110v-95h-107v-411h-109v411h-69v95h69v4q0 97 60 151.5t168 54.5q96 0 169 -28z" />
    <glyph glyph-name="f_f_i.liga" unicode="ffi" horiz-adv-x="837" 
d="M487 506h291v-506h-110v411h-177v-411h-110v411h-178v-411h-109v411h-69v95h69v11q0 81 44.5 128t114.5 47q34 0 60 -10v-93q-15 6 -37 6q-36 0 -56 -20.5t-20 -61.5v-7h181v3q0 97 60.5 152t171.5 55q62 0 110 -20v-93q-44 16 -103 16q-64 0 -98.5 -29t-34.5 -82v-2z
" />
    <glyph glyph-name="f_f_l.liga" unicode="ffl" horiz-adv-x="847" 
d="M778 688v-688h-110v614q-32 5 -56 5q-59 0 -92 -29.5t-33 -81.5v-2h110v-95h-106v-411h-110v411h-178v-411h-109v411h-69v95h69v11q0 81 44.5 128t114.5 47q34 0 60 -10v-93q-15 6 -37 6q-36 0 -56 -20.5t-20 -61.5v-7h181v4q0 97 60 151.5t168 54.5q96 0 169 -28z" />
    <glyph glyph-name="f_f_j.liga" unicode="ffj" horiz-adv-x="837" 
d="M487 506h291v-515q0 -82 -44 -129t-115 -47q-32 0 -60 10v100q15 -7 35 -7q35 0 54.5 20.5t19.5 60.5v412h-177v-411h-110v411h-178v-411h-109v411h-69v95h69v11q0 81 44.5 128t114.5 47q34 0 60 -10v-93q-15 6 -37 6q-36 0 -56 -20.5t-20 -61.5v-7h181v3q0 97 60.5 152
t171.5 55q62 0 110 -20v-93q-44 16 -103 16q-64 0 -98.5 -29t-34.5 -82v-2z" />
    <glyph glyph-name="f_j.liga" unicode="fj" horiz-adv-x="549" 
d="M200 506h291v-515q0 -82 -44 -129t-115 -47q-31 0 -61 10v100q17 -7 36 -7q35 0 54.5 20.5t19.5 60.5v412h-178v-411h-109v411h-69v95h69v3q0 97 60.5 152t171.5 55q61 0 110 -20v-93q-44 16 -104 16q-63 0 -97.5 -29t-34.5 -82v-2z" />
    <glyph glyph-name=".notdef" horiz-adv-x="900" 
d="M100 284h45v-139h33v139h50v31h-128v126l19 -61h23l34 106l33 -106h23l54 170h-32l-34 -110l-35 110h-19l-35 -110l-31 103v157h700v-150h-110v-170h110v-91q-6 13 -19.5 20t-30.5 7q-27 0 -43.5 -14.5t-16.5 -34.5q0 -22 14.5 -32.5t39.5 -17.5q17 -5 25.5 -9.5
t8.5 -13.5q0 -21 -28 -21q-14 0 -21 7t-7 18h-33q0 -24 17 -39.5t44 -15.5q17 0 30.5 6.5t19.5 13.5v-163h-700v284zM344 380v62h24l35 -62h37l-40 67q36 17 36 50q0 22 -16 37.5t-41 15.5h-68v-170h33zM469 380h33v170h-33v-170zM580 380h32v139h50v31h-132v-31h50v-139z
M379 519q10 0 17 -6.5t7 -16.5q0 -12 -7.5 -17.5t-16.5 -5.5h-35v46h35zM722 483v36h78v-36h-78zM722 411v41h78v-41h-78zM387.5 167.5q22.5 24.5 22.5 61.5t-23 62t-59 25t-59 -25t-23 -62t22.5 -61.5t59.5 -24.5t59.5 24.5zM549 315h-32v-106q0 -28 19.5 -47t48.5 -19
t48 19t19 47v106h-32v-106q0 -15 -9.5 -25t-25.5 -10q-17 0 -26.5 10.5t-9.5 24.5v106zM800 224q-15 14 -46 22q-16 5 -23 9t-7 12q0 9 7.5 14.5t18.5 5.5q10 0 18 -7t8 -18h24v-38zM291.5 190q-14.5 16 -14.5 39q0 25 14 40.5t37 15.5q24 0 37.5 -15.5t13.5 -40.5
q0 -23 -14.5 -39t-36.5 -16t-36.5 16z" />
    <glyph glyph-name=".null" 
 />
    <glyph glyph-name="nonmarkingreturn" 
 />
    <glyph glyph-name="space" unicode=" " horiz-adv-x="247" 
 />
    <glyph glyph-name="exclam" unicode="!" horiz-adv-x="293" 
d="M193 193h-93l-17 507h127zM97 8.5q-20 20.5 -20 49.5t20 49t50 20q29 0 49 -20t20 -49t-20 -49.5t-49 -20.5q-30 0 -50 20.5z" />
    <glyph glyph-name="quotedbl" unicode="&#x22;" horiz-adv-x="361" 
d="M144 471h-96v229h96v-229zM314 471h-96v229h96v-229z" />
    <glyph glyph-name="numbersign" unicode="#" horiz-adv-x="693" 
d="M674 514l-22 -88h-120l-30 -152h126l-21 -88h-123l-38 -186h-94l37 186h-152l-38 -186h-94l38 186h-124l21 88h121l30 152h-127l22 88h123l38 186h94l-38 -186h153l37 186h95l-38 -186h124zM255 274h152l31 152h-153z" />
    <glyph glyph-name="dollar" unicode="$" horiz-adv-x="575" 
d="M483.5 56.5q-50.5 -53.5 -142.5 -65.5v-96h-108v98q-89 16 -141 76t-56 146h116q5 -56 41.5 -89t99.5 -33q60 0 92.5 26t32.5 66q0 32 -19.5 53.5t-49.5 34.5t-82 31q-68 23 -111 44.5t-73.5 62t-30.5 105.5q0 74 48 126.5t133 65.5v97h108v-99q81 -16 130 -75t53 -140
h-116q-3 52 -36 84t-88 32t-85.5 -26t-30.5 -67q0 -31 19.5 -51.5t49 -33.5t80.5 -29q70 -23 112.5 -43.5t73.5 -61.5t31 -107q0 -78 -50.5 -131.5z" />
    <glyph glyph-name="percent" unicode="%" horiz-adv-x="709" 
d="M108 425q-35 20 -56 55t-21 78t21 78.5t56 55.5t75 20q41 0 76 -20t56 -55.5t21 -78.5t-21 -78t-56 -55t-76 -20q-40 0 -75 20zM185 0h-91l431 700h90zM236.5 499q22.5 22 22.5 59q0 38 -22 60t-54 22q-31 0 -53 -22.5t-22 -59.5t22 -59t53 -22t53.5 22zM450 8
q-35 20 -56 55.5t-21 78.5t21 78t56 55t76 20q40 0 75 -20t56 -55t21 -78t-21 -78.5t-56 -55.5t-75 -20q-41 0 -76 20zM579 82.5q22 22.5 22 59.5t-22 59t-53 22t-53.5 -22t-22.5 -59t22.5 -59.5t53.5 -22.5t53 22.5z" />
    <glyph glyph-name="ampersand" unicode="&#x26;" horiz-adv-x="603" 
d="M635 0h-132l-74 81q-43 -43 -90 -68t-107 -25q-57 0 -101 22t-68.5 60t-24.5 85q0 61 32.5 109t88.5 95l10 8l-7 8q-42 47 -62 86t-20 82q0 47 22 85.5t62 61t91 22.5q49 0 89 -22.5t62.5 -61t22.5 -84.5q0 -86 -92 -164l-27 -24l116 -128l72 103h116l-121 -175z
M203.5 593.5q-20.5 -20.5 -20.5 -52.5q0 -25 14.5 -51t51.5 -67l18 16q58 51 58 102q0 31 -20 52t-50 21q-31 0 -51.5 -20.5zM302 105q30 16 62 48l-134 147l-10 -9q-35 -28 -55 -58t-20 -67q0 -36 24.5 -56.5t65.5 -20.5q37 0 67 16z" />
    <glyph glyph-name="quotesingle" unicode="'" horiz-adv-x="191" 
d="M144 471h-96v229h96v-229z" />
    <glyph glyph-name="parenleft" unicode="(" horiz-adv-x="330" 
d="M223 -225q-53 68 -107 191t-54 284t54 284t107 191l81 -55q-42 -61 -86 -173t-44 -247t44 -247t86 -173z" />
    <glyph glyph-name="parenright" unicode=")" horiz-adv-x="330" 
d="M26 -170q42 61 86 173t44 247t-44 247t-86 173l82 55q53 -68 106.5 -191t53.5 -284t-53.5 -284t-106.5 -191z" />
    <glyph glyph-name="asterisk" unicode="*" horiz-adv-x="380" 
d="M330 619l24 -73l-114 -29l80 -96l-62 -44l-68 104l-68 -104l-62 44l80 96l-114 29l24 73l108 -43l-6 124h76l-6 -124z" />
    <glyph glyph-name="plus" unicode="+" horiz-adv-x="570" 
d="M336 134h-101v178h-167v97h167v178h101v-178h167v-97h-167v-178z" />
    <glyph glyph-name="comma" unicode="," horiz-adv-x="212" 
d="M156 105.5q20 -21.5 20 -56.5q0 -62 -32.5 -112.5t-69.5 -80.5l-22 28q17 22 30 46.5t18 57.5q-28 2 -46 22t-18 48q0 29 20 49t49 20q31 0 51 -21.5z" />
    <glyph glyph-name="hyphen" unicode="-" horiz-adv-x="409" 
d="M368 219h-327v99h327v-99z" />
    <glyph glyph-name="period" unicode="." horiz-adv-x="212" 
d="M56 8.5q-20 20.5 -20 49.5t20 49t50 20t50 -20t20 -49t-20 -49.5t-50 -20.5t-50 20.5z" />
    <glyph glyph-name="slash" unicode="/" horiz-adv-x="394" 
d="M106 -200h-106l288 900h106z" />
    <glyph glyph-name="zero" unicode="0" horiz-adv-x="612" 
d="M170.5 29.5q-61.5 41.5 -97.5 123.5t-36 197t36 197t97.5 123.5t135.5 41.5t135.5 -41.5t97.5 -123.5t36 -197t-36 -197t-97.5 -123.5t-135.5 -41.5t-135.5 41.5zM382.5 125.5q34.5 26.5 55.5 83t21 141.5t-21 141.5t-55.5 83t-76.5 26.5t-76.5 -26.5t-55.5 -83
t-21 -141.5t21 -141.5t55.5 -83t76.5 -26.5t76.5 26.5z" />
    <glyph glyph-name="one" unicode="1" horiz-adv-x="361" 
d="M17 574l179 126h88v-700h-116v554l-97 -68z" />
    <glyph glyph-name="two" unicode="2" horiz-adv-x="540" 
d="M207 111h288v-111h-459v89l243 248q57 57 79.5 90.5t22.5 75.5q0 45 -32.5 73.5t-85.5 28.5q-54 0 -88 -32.5t-35 -84.5h-113q1 62 31.5 113.5t84 81t120.5 29.5q69 0 122.5 -27t82.5 -74t29 -104q0 -65 -33.5 -118t-100.5 -121z" />
    <glyph glyph-name="three" unicode="3" horiz-adv-x="546" 
d="M476 301.5q33 -42.5 33 -109.5q0 -54 -30 -101t-84.5 -75t-125.5 -28q-72 0 -126.5 28t-85 74.5t-36.5 101.5h116q5 -37 40 -67t91 -30q58 0 91.5 29.5t33.5 76.5q0 48 -34 77.5t-95 29.5h-50v97h45q55 0 86.5 27.5t31.5 71.5t-30.5 72.5t-81.5 28.5q-50 0 -82 -27.5
t-36 -65.5h-116q4 53 34.5 99t82.5 73.5t116 27.5q67 0 119 -27.5t81 -73t29 -99.5q0 -50 -28 -87t-72 -61q50 -20 83 -62.5z" />
    <glyph glyph-name="four" unicode="4" horiz-adv-x="556" 
d="M447 244h74v-107h-74v-137h-113v137h-315v99l292 464h136v-456zM334 244v300l-189 -300h189z" />
    <glyph glyph-name="five" unicode="5" horiz-adv-x="566" 
d="M417.5 434.5q52.5 -30.5 82.5 -84.5t30 -121t-32 -122.5t-88.5 -87t-128.5 -31.5q-67 0 -119.5 28t-83.5 74t-37 100h116q3 -22 19.5 -44t43.5 -36.5t61 -14.5q58 0 95.5 38t37.5 96q0 59 -37.5 97t-95.5 38q-84 0 -121 -77h-104l45 413h379v-107h-283l-18 -167
q22 17 53 28t68 11q65 0 117.5 -30.5z" />
    <glyph glyph-name="six" unicode="6" horiz-adv-x="573" 
d="M420.5 444q54.5 -32 86 -87.5t31.5 -124.5q0 -67 -32.5 -123t-89.5 -88.5t-128 -32.5t-128 32.5t-89.5 88.5t-32.5 123q0 54 20.5 100.5t52.5 94.5l183 273h124l-154 -228q18 4 34 4q68 0 122.5 -32zM383.5 133.5q38.5 38.5 38.5 99.5t-38.5 99.5t-95.5 38.5
q-58 0 -96 -38.5t-38 -99.5t38 -99.5t96 -38.5q57 0 95.5 38.5z" />
    <glyph glyph-name="seven" unicode="7" horiz-adv-x="508" 
d="M23 589v111h456v-91l-259 -609h-124l252 589h-325z" />
    <glyph glyph-name="eight" unicode="8" horiz-adv-x="576" 
d="M505.5 309q33.5 -44 33.5 -108q0 -57 -31 -106t-88 -78t-132 -29t-132 29t-88 78t-31 106q0 64 34 108t79 68q-35 23 -60 58.5t-25 85.5q0 51 28 95t78.5 70t116.5 26t116.5 -26t78.5 -70t28 -95q0 -50 -25 -85.5t-59 -58.5q45 -24 78.5 -68zM208 581.5
q-30 -26.5 -30 -68.5q0 -41 30.5 -68t79.5 -27t79.5 27t30.5 68q0 42 -30 68.5t-80 26.5t-80 -26.5zM389 124q37 32 37 81t-37 81t-101 32t-101 -32t-37 -81t37 -81t101 -32t101 32z" />
    <glyph glyph-name="nine" unicode="9" horiz-adv-x="573" 
d="M413 679.5q57 -32.5 89.5 -88.5t32.5 -123q0 -54 -21 -101t-53 -94l-182 -273h-124l154 228q-18 -4 -34 -4q-68 0 -122.5 32t-86 87.5t-31.5 124.5q0 67 32.5 123t89.5 88.5t128 32.5t128 -32.5zM381 367.5q38 38.5 38 99.5t-38 99.5t-96 38.5q-57 0 -95.5 -38.5
t-38.5 -99.5t38.5 -99.5t95.5 -38.5q58 0 96 38.5z" />
    <glyph glyph-name="colon" unicode=":" horiz-adv-x="212" 
d="M56 387.5q-20 20.5 -20 49.5t20 49t50 20t50 -20t20 -49t-20 -49.5t-50 -20.5t-50 20.5zM56 8.5q-20 20.5 -20 49.5t20 49t50 20t50 -20t20 -49t-20 -49.5t-50 -20.5t-50 20.5z" />
    <glyph glyph-name="semicolon" unicode=";" horiz-adv-x="212" 
d="M56 387.5q-20 20.5 -20 49.5t20 49t50 20t50 -20t20 -49t-20 -49.5t-50 -20.5t-50 20.5zM156 105.5q20 -21.5 20 -56.5q0 -62 -32.5 -112.5t-69.5 -80.5l-22 28q17 22 30 46.5t18 57.5q-28 2 -46 22t-18 48q0 29 20 49t49 20q31 0 51 -21.5z" />
    <glyph glyph-name="less" unicode="&#x3c;" horiz-adv-x="570" 
d="M80 401l399 189v-105l-271 -125l271 -125v-105l-399 190v81z" />
    <glyph glyph-name="equal" unicode="=" horiz-adv-x="570" 
d="M503 421h-435v96h435v-96zM503 204h-435v95h435v-95z" />
    <glyph glyph-name="greater" unicode="&#x3e;" horiz-adv-x="570" 
d="M92 485v105l399 -190v-81l-399 -189v105l271 125z" />
    <glyph glyph-name="question" unicode="?" horiz-adv-x="498" 
d="M186 203q0 51 13.5 87t32 59t48.5 51q33 32 48 54.5t15 55.5q0 44 -25.5 69.5t-69.5 25.5q-47 0 -76 -33t-29 -83v-9h-114v9q0 61 28 112t77.5 81t113.5 30q63 0 111 -25t74 -69t26 -100q0 -57 -21.5 -91.5t-63.5 -73.5q-39 -37 -59 -69t-20 -81v-10h-109v10zM191 8.5
q-20 20.5 -20 49.5t20 49t50 20t49.5 -20t19.5 -49t-20 -49.5t-49 -20.5q-30 0 -50 20.5z" />
    <glyph glyph-name="at" unicode="@" horiz-adv-x="827" 
d="M224.5 -74.5q-86.5 48.5 -136.5 134t-50 190.5t50 190t136.5 134t190.5 49q105 0 192 -48t137 -131t50 -183q0 -65 -20.5 -110.5t-56 -69t-78.5 -23.5q-47 0 -76.5 22t-41.5 45h-5q-16 -24 -47.5 -45.5t-78.5 -21.5q-46 0 -84.5 23.5t-61.5 66.5t-23 101t22.5 101
t60.5 66.5t83 23.5q41 0 70 -19.5t39 -38.5h5l16 49h61v-207q0 -89 61 -89q30 0 51.5 31.5t21.5 94.5q0 79 -39 144.5t-107 103t-151 37.5q-82 0 -149.5 -38t-106.5 -106t-39 -152t39 -152t106.5 -106t149.5 -38q56 0 100.5 15.5t63.5 29.5l38 -65q-23 -17 -77.5 -37
t-124.5 -20q-104 0 -190.5 48.5zM468.5 168.5q27.5 30.5 27.5 80.5t-27.5 80.5t-67.5 30.5q-41 0 -68 -30t-27 -81t27 -81t68 -30q40 0 67.5 30.5z" />
    <glyph glyph-name="A" unicode="A" horiz-adv-x="633" 
d="M635 0h-122l-57 157h-283l-57 -157h-118l263 700h112zM418 264l-103 287l-104 -287h207z" />
    <glyph glyph-name="B" unicode="B" horiz-adv-x="630" 
d="M556 314.5q38 -43.5 38 -113.5q0 -56 -28.5 -102t-80 -72.5t-117.5 -26.5h-291v700h279q61 0 109 -24.5t74.5 -67t26.5 -93.5q0 -56 -28 -92t-66 -50q46 -15 84 -58.5zM193 599v-184h153q46 0 75 26t29 67q0 40 -29 65.5t-75 25.5h-153zM358 101q53 0 86.5 30.5
t33.5 78.5q0 47 -33.5 77.5t-86.5 30.5h-165v-217h165z" />
    <glyph glyph-name="C" unicode="C" horiz-adv-x="718" 
d="M206.5 36q-77.5 48 -123.5 131t-46 183t46 183t123.5 131t167.5 48q78 0 142.5 -35.5t106.5 -93.5t58 -126h-119q-18 60 -67 102t-121 42q-59 0 -109.5 -32.5t-81 -89.5t-30.5 -129t30.5 -129t81 -89.5t109.5 -32.5q72 0 122 41.5t71 102.5h119q-16 -68 -58.5 -126
t-107.5 -93.5t-146 -35.5q-90 0 -167.5 48z" />
    <glyph glyph-name="D" unicode="D" horiz-adv-x="671" 
d="M77 0v700h212q95 0 174 -46.5t125 -126.5t46 -177t-46.5 -177.5t-125.5 -126.5t-173 -46h-212zM289 111q61 0 113.5 31.5t84 86t31.5 121.5t-31.5 121.5t-84 86t-113.5 31.5h-96v-478h96z" />
    <glyph glyph-name="E" unicode="E" horiz-adv-x="589" 
d="M193 305v-195h356v-110h-472v700h462v-110h-346v-178h308v-107h-308z" />
    <glyph glyph-name="F" unicode="F" horiz-adv-x="565" 
d="M532 700v-111h-339v-199h293v-107h-293v-283h-116v700h455z" />
    <glyph glyph-name="G" unicode="G" horiz-adv-x="758" 
d="M387 359h305v-359h-71l-22 100q-34 -47 -93 -79.5t-132 -32.5q-90 0 -167.5 48t-123.5 131t-46 183t46 183t123.5 131t167.5 48q78 0 143.5 -33t108 -87t55.5 -115h-119q-20 51 -68.5 87.5t-119.5 36.5q-59 0 -109.5 -32.5t-81 -89.5t-30.5 -129t30.5 -129t81 -89.5
t109.5 -32.5q56 0 99 23.5t68 60.5t31 76h-185v100z" />
    <glyph glyph-name="H" unicode="H" horiz-adv-x="700" 
d="M507 413v287h116v-700h-116v302h-314v-302h-116v700h116v-287h314z" />
    <glyph glyph-name="I" unicode="I" horiz-adv-x="270" 
d="M193 0h-116v700h116v-700z" />
    <glyph glyph-name="J" unicode="J" horiz-adv-x="538" 
d="M118 16.5q-52 28.5 -80 78t-28 110.5h115q2 -44 33 -75t80 -31q51 0 81.5 31.5t30.5 81.5v488h116v-488q0 -65 -28 -116t-79.5 -79.5t-120.5 -28.5q-68 0 -120 28.5z" />
    <glyph glyph-name="K" unicode="K" horiz-adv-x="587" 
d="M311 360l287 -360h-146l-259 331v-331h-116v700h116v-321l249 321h137z" />
    <glyph glyph-name="L" unicode="L" horiz-adv-x="535" 
d="M525 0h-448v700h116v-589h332v-111z" />
    <glyph glyph-name="M" unicode="M" horiz-adv-x="850" 
d="M428 169l241 531h104v-700h-113v450l-205 -450h-62l-203 445v-445h-113v700h110z" />
    <glyph glyph-name="N" unicode="N" horiz-adv-x="709" 
d="M519 201v499h113v-700h-107l-335 499v-499h-113v700h107z" />
    <glyph glyph-name="O" unicode="O" horiz-adv-x="748" 
d="M206.5 36q-77.5 48 -123.5 131t-46 183t46 183t123.5 131t167.5 48t167.5 -48t123.5 -131t46 -183t-46 -183t-123.5 -131t-167.5 -48t-167.5 48zM483.5 131.5q50.5 32.5 81 89.5t30.5 129t-30.5 129t-81 89.5t-109.5 32.5t-109.5 -32.5t-81 -89.5t-30.5 -129t30.5 -129
t81 -89.5t109.5 -32.5t109.5 32.5z" />
    <glyph glyph-name="P" unicode="P" horiz-adv-x="602" 
d="M327 700q66 0 120 -30.5t85.5 -82.5t31.5 -116t-31 -116.5t-85.5 -83t-120.5 -30.5h-134v-241h-116v700h250zM325 352q52 0 87.5 34t35.5 85t-35.5 84.5t-87.5 33.5h-132v-237h132z" />
    <glyph glyph-name="Q" unicode="Q" horiz-adv-x="748" 
d="M691 226q-20 -59 -57 -106l67 -65l-70 -73l-69 68q-87 -62 -188 -62q-90 0 -167.5 48t-123.5 131t-46 183t46 183t123.5 131t167.5 48t167.5 -48t123.5 -131t46 -183q0 -65 -20 -124zM483 127l-94 92l70 73l96 -94q43 65 43 152q0 73 -30.5 131t-82 90.5t-111.5 32.5
t-111.5 -32.5t-82 -90.5t-30.5 -131t30.5 -131t82 -90.5t111.5 -32.5q58 0 109 31z" />
    <glyph glyph-name="R" unicode="R" horiz-adv-x="625" 
d="M459 0l-150 268h-116v-268h-116v700h269q66 0 118.5 -28.5t82 -78t29.5 -111.5q0 -68 -41 -121.5t-110 -76.5l168 -284h-134zM193 590v-216h151q51 0 83.5 30.5t32.5 76.5q0 47 -32.5 78t-83.5 31h-151z" />
    <glyph glyph-name="S" unicode="S" horiz-adv-x="575" 
d="M159 17q-57 29 -88.5 80.5t-34.5 117.5h116q5 -56 41.5 -89t99.5 -33q60 0 92.5 26t32.5 66q0 32 -19.5 53.5t-49.5 34.5t-82 31q-68 23 -111 44.5t-73.5 62t-30.5 105.5q0 56 28 100.5t80.5 70t123.5 25.5q70 0 123.5 -29t83.5 -79.5t33 -112.5h-116q-3 52 -36 84
t-88 32t-85.5 -26t-30.5 -67q0 -31 19.5 -51.5t49 -33.5t80.5 -29q70 -23 112.5 -43.5t73.5 -61.5t31 -107q0 -58 -28.5 -103t-83 -71t-130.5 -26t-133 29z" />
    <glyph glyph-name="T" unicode="T" horiz-adv-x="562" 
d="M339 0h-116v589h-208v111h532v-111h-208v-589z" />
    <glyph glyph-name="U" unicode="U" horiz-adv-x="684" 
d="M200.5 23.5q-61.5 35.5 -95 98t-33.5 140.5v438h116v-438q0 -73 41.5 -118t112.5 -45t112.5 45t41.5 118v438h116v-438q0 -78 -33.5 -140.5t-95 -98t-141.5 -35.5t-141.5 35.5z" />
    <glyph glyph-name="V" unicode="V" horiz-adv-x="636" 
d="M321 157l190 543h118l-252 -700h-119l-250 700h123z" />
    <glyph glyph-name="W" unicode="W" horiz-adv-x="906" 
d="M639 209l144 491h116l-217 -700h-92l-137 473l-137 -473h-93l-215 700h119l144 -491l140 491h86z" />
    <glyph glyph-name="X" unicode="X" horiz-adv-x="609" 
d="M372 355l228 -355h-134l-163 265l-165 -265h-129l227 355l-216 345h133l153 -255l153 255h130z" />
    <glyph glyph-name="Y" unicode="Y" horiz-adv-x="569" 
d="M287 387l160 313h124l-229 -434v-266h-116v266l-228 434h128z" />
    <glyph glyph-name="Z" unicode="Z" horiz-adv-x="565" 
d="M517 612l-338 -503h351v-109h-495v88l338 503h-327v109h471v-88z" />
    <glyph glyph-name="bracketleft" unicode="[" horiz-adv-x="329" 
d="M307 -200h-230v900h230v-101h-124v-698h124v-101z" />
    <glyph glyph-name="backslash" unicode="\" horiz-adv-x="394" 
d="M394 -200h-106l-288 900h106z" />
    <glyph glyph-name="bracketright" unicode="]" horiz-adv-x="329" 
d="M252 -200h-230v101h124v698h-124v101h230v-900z" />
    <glyph glyph-name="asciicircum" unicode="^" horiz-adv-x="429" 
d="M245 700l155 -321h-97l-89 190l-89 -190h-96l155 321h61z" />
    <glyph glyph-name="underscore" unicode="_" horiz-adv-x="314" 
d="M334 -193h-354v96h354v-96z" />
    <glyph glyph-name="grave" unicode="`" horiz-adv-x="247" 
d="M217 566h-84l-103 152h115z" />
    <glyph glyph-name="a" unicode="a" horiz-adv-x="515" 
d="M401 461.5q55 -56.5 55 -149.5v-312h-82l-20 57h-5q-21 -27 -57.5 -48t-90.5 -21q-48 0 -87 20.5t-61 55t-22 75.5q0 50 29.5 87.5t83 57.5t122.5 20h81v17q0 45 -25.5 71.5t-68.5 26.5q-38 0 -61 -19.5t-28 -47.5h-110q5 44 29.5 82t68.5 61t102 23q92 0 147 -56.5z
M313 114q34 33 34 79v32h-80q-63 0 -94.5 -20.5t-31.5 -56.5q0 -30 21.5 -48.5t61.5 -18.5q55 0 89 33z" />
    <glyph glyph-name="b" unicode="b" horiz-adv-x="595" 
d="M232.5 11.5q-40.5 23.5 -56.5 45.5h-5l-20 -57h-82v700h110v-247h5q7 11 27 26.5t50.5 27t65.5 11.5q62 0 115.5 -34.5t85.5 -95t32 -135.5t-32 -135.5t-85.5 -95t-115.5 -34.5q-54 0 -94.5 23.5zM383 110.5q31 20.5 49.5 58t18.5 84.5t-18.5 84.5t-49.5 58t-68 20.5
t-68 -20.5t-49.5 -58t-18.5 -84.5t18.5 -84.5t49.5 -58t68 -20.5t68 20.5z" />
    <glyph glyph-name="c" unicode="c" horiz-adv-x="549" 
d="M160.5 23.5q-57.5 35.5 -91.5 96.5t-34 133q0 73 34 133.5t91.5 96t125.5 35.5q60 0 110 -28t82 -73.5t42 -96.5h-110q-11 37 -43 66.5t-81 29.5q-39 0 -71.5 -21t-51.5 -58t-19 -84t19 -84t51.5 -58t71.5 -21q49 0 81 29.5t43 66.5h110q-10 -51 -42 -96.5t-82 -73.5
t-110 -28q-68 0 -125.5 35.5z" />
    <glyph glyph-name="d" unicode="d" horiz-adv-x="595" 
d="M152.5 22.5q-53.5 34.5 -85.5 95t-32 135.5t32 135.5t85.5 95t115.5 34.5q35 0 65.5 -11.5t50.5 -27t27 -26.5h5v247h110v-700h-82l-20 57h-5q-16 -22 -57 -45.5t-94 -23.5q-62 0 -115.5 34.5zM348 110.5q31 20.5 49.5 58t18.5 84.5t-18.5 84.5t-49.5 58t-68 20.5
t-68 -20.5t-49.5 -58t-18.5 -84.5t18.5 -84.5t49.5 -58t68 -20.5t68 20.5z" />
    <glyph glyph-name="e" unicode="e" horiz-adv-x="560" 
d="M520 210h-375q10 -57 48 -90t92 -33q39 0 66 15t43 38h114q-15 -38 -46.5 -73t-77 -57t-98.5 -22q-69 0 -126.5 35t-91 95.5t-33.5 134.5q0 73 34 133.5t91.5 96t124.5 35.5t122 -33.5t87 -91.5t32 -129q0 -32 -6 -54zM194 384.5q-39 -34.5 -49 -91.5h274q-9 56 -46 91
t-88 35q-52 0 -91 -34.5z" />
    <glyph glyph-name="f" unicode="f" horiz-adv-x="326" 
d="M220 588.5q-20 -20.5 -20 -61.5v-21h113v-99h-110v-407h-109v407h-69v99h69v31q0 81 44.5 128t114.5 47q34 0 60 -10v-99q-15 6 -37 6q-36 0 -56 -20.5z" />
    <glyph glyph-name="g" unicode="g" horiz-adv-x="580" 
d="M166 -164.5q-49 25.5 -75.5 62t-34.5 71.5h112q11 -26 40.5 -43t73.5 -17q57 0 91 32t34 88v55h-5q-15 -21 -52 -43.5t-86 -22.5q-61 0 -114 33t-84 90.5t-31 126.5t31 126.5t84 90.5t114 33q52 0 90.5 -23t54.5 -45h5l21 56h82v-476q0 -101 -63 -160.5t-170 -59.5
q-69 0 -118 25.5zM341 136.5q30 19.5 48 54.5t18 77q0 43 -18 77.5t-48 54t-65 19.5q-36 0 -66 -19.5t-48 -54t-18 -77.5t18 -77.5t48 -54t66 -19.5q35 0 65 19.5z" />
    <glyph glyph-name="h" unicode="h" horiz-adv-x="580" 
d="M69 0v700h110v-250h5q16 23 54 45.5t87 22.5q56 0 100.5 -27.5t70 -77.5t25.5 -116v-297h-109v289q0 56 -32.5 91.5t-83.5 35.5q-52 0 -84.5 -35.5t-32.5 -91.5v-289h-110z" />
    <glyph glyph-name="i" unicode="i" horiz-adv-x="237" 
d="M174 0h-110v506h110v-506zM73 595.5q-19 18.5 -19 45.5q0 28 19 46.5t46 18.5t45.5 -18.5t18.5 -46.5q0 -27 -18.5 -45.5t-45.5 -18.5t-46 18.5z" />
    <glyph glyph-name="j" unicode="j" horiz-adv-x="237" 
d="M-46 -175v100q17 -7 36 -7q35 0 54.5 20.5t19.5 60.5v507h110v-515q0 -82 -44 -129t-115 -47q-31 0 -61 10zM73 595.5q-19 18.5 -19 45.5q0 28 19 46.5t46 18.5t45.5 -18.5t18.5 -46.5q0 -27 -18.5 -45.5t-45.5 -18.5t-46 18.5z" />
    <glyph glyph-name="k" unicode="k" horiz-adv-x="495" 
d="M288 266l217 -266h-137l-189 239v-239h-110v700h110v-418l177 224h127z" />
    <glyph glyph-name="l" unicode="l" horiz-adv-x="247" 
d="M179 0h-110v700h110v-700z" />
    <glyph glyph-name="m" unicode="m" horiz-adv-x="820" 
d="M713 461.5q49 -56.5 49 -155.5v-306h-110v303q0 53 -25.5 83t-65.5 30t-66.5 -31t-26.5 -82v-303h-110v303q0 52 -25.5 82.5t-65.5 30.5t-66.5 -31t-26.5 -82v-303h-110v506h82l20 -56h5q15 23 47 45.5t76 22.5q53 0 88.5 -24.5t53.5 -56.5q22 32 60 56.5t89 24.5
q79 0 128 -56.5z" />
    <glyph glyph-name="n" unicode="n" horiz-adv-x="575" 
d="M64 0v506h82l20 -56h5q17 23 54.5 45.5t87.5 22.5q59 0 105 -27.5t72 -77.5t26 -116v-297h-109v289q0 56 -32.5 91.5t-83.5 35.5q-52 0 -84.5 -35.5t-32.5 -91.5v-289h-110z" />
    <glyph glyph-name="o" unicode="o" horiz-adv-x="572" 
d="M160.5 23.5q-57.5 35.5 -91.5 96.5t-34 133q0 73 34 133.5t91.5 96t125.5 35.5t125.5 -35.5t91.5 -96t34 -133.5q0 -72 -34 -133t-91.5 -96.5t-125.5 -35.5t-125.5 35.5zM357.5 111q32.5 21 51.5 58t19 84t-19 84t-51.5 58t-71.5 21t-71.5 -21t-51.5 -58t-19 -84t19 -84
t51.5 -58t71.5 -21t71.5 21z" />
    <glyph glyph-name="p" unicode="p" horiz-adv-x="590" 
d="M64 -180v686h82l20 -56h5q17 22 57.5 45t93.5 23q62 0 115.5 -34.5t85.5 -95t32 -135.5t-32 -135.5t-85.5 -95t-115.5 -34.5q-35 0 -65.5 11.5t-50.5 27t-27 26.5h-5v-233h-110zM378 110.5q31 20.5 49.5 58t18.5 84.5t-18.5 84.5t-49.5 58t-68 20.5t-68 -20.5t-49.5 -58
t-18.5 -84.5t18.5 -84.5t49.5 -58t68 -20.5t68 20.5z" />
    <glyph glyph-name="q" unicode="q" horiz-adv-x="590" 
d="M416 -180v233h-5q-7 -11 -27 -26.5t-50.5 -27t-65.5 -11.5q-62 0 -115.5 34.5t-85.5 95t-32 135.5t32 135.5t85.5 95t115.5 34.5q53 0 93.5 -23t57.5 -45h5l20 56h82v-686h-110zM348 110.5q31 20.5 49.5 58t18.5 84.5t-18.5 84.5t-49.5 58t-68 20.5t-68 -20.5t-49.5 -58
t-18.5 -84.5t18.5 -84.5t49.5 -58t68 -20.5t68 20.5z" />
    <glyph glyph-name="r" unicode="r" horiz-adv-x="349" 
d="M64 0v506h82l20 -56h5q16 23 49 45.5t76 22.5q25 0 42 -4v-110q-19 4 -45 4q-53 0 -86 -34t-33 -94v-280h-110z" />
    <glyph glyph-name="s" unicode="s" horiz-adv-x="458" 
d="M129.5 10.5q-44.5 22.5 -70 60.5t-28.5 83h108q3 -34 28 -54.5t65 -20.5q39 0 60.5 17t21.5 43q0 30 -26 45.5t-82 32.5q-51 16 -83.5 32t-55.5 45t-23 75q0 42 22 76t63.5 53.5t97.5 19.5q54 0 96.5 -21.5t66.5 -58t27 -81.5h-108q-4 33 -24.5 51.5t-57.5 18.5
q-35 0 -54 -15.5t-19 -38.5q0 -28 25 -42.5t79 -30.5q52 -16 85 -32t57 -46t24 -78q0 -68 -51 -112t-141 -44q-58 0 -102.5 22.5z" />
    <glyph glyph-name="t" unicode="t" horiz-adv-x="352" 
d="M142 35q-44 47 -44 129v243h-83v93h36q30 0 45.5 15.5t15.5 44.5v76h95v-130h110v-99h-110v-234q0 -41 20 -61.5t55 -20.5q21 0 35 7v-100q-26 -10 -60 -10q-71 0 -115 47z" />
    <glyph glyph-name="u" unicode="u" horiz-adv-x="575" 
d="M157 15.5q-46 27.5 -72 77.5t-26 116v297h110v-289q0 -56 32.5 -91.5t82.5 -35.5q52 0 85 35.5t33 91.5v289h109v-506h-82l-20 57h-5q-17 -24 -55 -46.5t-87 -22.5q-59 0 -105 27.5z" />
    <glyph glyph-name="v" unicode="v" horiz-adv-x="503" 
d="M254 133l135 373h112l-196 -506h-106l-196 506h116z" />
    <glyph glyph-name="w" unicode="w" horiz-adv-x="725" 
d="M508 162l106 344h109l-167 -506h-91l-103 321l-101 -321h-91l-167 506h113l105 -342l109 342h69z" />
    <glyph glyph-name="x" unicode="x" horiz-adv-x="488" 
d="M312 258l172 -258h-126l-116 182l-116 -182h-122l172 258l-161 248h125l106 -170l106 170h120z" />
    <glyph glyph-name="y" unicode="y" horiz-adv-x="502" 
d="M386 506h113l-210 -534q-35 -87 -72.5 -122t-87.5 -35q-30 0 -54 10v100q14 -7 34 -7q29 0 48.5 14.5t32.5 48.5l12 32l-199 493h118l135 -359z" />
    <glyph glyph-name="z" unicode="z" horiz-adv-x="441" 
d="M403 416l-244 -317h252v-99h-381v90l244 317h-239v99h368v-90z" />
    <glyph glyph-name="braceleft" unicode="{" horiz-adv-x="358" 
d="M219 351q0 -42 -20 -66.5t-50 -34.5q30 -10 50 -34.5t20 -66.5v-180q0 -33 17.5 -50.5t48.5 -17.5h50v-101h-57q-165 0 -165 158v183q0 33 -17.5 48.5t-56.5 15.5v90q39 0 56.5 15.5t17.5 48.5v183q0 158 165 158h58v-101h-51q-31 0 -48.5 -17.5t-17.5 -50.5v-180z" />
    <glyph glyph-name="bar" unicode="|" horiz-adv-x="361" 
d="M235 -180h-109v880h109v-880z" />
    <glyph glyph-name="braceright" unicode="}" horiz-adv-x="358" 
d="M245 359q0 -33 17.5 -48.5t56.5 -15.5v-90q-39 0 -56.5 -15.5t-17.5 -48.5v-183q0 -158 -165 -158h-58v101h50q32 0 49.5 17.5t17.5 50.5v180q0 42 20 66.5t49 34.5q-29 10 -49 34.5t-20 66.5v180q0 33 -17.5 50.5t-49.5 17.5h-50v101h58q165 0 165 -158v-183z" />
    <glyph glyph-name="asciitilde" unicode="~" horiz-adv-x="570" 
d="M328.5 286q-25.5 11 -57.5 31q-24 16 -40.5 23.5t-32.5 7.5q-23 0 -37 -17.5t-14 -50.5h-88q0 80 35.5 122.5t91.5 42.5q30 0 55.5 -11t57.5 -31q24 -16 40.5 -23.5t32.5 -7.5q23 0 37 17.5t14 50.5h88q0 -80 -35.5 -122.5t-91.5 -42.5q-30 0 -55.5 11z" />
    <glyph glyph-name="uni00A0" unicode="&#xa0;" horiz-adv-x="247" 
 />
    <glyph glyph-name="exclamdown" unicode="&#xa1;" horiz-adv-x="293" 
d="M97 387.5q-20 20.5 -20 49.5t20 49t50 20q29 0 49 -20t20 -49t-20 -49.5t-49 -20.5q-30 0 -50 20.5zM210 -180h-127l17 481h93z" />
    <glyph glyph-name="cent" unicode="&#xa2;" horiz-adv-x="549" 
d="M367 118q32 30 43 68h110q-13 -66 -62 -120.5t-119 -71.5v-99h-106v99q-56 13 -101 50t-71 91.5t-26 117.5t26 117.5t71 91.5t101 50v99h106v-99q70 -17 119 -71.5t62 -120.5h-110q-11 38 -43 68t-81 30q-39 0 -71.5 -21t-51.5 -58.5t-19 -85.5t19 -85.5t51.5 -58.5
t71.5 -21q49 0 81 30z" />
    <glyph glyph-name="sterling" unicode="&#xa3;" horiz-adv-x="585" 
d="M224 182q0 -46 -32 -71h350v-111h-502v111q31 1 49.5 19.5t18.5 52.5v99h-68v102h68v110q0 63 28.5 112.5t79 77.5t114.5 28q63 0 112.5 -28t78 -75t31.5 -103h-116q-5 44 -32.5 71t-72.5 27q-47 0 -77 -30.5t-30 -79.5v-110h180v-102h-180v-100z" />
    <glyph glyph-name="currency" unicode="&#xa4;" horiz-adv-x="508" 
d="M404 264l63 -62l-59 -58l-59 58q-43 -27 -95 -27t-95 27l-59 -58l-59 58l63 63q-20 37 -20 85q0 45 19 85l-62 62l59 59l59 -58q43 27 95 27q53 0 95 -28l59 59l59 -59l-63 -62q20 -38 20 -85q0 -48 -20 -86zM313 284.5q24 26.5 24 65.5t-24 65t-59 26t-59 -26t-24 -65
t24 -65.5t59 -26.5t59 26.5z" />
    <glyph glyph-name="yen" unicode="&#xa5;" horiz-adv-x="582" 
d="M454 700h124l-185 -351h108v-91h-152v-64h152v-91h-152v-103h-116v103h-152v91h152v64h-152v91h108l-185 351h129l161 -313z" />
    <glyph glyph-name="brokenbar" unicode="&#xa6;" horiz-adv-x="361" 
d="M235 355h-109v345h109v-345zM235 -180h-109v345h109v-345z" />
    <glyph glyph-name="section" unicode="&#xa7;" horiz-adv-x="505" 
d="M426 16q0 -43 -22 -77.5t-62.5 -55t-93.5 -20.5q-77 0 -127.5 46t-55.5 118h99q3 -31 25 -52.5t59 -21.5q35 0 56.5 18t21.5 46q0 24 -15.5 42.5t-38 31t-64.5 32.5q-52 23 -84.5 43t-55.5 52t-23 78q0 48 25.5 84t65.5 59q-57 47 -57 120q0 43 22 77.5t62.5 55
t93.5 20.5q77 0 127.5 -46t55.5 -118h-98q-4 31 -26 53t-59 22q-35 0 -56 -18.5t-21 -46.5q0 -34 28.5 -56t88.5 -49q53 -25 85 -44.5t55 -51.5t23 -78q0 -48 -25.5 -84t-65.5 -59q57 -47 57 -120zM161.5 258.5q15.5 -18.5 38.5 -32t64 -31.5l25 -11q70 31 70 88
q0 36 -29 58.5t-87 48.5l-26 12q-71 -31 -71 -88q0 -26 15.5 -44.5z" />
    <glyph glyph-name="dieresis" unicode="&#xa8;" horiz-adv-x="356" 
d="M48 598.5q-18 17.5 -18 42.5q0 26 17.5 43t42.5 17t42.5 -17t17.5 -43q0 -25 -17.5 -42.5t-42.5 -17.5q-24 0 -42 17.5zM224 598.5q-18 17.5 -18 42.5q0 26 17.5 43t42.5 17t42.5 -17t17.5 -43q0 -25 -17.5 -42.5t-42.5 -17.5q-24 0 -42 17.5z" />
    <glyph glyph-name="copyright" unicode="&#xa9;" horiz-adv-x="785" 
d="M215 35.5q-81 47.5 -128 130.5t-47 184t47 184t128 130.5t178 47.5t178 -47.5t128 -130.5t47 -184t-47 -184t-128 -130.5t-178 -47.5t-178 47.5zM531.5 100q62.5 37 98.5 102.5t36 147.5t-36 147.5t-98.5 102.5t-138.5 37t-138.5 -37t-98.5 -102.5t-36 -147.5t36 -147.5
t98.5 -102.5t138.5 -37t138.5 37zM306.5 187.5q-40.5 24.5 -64.5 67t-24 95.5t24 95.5t64.5 67t86.5 24.5q67 0 112 -40.5t56 -94.5h-77q-9 26 -31 45t-60 19q-40 0 -69 -32t-29 -84t29 -84t69 -32q38 0 60 19t31 45h77q-11 -54 -56 -94.5t-112 -40.5q-46 0 -86.5 24.5z" />
    <glyph glyph-name="ordfeminine" unicode="&#xaa;" horiz-adv-x="313" 
d="M244.5 678.5q33.5 -33.5 33.5 -87.5v-189h-53l-14 33h-5q-33 -39 -84 -39q-41 0 -70 24.5t-29 65.5q0 42 33.5 71t94.5 29h56v1q0 31 -13.5 47.5t-39.5 16.5q-20 0 -32 -11t-15 -27h-69q5 42 37 70.5t82 28.5q54 0 87.5 -33.5zM189.5 474q17.5 17 17.5 48v12h-50
q-32 0 -47.5 -11.5t-15.5 -29.5q0 -17 13 -26.5t35 -9.5q30 0 47.5 17z" />
    <glyph glyph-name="guillemotleft" unicode="&#xab;" horiz-adv-x="501" 
d="M267 80h-109l-121 185l121 185h109l-124 -185zM464 80h-108l-121 185l121 185h108l-123 -185z" />
    <glyph glyph-name="logicalnot" unicode="&#xac;" horiz-adv-x="570" 
d="M513 241h-102v102h-353v98h455v-200z" />
    <glyph glyph-name="uni00AD" unicode="&#xad;" horiz-adv-x="409" 
d="M368 219h-327v99h327v-99z" />
    <glyph glyph-name="registered" unicode="&#xae;" horiz-adv-x="421" 
d="M299.5 689q41.5 -23 66 -63t24.5 -90q0 -49 -24.5 -89t-66 -63t-89.5 -23q-47 0 -88.5 23t-66 63t-24.5 89q0 50 24.5 90t66 63t88.5 23q48 0 89.5 -23zM293.5 451.5q33.5 32.5 33.5 84.5t-33.5 85t-83.5 33t-83 -33t-33 -85t33 -84.5t83 -32.5t83.5 32.5zM277.5 534.5
q-8.5 -13.5 -24.5 -20.5l38 -58h-59l-31 51h-6v-51h-54v166h80q29 0 47 -16.5t18 -40.5q0 -17 -8.5 -30.5zM195 579v-30h17q20 0 20 15t-20 15h-17z" />
    <glyph glyph-name="macron" unicode="&#xaf;" horiz-adv-x="341" 
d="M311 602h-281v80h281v-80z" />
    <glyph glyph-name="degree" unicode="&#xb0;" horiz-adv-x="361" 
d="M105.5 431q-34.5 19 -54.5 53.5t-20 77.5t20 77t54.5 53.5t75.5 19.5t75 -19.5t54 -53.5t20 -77t-20 -77.5t-54 -53.5t-75 -19t-75.5 19zM230.5 506q20.5 21 20.5 56q0 34 -20.5 55t-49.5 21q-30 0 -50.5 -21t-20.5 -55q0 -35 20.5 -56t50.5 -21q29 0 49.5 21z" />
    <glyph glyph-name="plusminus" unicode="&#xb1;" horiz-adv-x="570" 
d="M503 425v-97h-167v-154h167v-97h-435v97h167v154h-167v97h167v172h101v-172h167z" />
    <glyph glyph-name="uni00B2" unicode="&#xb2;" horiz-adv-x="311" 
d="M146 528h132v-70h-241v59l127 123q19 19 29.5 35t10.5 32q0 17 -12.5 28.5t-33.5 11.5q-24 0 -38 -15t-15 -36h-76q3 54 39.5 87.5t90.5 33.5q53 0 87 -31t34 -74q0 -30 -14 -56t-40 -50z" />
    <glyph glyph-name="uni00B3" unicode="&#xb3;" horiz-adv-x="326" 
d="M279 611q17 -22 17 -52q0 -45 -36 -75.5t-95 -30.5t-95.5 33.5t-40.5 85.5h74q3 -23 18.5 -37.5t43.5 -14.5q26 0 41.5 12.5t15.5 32.5q0 19 -15 31.5t-43 12.5h-34v61h33q22 0 34.5 10.5t12.5 27.5q0 19 -13 30.5t-34 11.5q-23 0 -38 -14t-16 -33h-74q3 49 38 81.5
t90 32.5q54 0 87.5 -31t33.5 -73q0 -45 -45 -70q23 -10 40 -32z" />
    <glyph glyph-name="acute" unicode="&#xb4;" horiz-adv-x="246" 
d="M114 566h-84l72 152h114z" />
    <glyph glyph-name="uni00B5" unicode="&#xb5;" horiz-adv-x="575" 
d="M64 -180v686h110v-288q0 -56 32 -90.5t83 -34.5q52 0 85 34.5t33 90.5v288h109v-506h-82l-20 57h-5q-15 -23 -50.5 -44.5t-79.5 -21.5q-32 0 -57.5 10.5t-42.5 25.5h-5v-207h-110z" />
    <glyph glyph-name="paragraph" unicode="&#xb6;" horiz-adv-x="575" 
d="M498 700v-800h-96v708h-100v-708h-97v449q-77 4 -125.5 53t-48.5 122q0 50 24.5 90.5t67.5 63t98 22.5h277z" />
    <glyph glyph-name="periodcentered" unicode="&#xb7;" horiz-adv-x="247" 
d="M73 218.5q-20 20.5 -20 49.5t20 49t50 20t50 -20t20 -49t-20 -49.5t-50 -20.5t-50 20.5z" />
    <glyph glyph-name="cedilla" unicode="&#xb8;" horiz-adv-x="250" 
d="M125 -41q44 -3 69.5 -26t25.5 -58q0 -42 -30 -66.5t-92 -24.5q-39 0 -68 11v58q24 -7 54 -7q61 0 61 32q0 15 -14 23.5t-45 8.5q-21 0 -39 -5l45 113h59z" />
    <glyph glyph-name="uni00B9" unicode="&#xb9;" horiz-adv-x="253" 
d="M23 740l107 72h60v-354h-79v257l-48 -34z" />
    <glyph glyph-name="ordmasculine" unicode="&#xba;" horiz-adv-x="365" 
d="M107 416.5q-35 20.5 -56 56.5t-21 81t21 81t56 56.5t75 20.5t75.5 -20.5t56.5 -56.5t21 -81t-21 -81t-56.5 -56.5t-75.5 -20.5t-75 20.5zM234 492.5q22 23.5 22 61.5t-22 61t-52 23t-52 -23t-22 -61t22 -61.5t52 -23.5t52 23.5z" />
    <glyph glyph-name="guillemotright" unicode="&#xbb;" horiz-adv-x="501" 
d="M145 80h-108l123 185l-123 185h108l122 -185zM343 80h-108l123 185l-123 185h108l121 -185z" />
    <glyph glyph-name="onequarter.dlig" unicode="&#xbc;" horiz-adv-x="649" 
d="M23 628l107 72h60v-354h-79v257l-48 -34zM145 0h-90l431 700h90zM580 132h40v-67h-40v-65h-79v65h-159v57l145 232h93v-222zM507 132v132l-82 -132h82z" />
    <glyph glyph-name="onehalf.dlig" unicode="&#xbd;" horiz-adv-x="689" 
d="M23 628l107 72h60v-354h-79v257l-48 -34zM145 0h-90l431 700h90zM524 70h132v-70h-241v59l127 123q19 19 29.5 35t10.5 32q0 17 -12.5 28.5t-33.5 11.5q-24 0 -38 -15t-15 -36h-76q3 54 39.5 87.5t90.5 33.5q53 0 87 -31t34 -74q0 -30 -14 -56t-40 -50z" />
    <glyph glyph-name="threequarters.dlig" unicode="&#xbe;" horiz-adv-x="722" 
d="M279 499q17 -22 17 -52q0 -45 -36 -75.5t-95 -30.5t-95.5 33.5t-40.5 85.5h74q3 -23 18.5 -37.5t43.5 -14.5q26 0 41.5 12.5t15.5 32.5q0 19 -15 31.5t-43 12.5h-34v61h33q22 0 34.5 10.5t12.5 27.5q0 19 -13 30.5t-34 11.5q-23 0 -38 -14t-16 -33h-74q3 49 38 81.5
t90 32.5q54 0 87.5 -31t33.5 -73q0 -45 -45 -70q23 -10 40 -32zM218 0h-90l431 700h90zM653 132h40v-67h-40v-65h-79v65h-159v57l145 232h93v-222zM580 132v132l-82 -132h82z" />
    <glyph glyph-name="questiondown" unicode="&#xbf;" horiz-adv-x="498" 
d="M208 387.5q-20 20.5 -20 49.5t20 49t50 20q29 0 49 -20t20 -49t-20 -49.5t-49 -20.5q-30 0 -50 20.5zM139 -160.5q-48 24.5 -74 67t-26 94.5q0 55 22.5 89t65.5 72q39 35 57.5 61.5t18.5 67.5v10h110v-10q0 -43 -13 -74.5t-31 -52.5t-48 -48q-34 -31 -50 -53.5t-16 -53.5
q0 -38 26.5 -62.5t68.5 -24.5q46 0 75.5 32.5t29.5 79.5v9h114v-9q0 -59 -28 -109.5t-78 -80t-113 -29.5t-111 24.5z" />
    <glyph glyph-name="Agrave" unicode="&#xc0;" horiz-adv-x="633" 
d="M635 0h-122l-57 157h-283l-57 -157h-118l263 700h112zM418 264l-103 287l-104 -287h207zM375 755h-87l-109 147h118z" />
    <glyph glyph-name="Aacute" unicode="&#xc1;" horiz-adv-x="633" 
d="M635 0h-122l-57 157h-283l-57 -157h-118l263 700h112zM418 264l-103 287l-104 -287h207zM347 755h-87l78 147h118z" />
    <glyph glyph-name="Acircumflex" unicode="&#xc2;" horiz-adv-x="633" 
d="M635 0h-122l-57 157h-283l-57 -157h-118l263 700h112zM418 264l-103 287l-104 -287h207zM365 902l116 -147h-99l-65 84l-65 -84h-97l116 147h94z" />
    <glyph glyph-name="Atilde" unicode="&#xc3;" horiz-adv-x="633" 
d="M635 0h-122l-57 157h-283l-57 -157h-118l263 700h112zM418 264l-103 287l-104 -287h207zM340 770.5q-18 9.5 -37 26.5q-14 12 -22.5 17t-19.5 5q-16 0 -27 -14.5t-11 -38.5h-72q0 62 28 95.5t71 33.5q28 0 46 -9.5t36 -26.5q12 -11 21 -16.5t20 -5.5q16 0 27.5 14.5
t11.5 38.5h72q0 -63 -28 -96t-71 -33q-27 0 -45 9.5z" />
    <glyph glyph-name="Adieresis" unicode="&#xc4;" horiz-adv-x="633" 
d="M635 0h-122l-57 157h-283l-57 -157h-118l263 700h112zM418 264l-103 287l-104 -287h207zM179 785q-18 18 -18 43t18 42.5t43 17.5q24 0 42 -17.5t18 -42.5t-18 -43t-42 -18q-25 0 -43 18zM370.5 785q-18.5 18 -18.5 43t18.5 42.5t42.5 17.5q25 0 43 -17.5t18 -42.5
t-18 -43t-43 -18q-24 0 -42.5 18z" />
    <glyph glyph-name="Aring" unicode="&#xc5;" horiz-adv-x="633" 
d="M635 0h-122l-57 157h-283l-57 -157h-118l263 700h112zM418 264l-103 287l-104 -287h207zM242 786q-30 29 -30 71t30 71t75 29t75 -29t30 -71t-30 -71t-75 -29t-75 29zM347 827.5q12 11.5 12 29.5t-12 29.5t-30 11.5q-17 0 -29 -11.5t-12 -29.5t11.5 -29.5t29.5 -11.5
t30 11.5z" />
    <glyph glyph-name="AE" unicode="&#xc6;" horiz-adv-x="902" 
d="M537 305v-195h325v-110h-438v157h-245l-85 -157h-128l389 700h497v-110h-315v-178h277v-107h-277zM414 591l-177 -327h187v327h-10z" />
    <glyph glyph-name="Ccedilla" unicode="&#xc7;" horiz-adv-x="718" 
d="M686 243q-15 -65 -55.5 -122t-102 -93t-137.5 -40l-13 -29q44 -3 69.5 -26t25.5 -58q0 -42 -30 -66.5t-92 -24.5q-39 0 -68 11v58q25 -7 54 -7q61 0 61 32q0 15 -14 23.5t-45 8.5q-21 0 -39 -5l34 86q-82 10 -150 60t-107.5 128.5t-39.5 170.5q0 100 46 183t123.5 131
t167.5 48q78 0 142.5 -35.5t106.5 -93.5t58 -126h-119q-18 60 -67 102t-121 42q-59 0 -109.5 -32.5t-81 -89.5t-30.5 -129t30.5 -129t81 -89.5t109.5 -32.5q72 0 122 41.5t71 102.5h119z" />
    <glyph glyph-name="Egrave" unicode="&#xc8;" horiz-adv-x="589" 
d="M193 305v-195h356v-110h-472v700h462v-110h-346v-178h308v-107h-308zM366 755h-87l-109 147h118z" />
    <glyph glyph-name="Eacute" unicode="&#xc9;" horiz-adv-x="589" 
d="M193 305v-195h356v-110h-472v700h462v-110h-346v-178h308v-107h-308zM338 755h-87l78 147h118z" />
    <glyph glyph-name="Ecircumflex" unicode="&#xca;" horiz-adv-x="589" 
d="M193 305v-195h356v-110h-472v700h462v-110h-346v-178h308v-107h-308zM356 902l116 -147h-99l-65 84l-65 -84h-97l116 147h94z" />
    <glyph glyph-name="Edieresis" unicode="&#xcb;" horiz-adv-x="589" 
d="M193 305v-195h356v-110h-472v700h462v-110h-346v-178h308v-107h-308zM170 785q-18 18 -18 43t18 42.5t43 17.5q24 0 42 -17.5t18 -42.5t-18 -43t-42 -18q-25 0 -43 18zM361.5 785q-18.5 18 -18.5 43t18.5 42.5t42.5 17.5q25 0 43 -17.5t18 -42.5t-18 -43t-43 -18
q-24 0 -42.5 18z" />
    <glyph glyph-name="Igrave" unicode="&#xcc;" horiz-adv-x="270" 
d="M193 0h-116v700h116v-700zM193 755h-87l-109 147h118z" />
    <glyph glyph-name="Iacute" unicode="&#xcd;" horiz-adv-x="270" 
d="M193 0h-116v700h116v-700zM165 755h-87l78 147h118z" />
    <glyph glyph-name="Icircumflex" unicode="&#xce;" horiz-adv-x="270" 
d="M193 0h-116v700h116v-700zM183 902l116 -147h-99l-65 84l-65 -84h-97l116 147h94z" />
    <glyph glyph-name="Idieresis" unicode="&#xcf;" horiz-adv-x="270" 
d="M193 0h-116v700h116v-700zM11 785q-18 18 -18 43t18 42.5t43 17.5q24 0 42 -17.5t18 -42.5t-18 -43t-42 -18q-25 0 -43 18zM174 785q-18 18 -18 43t18 42.5t43 17.5q24 0 42 -17.5t18 -42.5t-18 -43t-42 -18q-25 0 -43 18z" />
    <glyph glyph-name="Eth" unicode="&#xd0;" horiz-adv-x="701" 
d="M319 700q95 0 174 -46.5t125 -126.5t46 -177t-46.5 -177.5t-125.5 -126.5t-173 -46h-212v301h-91v99h91v300h212zM319 111q62 0 114.5 31.5t83.5 86t31 121.5t-31 121.5t-83.5 86t-114.5 31.5h-96v-189h135v-99h-135v-190h96z" />
    <glyph glyph-name="Ntilde" unicode="&#xd1;" horiz-adv-x="709" 
d="M519 201v499h113v-700h-107l-335 499v-499h-113v700h107zM383 770.5q-18 9.5 -37 26.5q-14 12 -22.5 17t-19.5 5q-16 0 -27 -14.5t-11 -38.5h-72q0 62 28 95.5t71 33.5q28 0 46 -9.5t36 -26.5q12 -11 21 -16.5t20 -5.5q16 0 27.5 14.5t11.5 38.5h72q0 -63 -28 -96
t-71 -33q-27 0 -45 9.5z" />
    <glyph glyph-name="Ograve" unicode="&#xd2;" horiz-adv-x="748" 
d="M206.5 36q-77.5 48 -123.5 131t-46 183t46 183t123.5 131t167.5 48t167.5 -48t123.5 -131t46 -183t-46 -183t-123.5 -131t-167.5 -48t-167.5 48zM483.5 131.5q50.5 32.5 81 89.5t30.5 129t-30.5 129t-81 89.5t-109.5 32.5t-109.5 -32.5t-81 -89.5t-30.5 -129t30.5 -129
t81 -89.5t109.5 -32.5t109.5 32.5zM431 755h-87l-109 147h118z" />
    <glyph glyph-name="Oacute" unicode="&#xd3;" horiz-adv-x="748" 
d="M206.5 36q-77.5 48 -123.5 131t-46 183t46 183t123.5 131t167.5 48t167.5 -48t123.5 -131t46 -183t-46 -183t-123.5 -131t-167.5 -48t-167.5 48zM483.5 131.5q50.5 32.5 81 89.5t30.5 129t-30.5 129t-81 89.5t-109.5 32.5t-109.5 -32.5t-81 -89.5t-30.5 -129t30.5 -129
t81 -89.5t109.5 -32.5t109.5 32.5zM403 755h-87l78 147h118z" />
    <glyph glyph-name="Ocircumflex" unicode="&#xd4;" horiz-adv-x="748" 
d="M206.5 36q-77.5 48 -123.5 131t-46 183t46 183t123.5 131t167.5 48t167.5 -48t123.5 -131t46 -183t-46 -183t-123.5 -131t-167.5 -48t-167.5 48zM483.5 131.5q50.5 32.5 81 89.5t30.5 129t-30.5 129t-81 89.5t-109.5 32.5t-109.5 -32.5t-81 -89.5t-30.5 -129t30.5 -129
t81 -89.5t109.5 -32.5t109.5 32.5zM421 902l116 -147h-99l-65 84l-65 -84h-97l116 147h94z" />
    <glyph glyph-name="Otilde" unicode="&#xd5;" horiz-adv-x="748" 
d="M206.5 36q-77.5 48 -123.5 131t-46 183t46 183t123.5 131t167.5 48t167.5 -48t123.5 -131t46 -183t-46 -183t-123.5 -131t-167.5 -48t-167.5 48zM483.5 131.5q50.5 32.5 81 89.5t30.5 129t-30.5 129t-81 89.5t-109.5 32.5t-109.5 -32.5t-81 -89.5t-30.5 -129t30.5 -129
t81 -89.5t109.5 -32.5t109.5 32.5zM396 770.5q-18 9.5 -37 26.5q-14 12 -22.5 17t-19.5 5q-16 0 -27 -14.5t-11 -38.5h-72q0 62 28 95.5t71 33.5q28 0 46 -9.5t36 -26.5q12 -11 21 -16.5t20 -5.5q16 0 27.5 14.5t11.5 38.5h72q0 -63 -28 -96t-71 -33q-27 0 -45 9.5z" />
    <glyph glyph-name="Odieresis" unicode="&#xd6;" horiz-adv-x="748" 
d="M206.5 36q-77.5 48 -123.5 131t-46 183t46 183t123.5 131t167.5 48t167.5 -48t123.5 -131t46 -183t-46 -183t-123.5 -131t-167.5 -48t-167.5 48zM483.5 131.5q50.5 32.5 81 89.5t30.5 129t-30.5 129t-81 89.5t-109.5 32.5t-109.5 -32.5t-81 -89.5t-30.5 -129t30.5 -129
t81 -89.5t109.5 -32.5t109.5 32.5zM235 785q-18 18 -18 43t18 42.5t43 17.5q24 0 42 -17.5t18 -42.5t-18 -43t-42 -18q-25 0 -43 18zM426.5 785q-18.5 18 -18.5 43t18.5 42.5t42.5 17.5q25 0 43 -17.5t18 -42.5t-18 -43t-43 -18q-24 0 -42.5 18z" />
    <glyph glyph-name="multiply" unicode="&#xd7;" horiz-adv-x="570" 
d="M285 292l-127 -129l-67 67l128 130l-128 131l67 66l127 -129l127 129l67 -66l-128 -131l128 -130l-67 -67z" />
    <glyph glyph-name="Oslash" unicode="&#xd8;" horiz-adv-x="748" 
d="M711 638l-68 -71q33 -46 50.5 -101t17.5 -116q0 -100 -46 -183t-123.5 -131t-167.5 -48q-56 0 -108 19t-95 54l-65 -69l-69 70l67 71q-32 46 -49.5 101.5t-17.5 115.5q0 100 46 183t123.5 131t167.5 48q55 0 107 -19t95 -54l65 69zM262.5 571.5q-51.5 -32.5 -82 -90.5
t-30.5 -131q0 -75 34 -137l321 344q-58 47 -131 47q-60 0 -111.5 -32.5zM485.5 128.5q51.5 32.5 82 90.5t30.5 131q0 75 -34 137l-321 -344q58 -47 131 -47q60 0 111.5 32.5z" />
    <glyph glyph-name="Ugrave" unicode="&#xd9;" horiz-adv-x="684" 
d="M200.5 23.5q-61.5 35.5 -95 98t-33.5 140.5v438h116v-438q0 -73 41.5 -118t112.5 -45t112.5 45t41.5 118v438h116v-438q0 -78 -33.5 -140.5t-95 -98t-141.5 -35.5t-141.5 35.5zM399 755h-87l-109 147h118z" />
    <glyph glyph-name="Uacute" unicode="&#xda;" horiz-adv-x="684" 
d="M200.5 23.5q-61.5 35.5 -95 98t-33.5 140.5v438h116v-438q0 -73 41.5 -118t112.5 -45t112.5 45t41.5 118v438h116v-438q0 -78 -33.5 -140.5t-95 -98t-141.5 -35.5t-141.5 35.5zM372 755h-87l78 147h118z" />
    <glyph glyph-name="Ucircumflex" unicode="&#xdb;" horiz-adv-x="684" 
d="M200.5 23.5q-61.5 35.5 -95 98t-33.5 140.5v438h116v-438q0 -73 41.5 -118t112.5 -45t112.5 45t41.5 118v438h116v-438q0 -78 -33.5 -140.5t-95 -98t-141.5 -35.5t-141.5 35.5zM390 902l116 -147h-99l-65 84l-65 -84h-97l116 147h94z" />
    <glyph glyph-name="Udieresis" unicode="&#xdc;" horiz-adv-x="684" 
d="M200.5 23.5q-61.5 35.5 -95 98t-33.5 140.5v438h116v-438q0 -73 41.5 -118t112.5 -45t112.5 45t41.5 118v438h116v-438q0 -78 -33.5 -140.5t-95 -98t-141.5 -35.5t-141.5 35.5zM204 785q-18 18 -18 43t18 42.5t43 17.5q24 0 42 -17.5t18 -42.5t-18 -43t-42 -18
q-25 0 -43 18zM395.5 785q-18.5 18 -18.5 43t18.5 42.5t42.5 17.5q25 0 43 -17.5t18 -42.5t-18 -43t-43 -18q-24 0 -42.5 18z" />
    <glyph glyph-name="Yacute" unicode="&#xdd;" horiz-adv-x="569" 
d="M287 387l160 313h124l-229 -434v-266h-116v266l-228 434h128zM316 755h-87l78 147h118z" />
    <glyph glyph-name="Thorn" unicode="&#xde;" horiz-adv-x="646" 
d="M378 590q65 0 119.5 -30t85.5 -81.5t31 -113.5t-31 -113.5t-85.5 -81.5t-119.5 -30h-185v-140h-116v700h116v-110h185zM376 251q53 0 87.5 33t34.5 81t-34.5 81t-87.5 33h-183v-228h183z" />
    <glyph glyph-name="germandbls" unicode="&#xdf;" horiz-adv-x="585" 
d="M514.5 312q35.5 -44 35.5 -116q0 -56 -26.5 -100.5t-74.5 -70t-110 -25.5h-67v102h64q48 0 76.5 27t28.5 73q0 47 -29 75t-76 28h-59v98h23q37 0 64 29t27 74q0 47 -29 75.5t-76 28.5q-49 0 -78 -31.5t-29 -87.5v-491h-110v490q0 65 28 115.5t77.5 78.5t110.5 28
q63 0 112 -26t76 -70.5t27 -99.5q0 -49 -21.5 -86t-50.5 -55q51 -19 86.5 -63z" />
    <glyph glyph-name="agrave" unicode="&#xe0;" horiz-adv-x="515" 
d="M401 461.5q55 -56.5 55 -149.5v-312h-82l-20 57h-5q-21 -27 -57.5 -48t-90.5 -21q-48 0 -87 20.5t-61 55t-22 75.5q0 50 29.5 87.5t83 57.5t122.5 20h81v17q0 45 -25.5 71.5t-68.5 26.5q-38 0 -61 -19.5t-28 -47.5h-110q5 44 29.5 82t68.5 61t102 23q92 0 147 -56.5z
M313 114q34 33 34 79v32h-80q-63 0 -94.5 -20.5t-31.5 -56.5q0 -30 21.5 -48.5t61.5 -18.5q55 0 89 33zM311 566h-84l-103 152h115z" />
    <glyph glyph-name="aacute" unicode="&#xe1;" horiz-adv-x="515" 
d="M401 461.5q55 -56.5 55 -149.5v-312h-82l-20 57h-5q-21 -27 -57.5 -48t-90.5 -21q-48 0 -87 20.5t-61 55t-22 75.5q0 50 29.5 87.5t83 57.5t122.5 20h81v17q0 45 -25.5 71.5t-68.5 26.5q-38 0 -61 -19.5t-28 -47.5h-110q5 44 29.5 82t68.5 61t102 23q92 0 147 -56.5z
M313 114q34 33 34 79v32h-80q-63 0 -94.5 -20.5t-31.5 -56.5q0 -30 21.5 -48.5t61.5 -18.5q55 0 89 33zM287 566h-84l72 152h114z" />
    <glyph glyph-name="acircumflex" unicode="&#xe2;" horiz-adv-x="515" 
d="M401 461.5q55 -56.5 55 -149.5v-312h-82l-20 57h-5q-21 -27 -57.5 -48t-90.5 -21q-48 0 -87 20.5t-61 55t-22 75.5q0 50 29.5 87.5t83 57.5t122.5 20h81v17q0 45 -25.5 71.5t-68.5 26.5q-38 0 -61 -19.5t-28 -47.5h-110q5 44 29.5 82t68.5 61t102 23q92 0 147 -56.5z
M313 114q34 33 34 79v32h-80q-63 0 -94.5 -20.5t-31.5 -56.5q0 -30 21.5 -48.5t61.5 -18.5q55 0 89 33zM304 718l110 -152h-97l-61 89l-61 -89h-94l110 152h93z" />
    <glyph glyph-name="atilde" unicode="&#xe3;" horiz-adv-x="515" 
d="M401 461.5q55 -56.5 55 -149.5v-312h-82l-20 57h-5q-21 -27 -57.5 -48t-90.5 -21q-48 0 -87 20.5t-61 55t-22 75.5q0 50 29.5 87.5t83 57.5t122.5 20h81v17q0 45 -25.5 71.5t-68.5 26.5q-38 0 -61 -19.5t-28 -47.5h-110q5 44 29.5 82t68.5 61t102 23q92 0 147 -56.5z
M313 114q34 33 34 79v32h-80q-63 0 -94.5 -20.5t-31.5 -56.5q0 -30 21.5 -48.5t61.5 -18.5q55 0 89 33zM282 583.5q-16 9.5 -37 28.5q-12 12 -21.5 18.5t-19.5 6.5q-16 0 -27 -15.5t-11 -42.5h-71q0 65 27 99.5t70 34.5q24 0 40 -9.5t37 -28.5q12 -12 21.5 -18.5t19.5 -6.5
q16 0 27 15.5t11 42.5h71q0 -65 -27 -99.5t-70 -34.5q-24 0 -40 9.5z" />
    <glyph glyph-name="adieresis" unicode="&#xe4;" horiz-adv-x="515" 
d="M401 461.5q55 -56.5 55 -149.5v-312h-82l-20 57h-5q-21 -27 -57.5 -48t-90.5 -21q-48 0 -87 20.5t-61 55t-22 75.5q0 50 29.5 87.5t83 57.5t122.5 20h81v17q0 45 -25.5 71.5t-68.5 26.5q-38 0 -61 -19.5t-28 -47.5h-110q5 44 29.5 82t68.5 61t102 23q92 0 147 -56.5z
M313 114q34 33 34 79v32h-80q-63 0 -94.5 -20.5t-31.5 -56.5q0 -30 21.5 -48.5t61.5 -18.5q55 0 89 33zM127 598.5q-18 17.5 -18 42.5q0 26 17.5 43t42.5 17t42.5 -17t17.5 -43q0 -25 -17.5 -42.5t-42.5 -17.5q-24 0 -42 17.5zM303 598.5q-18 17.5 -18 42.5q0 26 17.5 43
t42.5 17t42.5 -17t17.5 -43q0 -25 -17.5 -42.5t-42.5 -17.5q-24 0 -42 17.5z" />
    <glyph glyph-name="aring" unicode="&#xe5;" horiz-adv-x="515" 
d="M401 461.5q55 -56.5 55 -149.5v-312h-82l-20 57h-5q-21 -27 -57.5 -48t-90.5 -21q-48 0 -87 20.5t-61 55t-22 75.5q0 50 29.5 87.5t83 57.5t122.5 20h81v17q0 45 -25.5 71.5t-68.5 26.5q-38 0 -61 -19.5t-28 -47.5h-110q5 44 29.5 82t68.5 61t102 23q92 0 147 -56.5z
M313 114q34 33 34 79v32h-80q-63 0 -94.5 -20.5t-31.5 -56.5q0 -30 21.5 -48.5t61.5 -18.5q55 0 89 33zM183.5 582q-29.5 29 -29.5 71t29.5 70.5t73.5 28.5q45 0 74.5 -28.5t29.5 -70.5t-29.5 -71t-74.5 -29q-44 0 -73.5 29zM287 622.5q12 11.5 12 30.5t-12 30.5t-30 11.5
t-30 -11.5t-12 -30.5t12 -30.5t30 -11.5t30 11.5z" />
    <glyph glyph-name="ae" unicode="&#xe6;" horiz-adv-x="832" 
d="M792 217h-347q8 -61 42 -95.5t84 -34.5q65 0 96 53h114q-22 -64 -76.5 -108t-129.5 -44q-60 0 -106 27.5t-68 69.5q-24 -44 -71.5 -70.5t-120.5 -26.5q-55 0 -95.5 20.5t-61.5 54.5t-21 74q0 74 62.5 117.5t174.5 43.5h79v24q0 45 -25.5 71t-67.5 26q-39 0 -61.5 -19.5
t-28.5 -47.5h-110q5 44 30 82t69 61t104 23q53 0 93.5 -26t59.5 -60q23 37 65 61.5t99 24.5q63 0 114 -32t80.5 -89.5t29.5 -132.5q0 -26 -6 -47zM491 386.5q-34 -32.5 -44 -89.5h245q-8 55 -40 88.5t-81 33.5q-46 0 -80 -32.5zM314 113.5q33 32.5 33 84.5v21h-78
q-63 0 -95.5 -19.5t-32.5 -55.5q0 -28 21.5 -45.5t61.5 -17.5q57 0 90 32.5z" />
    <glyph glyph-name="ccedilla" unicode="&#xe7;" horiz-adv-x="549" 
d="M367 119.5q32 29.5 43 66.5h110q-10 -48 -40 -92t-76 -73t-103 -33l-13 -29q44 -3 69.5 -26t25.5 -58q0 -42 -30 -66.5t-92 -24.5q-39 0 -68 11v58q25 -7 54 -7q61 0 61 32q0 15 -14 23.5t-45 8.5q-21 0 -39 -5l35 87q-59 10 -107 47t-75.5 93t-27.5 121q0 73 34 133.5
t91.5 96t125.5 35.5q60 0 110 -28t82 -73.5t42 -96.5h-110q-11 37 -43 66.5t-81 29.5q-39 0 -71.5 -21t-51.5 -58t-19 -84t19 -84t51.5 -58t71.5 -21q49 0 81 29.5z" />
    <glyph glyph-name="egrave" unicode="&#xe8;" horiz-adv-x="560" 
d="M520 210h-375q10 -57 48 -90t92 -33q39 0 66 15t43 38h114q-15 -38 -46.5 -73t-77 -57t-98.5 -22q-69 0 -126.5 35t-91 95.5t-33.5 134.5q0 73 34 133.5t91.5 96t124.5 35.5t122 -33.5t87 -91.5t32 -129q0 -32 -6 -54zM194 384.5q-39 -34.5 -49 -91.5h274q-9 56 -46 91
t-88 35q-52 0 -91 -34.5zM337 566h-84l-103 152h115z" />
    <glyph glyph-name="eacute" unicode="&#xe9;" horiz-adv-x="560" 
d="M520 210h-375q10 -57 48 -90t92 -33q39 0 66 15t43 38h114q-15 -38 -46.5 -73t-77 -57t-98.5 -22q-69 0 -126.5 35t-91 95.5t-33.5 134.5q0 73 34 133.5t91.5 96t124.5 35.5t122 -33.5t87 -91.5t32 -129q0 -32 -6 -54zM194 384.5q-39 -34.5 -49 -91.5h274q-9 56 -46 91
t-88 35q-52 0 -91 -34.5zM313 566h-84l72 152h114z" />
    <glyph glyph-name="ecircumflex" unicode="&#xea;" horiz-adv-x="560" 
d="M520 210h-375q10 -57 48 -90t92 -33q39 0 66 15t43 38h114q-15 -38 -46.5 -73t-77 -57t-98.5 -22q-69 0 -126.5 35t-91 95.5t-33.5 134.5q0 73 34 133.5t91.5 96t124.5 35.5t122 -33.5t87 -91.5t32 -129q0 -32 -6 -54zM194 384.5q-39 -34.5 -49 -91.5h274q-9 56 -46 91
t-88 35q-52 0 -91 -34.5zM330 718l110 -152h-97l-61 89l-61 -89h-94l110 152h93z" />
    <glyph glyph-name="edieresis" unicode="&#xeb;" horiz-adv-x="560" 
d="M520 210h-375q10 -57 48 -90t92 -33q39 0 66 15t43 38h114q-15 -38 -46.5 -73t-77 -57t-98.5 -22q-69 0 -126.5 35t-91 95.5t-33.5 134.5q0 73 34 133.5t91.5 96t124.5 35.5t122 -33.5t87 -91.5t32 -129q0 -32 -6 -54zM194 384.5q-39 -34.5 -49 -91.5h274q-9 56 -46 91
t-88 35q-52 0 -91 -34.5zM153 598.5q-18 17.5 -18 42.5q0 26 17.5 43t42.5 17t42.5 -17t17.5 -43q0 -25 -17.5 -42.5t-42.5 -17.5q-24 0 -42 17.5zM329 598.5q-18 17.5 -18 42.5q0 26 17.5 43t42.5 17t42.5 -17t17.5 -43q0 -25 -17.5 -42.5t-42.5 -17.5q-24 0 -42 17.5z" />
    <glyph glyph-name="igrave" unicode="&#xec;" horiz-adv-x="237" 
d="M174 0h-110v506h110v-506zM173 566h-84l-103 152h115z" />
    <glyph glyph-name="iacute" unicode="&#xed;" horiz-adv-x="237" 
d="M174 0h-110v506h110v-506zM149 566h-84l72 152h114z" />
    <glyph glyph-name="icircumflex" unicode="&#xee;" horiz-adv-x="237" 
d="M174 0h-110v506h110v-506zM166 718l110 -152h-97l-61 89l-61 -89h-94l110 152h93z" />
    <glyph glyph-name="idieresis" unicode="&#xef;" horiz-adv-x="237" 
d="M174 0h-110v506h110v-506zM2 598.5q-18 17.5 -18 42.5q0 26 17.5 43t42.5 17t42.5 -17t17.5 -43q0 -25 -17.5 -42.5t-42.5 -17.5q-24 0 -42 17.5zM151 598.5q-18 17.5 -18 42.5q0 26 17.5 43t42.5 17t42.5 -17t17.5 -43q0 -25 -17.5 -42.5t-42.5 -17.5q-24 0 -42 17.5z
" />
    <glyph glyph-name="eth" unicode="&#xf0;" horiz-adv-x="579" 
d="M393 623q67 -62 104 -149t37 -186q0 -95 -32.5 -162.5t-89.5 -102.5t-129 -35q-69 0 -126 32t-89.5 88.5t-32.5 125.5t32 125.5t86 89t117 32.5q54 0 91.5 -20.5t53.5 -42.5h5q-25 88 -101 153l-87 -61l-46 61l64 45q-49 25 -110 39l30 82q85 -16 161 -65l92 65l46 -60z
M352.5 105.5q31.5 18.5 50 52t18.5 76.5t-18.5 76.5t-50 52.5t-69.5 19t-70 -18.5t-50.5 -52.5t-18.5 -77t18.5 -76.5t50.5 -52t70 -18.5t69.5 18.5z" />
    <glyph glyph-name="ntilde" unicode="&#xf1;" horiz-adv-x="575" 
d="M64 0v506h82l20 -56h5q17 23 54.5 45.5t87.5 22.5q59 0 105 -27.5t72 -77.5t26 -116v-297h-109v289q0 56 -32.5 91.5t-83.5 35.5q-52 0 -84.5 -35.5t-32.5 -91.5v-289h-110zM321 583.5q-16 9.5 -37 28.5q-12 12 -21.5 18.5t-19.5 6.5q-16 0 -27 -15.5t-11 -42.5h-71
q0 65 27 99.5t70 34.5q24 0 40 -9.5t37 -28.5q12 -12 21.5 -18.5t19.5 -6.5q16 0 27 15.5t11 42.5h71q0 -65 -27 -99.5t-70 -34.5q-24 0 -40 9.5z" />
    <glyph glyph-name="ograve" unicode="&#xf2;" horiz-adv-x="572" 
d="M160.5 23.5q-57.5 35.5 -91.5 96.5t-34 133q0 73 34 133.5t91.5 96t125.5 35.5t125.5 -35.5t91.5 -96t34 -133.5q0 -72 -34 -133t-91.5 -96.5t-125.5 -35.5t-125.5 35.5zM357.5 111q32.5 21 51.5 58t19 84t-19 84t-51.5 58t-71.5 21t-71.5 -21t-51.5 -58t-19 -84t19 -84
t51.5 -58t71.5 -21t71.5 21zM340 566h-84l-103 152h115z" />
    <glyph glyph-name="oacute" unicode="&#xf3;" horiz-adv-x="572" 
d="M160.5 23.5q-57.5 35.5 -91.5 96.5t-34 133q0 73 34 133.5t91.5 96t125.5 35.5t125.5 -35.5t91.5 -96t34 -133.5q0 -72 -34 -133t-91.5 -96.5t-125.5 -35.5t-125.5 35.5zM357.5 111q32.5 21 51.5 58t19 84t-19 84t-51.5 58t-71.5 21t-71.5 -21t-51.5 -58t-19 -84t19 -84
t51.5 -58t71.5 -21t71.5 21zM316 566h-84l72 152h114z" />
    <glyph glyph-name="ocircumflex" unicode="&#xf4;" horiz-adv-x="572" 
d="M160.5 23.5q-57.5 35.5 -91.5 96.5t-34 133q0 73 34 133.5t91.5 96t125.5 35.5t125.5 -35.5t91.5 -96t34 -133.5q0 -72 -34 -133t-91.5 -96.5t-125.5 -35.5t-125.5 35.5zM357.5 111q32.5 21 51.5 58t19 84t-19 84t-51.5 58t-71.5 21t-71.5 -21t-51.5 -58t-19 -84t19 -84
t51.5 -58t71.5 -21t71.5 21zM333 718l110 -152h-97l-61 89l-61 -89h-94l110 152h93z" />
    <glyph glyph-name="otilde" unicode="&#xf5;" horiz-adv-x="572" 
d="M160.5 23.5q-57.5 35.5 -91.5 96.5t-34 133q0 73 34 133.5t91.5 96t125.5 35.5t125.5 -35.5t91.5 -96t34 -133.5q0 -72 -34 -133t-91.5 -96.5t-125.5 -35.5t-125.5 35.5zM357.5 111q32.5 21 51.5 58t19 84t-19 84t-51.5 58t-71.5 21t-71.5 -21t-51.5 -58t-19 -84t19 -84
t51.5 -58t71.5 -21t71.5 21zM311 583.5q-16 9.5 -37 28.5q-12 12 -21.5 18.5t-19.5 6.5q-16 0 -27 -15.5t-11 -42.5h-71q0 65 27 99.5t70 34.5q24 0 40 -9.5t37 -28.5q12 -12 21.5 -18.5t19.5 -6.5q16 0 27 15.5t11 42.5h71q0 -65 -27 -99.5t-70 -34.5q-24 0 -40 9.5z" />
    <glyph glyph-name="odieresis" unicode="&#xf6;" horiz-adv-x="572" 
d="M160.5 23.5q-57.5 35.5 -91.5 96.5t-34 133q0 73 34 133.5t91.5 96t125.5 35.5t125.5 -35.5t91.5 -96t34 -133.5q0 -72 -34 -133t-91.5 -96.5t-125.5 -35.5t-125.5 35.5zM357.5 111q32.5 21 51.5 58t19 84t-19 84t-51.5 58t-71.5 21t-71.5 -21t-51.5 -58t-19 -84t19 -84
t51.5 -58t71.5 -21t71.5 21zM156 598.5q-18 17.5 -18 42.5q0 26 17.5 43t42.5 17t42.5 -17t17.5 -43q0 -25 -17.5 -42.5t-42.5 -17.5q-24 0 -42 17.5zM332 598.5q-18 17.5 -18 42.5q0 26 17.5 43t42.5 17t42.5 -17t17.5 -43q0 -25 -17.5 -42.5t-42.5 -17.5q-24 0 -42 17.5z
" />
    <glyph glyph-name="divide" unicode="&#xf7;" horiz-adv-x="570" 
d="M238 495q-19 19 -19 46q0 28 19 47t47 19t47 -19t19 -47q0 -27 -19 -46t-47 -19t-47 19zM498 313h-426v93h426v-93zM238 131.5q-19 19.5 -19 46.5q0 28 19 47t47 19t47 -19t19 -47q0 -27 -19 -46.5t-47 -19.5t-47 19.5z" />
    <glyph glyph-name="oslash" unicode="&#xf8;" horiz-adv-x="572" 
d="M538 457l-48 -50q47 -67 47 -154q0 -72 -34 -133t-91.5 -96.5t-125.5 -35.5q-83 0 -149 52l-46 -47l-56 56l48 49q-48 70 -48 155q0 73 34 133.5t91.5 96t125.5 35.5q84 0 150 -52l45 47zM211.5 400q-33.5 -21 -52.5 -59.5t-19 -87.5q0 -47 17 -84l215 223q-37 29 -86 29
q-41 0 -74.5 -21zM360.5 107q33.5 21 52.5 59t19 87q0 47 -17 84l-214 -223q37 -28 85 -28q41 0 74.5 21z" />
    <glyph glyph-name="ugrave" unicode="&#xf9;" horiz-adv-x="575" 
d="M157 15.5q-46 27.5 -72 77.5t-26 116v297h110v-289q0 -56 32.5 -91.5t82.5 -35.5q52 0 85 35.5t33 91.5v289h109v-506h-82l-20 57h-5q-17 -24 -55 -46.5t-87 -22.5q-59 0 -105 27.5zM339 566h-84l-103 152h115z" />
    <glyph glyph-name="uacute" unicode="&#xfa;" horiz-adv-x="575" 
d="M157 15.5q-46 27.5 -72 77.5t-26 116v297h110v-289q0 -56 32.5 -91.5t82.5 -35.5q52 0 85 35.5t33 91.5v289h109v-506h-82l-20 57h-5q-17 -24 -55 -46.5t-87 -22.5q-59 0 -105 27.5zM315 566h-84l72 152h114z" />
    <glyph glyph-name="ucircumflex" unicode="&#xfb;" horiz-adv-x="575" 
d="M157 15.5q-46 27.5 -72 77.5t-26 116v297h110v-289q0 -56 32.5 -91.5t82.5 -35.5q52 0 85 35.5t33 91.5v289h109v-506h-82l-20 57h-5q-17 -24 -55 -46.5t-87 -22.5q-59 0 -105 27.5zM332 718l110 -152h-97l-61 89l-61 -89h-94l110 152h93z" />
    <glyph glyph-name="udieresis" unicode="&#xfc;" horiz-adv-x="575" 
d="M157 15.5q-46 27.5 -72 77.5t-26 116v297h110v-289q0 -56 32.5 -91.5t82.5 -35.5q52 0 85 35.5t33 91.5v289h109v-506h-82l-20 57h-5q-17 -24 -55 -46.5t-87 -22.5q-59 0 -105 27.5zM155 598.5q-18 17.5 -18 42.5q0 26 17.5 43t42.5 17t42.5 -17t17.5 -43
q0 -25 -17.5 -42.5t-42.5 -17.5q-24 0 -42 17.5zM331 598.5q-18 17.5 -18 42.5q0 26 17.5 43t42.5 17t42.5 -17t17.5 -43q0 -25 -17.5 -42.5t-42.5 -17.5q-24 0 -42 17.5z" />
    <glyph glyph-name="yacute" unicode="&#xfd;" horiz-adv-x="502" 
d="M386 506h113l-210 -534q-35 -87 -72.5 -122t-87.5 -35q-30 0 -54 10v100q14 -7 34 -7q29 0 48.5 14.5t32.5 48.5l12 32l-199 493h118l135 -359zM283 566h-84l72 152h114z" />
    <glyph glyph-name="thorn" unicode="&#xfe;" horiz-adv-x="595" 
d="M69 -180v880h110v-246h5q14 20 53.5 42t89.5 22q62 0 115.5 -34.5t85.5 -95t32 -135.5t-32 -135.5t-85.5 -95t-115.5 -34.5q-35 0 -65.5 11.5t-50.5 27t-27 26.5h-5v-233h-110zM383 110.5q31 20.5 49.5 58t18.5 84.5t-18.5 84.5t-49.5 58t-68 20.5t-68 -20.5t-49.5 -58
t-18.5 -84.5t18.5 -84.5t49.5 -58t68 -20.5t68 20.5z" />
    <glyph glyph-name="ydieresis" unicode="&#xff;" horiz-adv-x="502" 
d="M386 506h113l-210 -534q-35 -87 -72.5 -122t-87.5 -35q-30 0 -54 10v100q14 -7 34 -7q29 0 48.5 14.5t32.5 48.5l12 32l-199 493h118l135 -359zM124 598.5q-18 17.5 -18 42.5q0 26 17.5 43t42.5 17t42.5 -17t17.5 -43q0 -25 -17.5 -42.5t-42.5 -17.5q-24 0 -42 17.5z
M300 598.5q-18 17.5 -18 42.5q0 26 17.5 43t42.5 17t42.5 -17t17.5 -43q0 -25 -17.5 -42.5t-42.5 -17.5q-24 0 -42 17.5z" />
    <glyph glyph-name="Amacron" unicode="&#x100;" horiz-adv-x="633" 
d="M635 0h-122l-57 157h-283l-57 -157h-118l263 700h112zM418 264l-103 287l-104 -287h207zM462 786h-290v84h290v-84z" />
    <glyph glyph-name="amacron" unicode="&#x101;" horiz-adv-x="515" 
d="M401 461.5q55 -56.5 55 -149.5v-312h-82l-20 57h-5q-21 -27 -57.5 -48t-90.5 -21q-48 0 -87 20.5t-61 55t-22 75.5q0 50 29.5 87.5t83 57.5t122.5 20h81v17q0 45 -25.5 71.5t-68.5 26.5q-38 0 -61 -19.5t-28 -47.5h-110q5 44 29.5 82t68.5 61t102 23q92 0 147 -56.5z
M313 114q34 33 34 79v32h-80q-63 0 -94.5 -20.5t-31.5 -56.5q0 -30 21.5 -48.5t61.5 -18.5q55 0 89 33zM398 602h-281v80h281v-80z" />
    <glyph glyph-name="Abreve" unicode="&#x102;" horiz-adv-x="633" 
d="M635 0h-122l-57 157h-283l-57 -157h-118l263 700h112zM418 264l-103 287l-104 -287h207zM210 799q-42 39 -47 98h83q3 -27 21 -45.5t50 -18.5t49.5 18t21.5 46h83q-5 -59 -47.5 -98t-106.5 -39q-65 0 -107 39z" />
    <glyph glyph-name="abreve" unicode="&#x103;" horiz-adv-x="515" 
d="M401 461.5q55 -56.5 55 -149.5v-312h-82l-20 57h-5q-21 -27 -57.5 -48t-90.5 -21q-48 0 -87 20.5t-61 55t-22 75.5q0 50 29.5 87.5t83 57.5t122.5 20h81v17q0 45 -25.5 71.5t-68.5 26.5q-38 0 -61 -19.5t-28 -47.5h-110q5 44 29.5 82t68.5 61t102 23q92 0 147 -56.5z
M313 114q34 33 34 79v32h-80q-63 0 -94.5 -20.5t-31.5 -56.5q0 -30 21.5 -48.5t61.5 -18.5q55 0 89 33zM152 612.5q-41 39.5 -46 98.5h80q4 -29 21.5 -47.5t49.5 -18.5t49.5 18.5t21.5 47.5h80q-5 -59 -46 -98.5t-105 -39.5t-105 39.5z" />
    <glyph glyph-name="Aogonek" unicode="&#x104;" horiz-adv-x="633" 
d="M563 -138.5q14 -12.5 38 -12.5q19 0 34 6v-64q-23 -7 -50 -7q-51 0 -81.5 27t-30.5 72q0 34 20 64.5t55 52.5h-35l-57 157h-283l-57 -157h-118l263 700h112l262 -700q-86 -48 -86 -103q0 -23 14 -35.5zM418 264l-103 287l-104 -287h207z" />
    <glyph glyph-name="aogonek" unicode="&#x105;" horiz-adv-x="515" 
d="M456 0q-86 -48 -86 -103q0 -23 14 -35.5t38 -12.5q19 0 34 6v-64q-23 -7 -50 -7q-51 0 -81.5 27t-30.5 72q0 36 21 66.5t58 52.5l-19 55h-5q-21 -27 -57.5 -48t-90.5 -21q-48 0 -87 20.5t-61 55t-22 75.5q0 50 29.5 87.5t83 57.5t122.5 20h81v17q0 45 -25.5 71.5
t-68.5 26.5q-38 0 -61 -19.5t-28 -47.5h-110q5 44 29.5 82t68.5 61t102 23q92 0 147 -56.5t55 -149.5v-312zM313 114q34 33 34 79v32h-80q-63 0 -94.5 -20.5t-31.5 -56.5q0 -30 21.5 -48.5t61.5 -18.5q55 0 89 33z" />
    <glyph glyph-name="Cacute" unicode="&#x106;" horiz-adv-x="718" 
d="M206.5 36q-77.5 48 -123.5 131t-46 183t46 183t123.5 131t167.5 48q78 0 142.5 -35.5t106.5 -93.5t58 -126h-119q-18 60 -67 102t-121 42q-59 0 -109.5 -32.5t-81 -89.5t-30.5 -129t30.5 -129t81 -89.5t109.5 -32.5q72 0 122 41.5t71 102.5h119q-16 -68 -58.5 -126
t-107.5 -93.5t-146 -35.5q-90 0 -167.5 48zM402 755h-87l78 147h118z" />
    <glyph glyph-name="cacute" unicode="&#x107;" horiz-adv-x="549" 
d="M160.5 23.5q-57.5 35.5 -91.5 96.5t-34 133q0 73 34 133.5t91.5 96t125.5 35.5q60 0 110 -28t82 -73.5t42 -96.5h-110q-11 37 -43 66.5t-81 29.5q-39 0 -71.5 -21t-51.5 -58t-19 -84t19 -84t51.5 -58t71.5 -21q49 0 81 29.5t43 66.5h110q-10 -51 -42 -96.5t-82 -73.5
t-110 -28q-68 0 -125.5 35.5zM314 566h-84l72 152h114z" />
    <glyph glyph-name="Ccircumflex" unicode="&#x108;" horiz-adv-x="718" 
d="M206.5 36q-77.5 48 -123.5 131t-46 183t46 183t123.5 131t167.5 48q78 0 142.5 -35.5t106.5 -93.5t58 -126h-119q-18 60 -67 102t-121 42q-59 0 -109.5 -32.5t-81 -89.5t-30.5 -129t30.5 -129t81 -89.5t109.5 -32.5q72 0 122 41.5t71 102.5h119q-16 -68 -58.5 -126
t-107.5 -93.5t-146 -35.5q-90 0 -167.5 48zM420 902l116 -147h-99l-65 84l-65 -84h-97l116 147h94z" />
    <glyph glyph-name="ccircumflex" unicode="&#x109;" horiz-adv-x="549" 
d="M160.5 23.5q-57.5 35.5 -91.5 96.5t-34 133q0 73 34 133.5t91.5 96t125.5 35.5q60 0 110 -28t82 -73.5t42 -96.5h-110q-11 37 -43 66.5t-81 29.5q-39 0 -71.5 -21t-51.5 -58t-19 -84t19 -84t51.5 -58t71.5 -21q49 0 81 29.5t43 66.5h110q-10 -51 -42 -96.5t-82 -73.5
t-110 -28q-68 0 -125.5 35.5zM332 718l110 -152h-97l-61 89l-61 -89h-94l110 152h93z" />
    <glyph glyph-name="Cdotaccent" unicode="&#x10a;" horiz-adv-x="718" 
d="M206.5 36q-77.5 48 -123.5 131t-46 183t46 183t123.5 131t167.5 48q78 0 142.5 -35.5t106.5 -93.5t58 -126h-119q-18 60 -67 102t-121 42q-59 0 -109.5 -32.5t-81 -89.5t-30.5 -129t30.5 -129t81 -89.5t109.5 -32.5q72 0 122 41.5t71 102.5h119q-16 -68 -58.5 -126
t-107.5 -93.5t-146 -35.5q-90 0 -167.5 48zM327 781.5q-19 18.5 -19 46.5q0 27 19 45.5t46 18.5t45.5 -18t18.5 -46t-18.5 -46.5t-45.5 -18.5t-46 18.5z" />
    <glyph glyph-name="cdotaccent" unicode="&#x10b;" horiz-adv-x="549" 
d="M160.5 23.5q-57.5 35.5 -91.5 96.5t-34 133q0 73 34 133.5t91.5 96t125.5 35.5q60 0 110 -28t82 -73.5t42 -96.5h-110q-11 37 -43 66.5t-81 29.5q-39 0 -71.5 -21t-51.5 -58t-19 -84t19 -84t51.5 -58t71.5 -21q49 0 81 29.5t43 66.5h110q-10 -51 -42 -96.5t-82 -73.5
t-110 -28q-68 0 -125.5 35.5zM239 595.5q-19 18.5 -19 45.5q0 28 19 46.5t46 18.5t45.5 -18.5t18.5 -46.5q0 -27 -18.5 -45.5t-45.5 -18.5t-46 18.5z" />
    <glyph glyph-name="Ccaron" unicode="&#x10c;" horiz-adv-x="718" 
d="M206.5 36q-77.5 48 -123.5 131t-46 183t46 183t123.5 131t167.5 48q78 0 142.5 -35.5t106.5 -93.5t58 -126h-119q-18 60 -67 102t-121 42q-59 0 -109.5 -32.5t-81 -89.5t-30.5 -129t30.5 -129t81 -89.5t109.5 -32.5q72 0 122 41.5t71 102.5h119q-16 -68 -58.5 -126
t-107.5 -93.5t-146 -35.5q-90 0 -167.5 48zM372 818l65 84h98l-116 -147h-94l-116 147h99z" />
    <glyph glyph-name="ccaron" unicode="&#x10d;" horiz-adv-x="549" 
d="M160.5 23.5q-57.5 35.5 -91.5 96.5t-34 133q0 73 34 133.5t91.5 96t125.5 35.5q60 0 110 -28t82 -73.5t42 -96.5h-110q-11 37 -43 66.5t-81 29.5q-39 0 -71.5 -21t-51.5 -58t-19 -84t19 -84t51.5 -58t71.5 -21q49 0 81 29.5t43 66.5h110q-10 -51 -42 -96.5t-82 -73.5
t-110 -28q-68 0 -125.5 35.5zM285 629l60 89h96l-110 -152h-93l-110 152h96z" />
    <glyph glyph-name="Dcaron" unicode="&#x10e;" horiz-adv-x="671" 
d="M77 0v700h212q95 0 174 -46.5t125 -126.5t46 -177t-46.5 -177.5t-125.5 -126.5t-173 -46h-212zM289 111q61 0 113.5 31.5t84 86t31.5 121.5t-31.5 121.5t-84 86t-113.5 31.5h-96v-478h96zM332 818l65 84h98l-116 -147h-94l-116 147h99z" />
    <glyph glyph-name="dcaron" unicode="&#x10f;" horiz-adv-x="595" 
d="M152.5 22.5q-53.5 34.5 -85.5 95t-32 135.5t32 135.5t85.5 95t115.5 34.5q35 0 65.5 -11.5t50.5 -27t27 -26.5h5v247h110v-700h-82l-20 57h-5q-16 -22 -57 -45.5t-94 -23.5q-62 0 -115.5 34.5zM348 110.5q31 20.5 49.5 58t18.5 84.5t-18.5 84.5t-49.5 58t-68 20.5
t-68 -20.5t-49.5 -58t-18.5 -84.5t18.5 -84.5t49.5 -58t68 -20.5t68 20.5zM639 551h-70l32 149h104z" />
    <glyph glyph-name="Dcroat" unicode="&#x110;" horiz-adv-x="701" 
d="M319 700q95 0 174 -46.5t125 -126.5t46 -177t-46.5 -177.5t-125.5 -126.5t-173 -46h-212v301h-91v99h91v300h212zM319 111q62 0 114.5 31.5t83.5 86t31 121.5t-31 121.5t-83.5 86t-114.5 31.5h-96v-189h135v-99h-135v-190h96z" />
    <glyph glyph-name="dcroat" unicode="&#x111;" horiz-adv-x="609" 
d="M603 632v-85h-77v-547h-82l-20 57h-5q-17 -23 -56 -46t-95 -23q-64 0 -117.5 33t-84.5 91t-31 129q0 70 31 127t84.5 90t117.5 33q54 0 92 -22.5t51 -42.5h5v121h-168v85h168v68h110v-68h77zM377.5 132.5q38.5 42.5 38.5 108.5t-38.5 108.5t-97.5 42.5t-97.5 -42.5
t-38.5 -108.5t38.5 -108.5t97.5 -42.5t97.5 42.5z" />
    <glyph glyph-name="Emacron" unicode="&#x112;" horiz-adv-x="589" 
d="M193 305v-195h356v-110h-472v700h462v-110h-346v-178h308v-107h-308zM453 786h-290v84h290v-84z" />
    <glyph glyph-name="emacron" unicode="&#x113;" horiz-adv-x="560" 
d="M520 210h-375q10 -57 48 -90t92 -33q39 0 66 15t43 38h114q-15 -38 -46.5 -73t-77 -57t-98.5 -22q-69 0 -126.5 35t-91 95.5t-33.5 134.5q0 73 34 133.5t91.5 96t124.5 35.5t122 -33.5t87 -91.5t32 -129q0 -32 -6 -54zM194 384.5q-39 -34.5 -49 -91.5h274q-9 56 -46 91
t-88 35q-52 0 -91 -34.5zM424 602h-281v80h281v-80z" />
    <glyph glyph-name="Ebreve" unicode="&#x114;" horiz-adv-x="589" 
d="M193 305v-195h356v-110h-472v700h462v-110h-346v-178h308v-107h-308zM202 799q-42 39 -47 98h83q3 -27 21 -45.5t50 -18.5t49.5 18t21.5 46h83q-5 -59 -47.5 -98t-106.5 -39q-65 0 -107 39z" />
    <glyph glyph-name="ebreve" unicode="&#x115;" horiz-adv-x="560" 
d="M520 210h-375q10 -57 48 -90t92 -33q39 0 66 15t43 38h114q-15 -38 -46.5 -73t-77 -57t-98.5 -22q-69 0 -126.5 35t-91 95.5t-33.5 134.5q0 73 34 133.5t91.5 96t124.5 35.5t122 -33.5t87 -91.5t32 -129q0 -32 -6 -54zM194 384.5q-39 -34.5 -49 -91.5h274q-9 56 -46 91
t-88 35q-52 0 -91 -34.5zM178 612.5q-41 39.5 -46 98.5h80q4 -29 21.5 -47.5t49.5 -18.5t49.5 18.5t21.5 47.5h80q-5 -59 -46 -98.5t-105 -39.5t-105 39.5z" />
    <glyph glyph-name="Edotaccent" unicode="&#x116;" horiz-adv-x="589" 
d="M193 305v-195h356v-110h-472v700h462v-110h-346v-178h308v-107h-308zM263 781.5q-19 18.5 -19 46.5q0 27 19 45.5t46 18.5t45.5 -18t18.5 -46t-18.5 -46.5t-45.5 -18.5t-46 18.5z" />
    <glyph glyph-name="edotaccent" unicode="&#x117;" horiz-adv-x="560" 
d="M520 210h-375q10 -57 48 -90t92 -33q39 0 66 15t43 38h114q-15 -38 -46.5 -73t-77 -57t-98.5 -22q-69 0 -126.5 35t-91 95.5t-33.5 134.5q0 73 34 133.5t91.5 96t124.5 35.5t122 -33.5t87 -91.5t32 -129q0 -32 -6 -54zM194 384.5q-39 -34.5 -49 -91.5h274q-9 56 -46 91
t-88 35q-52 0 -91 -34.5zM238 595.5q-19 18.5 -19 45.5q0 28 19 46.5t46 18.5t45.5 -18.5t18.5 -46.5q0 -27 -18.5 -45.5t-45.5 -18.5t-46 18.5z" />
    <glyph glyph-name="Eogonek" unicode="&#x118;" horiz-adv-x="589" 
d="M549 0q-86 -48 -86 -103q0 -23 14 -35.5t38 -12.5q19 0 34 6v-64q-23 -7 -50 -7q-51 0 -81.5 27t-30.5 72q0 34 20 64.5t55 52.5h-385v700h462v-110h-346v-178h308v-107h-308v-195h356v-110z" />
    <glyph glyph-name="eogonek" unicode="&#x119;" horiz-adv-x="560" 
d="M520 210h-375q10 -57 48 -90t92 -33q39 0 66 15t43 38h114q-17 -49 -75 -103q-85 -79 -85 -140q0 -23 14 -35.5t38 -12.5q19 0 34 6v-63q-22 -8 -50 -8q-51 0 -81.5 27t-30.5 72q0 62 57 109q-19 -4 -43 -4q-69 0 -126.5 35t-91 95.5t-33.5 134.5q0 73 34 133.5t91.5 96
t124.5 35.5t122 -33.5t87 -91.5t32 -129q0 -32 -6 -54zM194 384.5q-39 -34.5 -49 -91.5h274q-9 56 -46 91t-88 35q-52 0 -91 -34.5z" />
    <glyph glyph-name="Ecaron" unicode="&#x11a;" horiz-adv-x="589" 
d="M193 305v-195h356v-110h-472v700h462v-110h-346v-178h308v-107h-308zM308 818l65 84h98l-116 -147h-94l-116 147h99z" />
    <glyph glyph-name="ecaron" unicode="&#x11b;" horiz-adv-x="560" 
d="M520 210h-375q10 -57 48 -90t92 -33q39 0 66 15t43 38h114q-15 -38 -46.5 -73t-77 -57t-98.5 -22q-69 0 -126.5 35t-91 95.5t-33.5 134.5q0 73 34 133.5t91.5 96t124.5 35.5t122 -33.5t87 -91.5t32 -129q0 -32 -6 -54zM194 384.5q-39 -34.5 -49 -91.5h274q-9 56 -46 91
t-88 35q-52 0 -91 -34.5zM284 629l60 89h96l-110 -152h-93l-110 152h96z" />
    <glyph glyph-name="Gcircumflex" unicode="&#x11c;" horiz-adv-x="758" 
d="M387 359h305v-359h-71l-22 100q-34 -47 -93 -79.5t-132 -32.5q-90 0 -167.5 48t-123.5 131t-46 183t46 183t123.5 131t167.5 48q78 0 143.5 -33t108 -87t55.5 -115h-119q-20 51 -68.5 87.5t-119.5 36.5q-59 0 -109.5 -32.5t-81 -89.5t-30.5 -129t30.5 -129t81 -89.5
t109.5 -32.5q56 0 99 23.5t68 60.5t31 76h-185v100zM420 902l116 -147h-99l-65 84l-65 -84h-97l116 147h94z" />
    <glyph glyph-name="gcircumflex" unicode="&#x11d;" horiz-adv-x="580" 
d="M166 -164.5q-49 25.5 -75.5 62t-34.5 71.5h112q11 -26 40.5 -43t73.5 -17q57 0 91 32t34 88v55h-5q-15 -21 -52 -43.5t-86 -22.5q-61 0 -114 33t-84 90.5t-31 126.5t31 126.5t84 90.5t114 33q52 0 90.5 -23t54.5 -45h5l21 56h82v-476q0 -101 -63 -160.5t-170 -59.5
q-69 0 -118 25.5zM341 136.5q30 19.5 48 54.5t18 77q0 43 -18 77.5t-48 54t-65 19.5q-36 0 -66 -19.5t-48 -54t-18 -77.5t18 -77.5t48 -54t66 -19.5q35 0 65 19.5zM338 718l110 -152h-97l-61 89l-61 -89h-94l110 152h93z" />
    <glyph glyph-name="Gbreve" unicode="&#x11e;" horiz-adv-x="758" 
d="M387 359h305v-359h-71l-22 100q-34 -47 -93 -79.5t-132 -32.5q-90 0 -167.5 48t-123.5 131t-46 183t46 183t123.5 131t167.5 48q78 0 143.5 -33t108 -87t55.5 -115h-119q-20 51 -68.5 87.5t-119.5 36.5q-59 0 -109.5 -32.5t-81 -89.5t-30.5 -129t30.5 -129t81 -89.5
t109.5 -32.5q56 0 99 23.5t68 60.5t31 76h-185v100zM266 799q-42 39 -47 98h83q3 -27 21 -45.5t50 -18.5t49.5 18t21.5 46h83q-5 -59 -47.5 -98t-106.5 -39q-65 0 -107 39z" />
    <glyph glyph-name="gbreve" unicode="&#x11f;" horiz-adv-x="580" 
d="M166 -164.5q-49 25.5 -75.5 62t-34.5 71.5h112q11 -26 40.5 -43t73.5 -17q57 0 91 32t34 88v55h-5q-15 -21 -52 -43.5t-86 -22.5q-61 0 -114 33t-84 90.5t-31 126.5t31 126.5t84 90.5t114 33q52 0 90.5 -23t54.5 -45h5l21 56h82v-476q0 -101 -63 -160.5t-170 -59.5
q-69 0 -118 25.5zM341 136.5q30 19.5 48 54.5t18 77q0 43 -18 77.5t-48 54t-65 19.5q-36 0 -66 -19.5t-48 -54t-18 -77.5t18 -77.5t48 -54t66 -19.5q35 0 65 19.5zM185 612.5q-41 39.5 -46 98.5h80q4 -29 21.5 -47.5t49.5 -18.5t49.5 18.5t21.5 47.5h80q-5 -59 -46 -98.5
t-105 -39.5t-105 39.5z" />
    <glyph glyph-name="Gdotaccent" unicode="&#x120;" horiz-adv-x="758" 
d="M387 359h305v-359h-71l-22 100q-34 -47 -93 -79.5t-132 -32.5q-90 0 -167.5 48t-123.5 131t-46 183t46 183t123.5 131t167.5 48q78 0 143.5 -33t108 -87t55.5 -115h-119q-20 51 -68.5 87.5t-119.5 36.5q-59 0 -109.5 -32.5t-81 -89.5t-30.5 -129t30.5 -129t81 -89.5
t109.5 -32.5q56 0 99 23.5t68 60.5t31 76h-185v100zM327 781.5q-19 18.5 -19 46.5q0 27 19 45.5t46 18.5t45.5 -18t18.5 -46t-18.5 -46.5t-45.5 -18.5t-46 18.5z" />
    <glyph glyph-name="gdotaccent" unicode="&#x121;" horiz-adv-x="580" 
d="M166 -164.5q-49 25.5 -75.5 62t-34.5 71.5h112q11 -26 40.5 -43t73.5 -17q57 0 91 32t34 88v55h-5q-15 -21 -52 -43.5t-86 -22.5q-61 0 -114 33t-84 90.5t-31 126.5t31 126.5t84 90.5t114 33q52 0 90.5 -23t54.5 -45h5l21 56h82v-476q0 -101 -63 -160.5t-170 -59.5
q-69 0 -118 25.5zM341 136.5q30 19.5 48 54.5t18 77q0 43 -18 77.5t-48 54t-65 19.5q-36 0 -66 -19.5t-48 -54t-18 -77.5t18 -77.5t48 -54t66 -19.5q35 0 65 19.5zM245 595.5q-19 18.5 -19 45.5q0 28 19 46.5t46 18.5t45.5 -18.5t18.5 -46.5q0 -27 -18.5 -45.5t-45.5 -18.5
t-46 18.5z" />
    <glyph glyph-name="uni0122" unicode="&#x122;" horiz-adv-x="758" 
d="M387 359h305v-359h-71l-22 100q-34 -47 -93 -79.5t-132 -32.5q-90 0 -167.5 48t-123.5 131t-46 183t46 183t123.5 131t167.5 48q78 0 143.5 -33t108 -87t55.5 -115h-119q-20 51 -68.5 87.5t-119.5 36.5q-59 0 -109.5 -32.5t-81 -89.5t-30.5 -129t30.5 -129t81 -89.5
t109.5 -32.5q56 0 99 23.5t68 60.5t31 76h-185v100zM422 -90.5q19 -19.5 19 -53.5q0 -85 -91 -155l-20 26q12 10 24.5 30t16.5 44q-26 1 -44 19.5t-18 44.5q0 27 19 45.5t46 18.5q29 0 48 -19.5z" />
    <glyph glyph-name="uni0123" unicode="&#x123;" horiz-adv-x="580" 
d="M166 -164.5q-49 25.5 -75.5 62t-34.5 71.5h112q11 -26 40.5 -43t73.5 -17q57 0 91 32t34 88v55h-5q-15 -21 -52 -43.5t-86 -22.5q-61 0 -114 33t-84 90.5t-31 126.5t31 126.5t84 90.5t114 33q52 0 90.5 -23t54.5 -45h5l21 56h82v-476q0 -101 -63 -160.5t-170 -59.5
q-69 0 -118 25.5zM341 136.5q30 19.5 48 54.5t18 77q0 43 -18 77.5t-48 54t-65 19.5q-36 0 -66 -19.5t-48 -54t-18 -77.5t18 -77.5t48 -54t66 -19.5q35 0 65 19.5zM338.5 675q18.5 -18 18.5 -45t-19 -45.5t-46 -18.5q-29 0 -48 20t-19 54q0 52 29.5 90t63.5 64l19 -26
q-13 -11 -25.5 -30.5t-16.5 -43.5q25 -1 43.5 -19z" />
    <glyph glyph-name="Hcircumflex" unicode="&#x124;" horiz-adv-x="700" 
d="M507 413v287h116v-700h-116v302h-314v-302h-116v700h116v-287h314zM398 902l116 -147h-99l-65 84l-65 -84h-97l116 147h94z" />
    <glyph glyph-name="hcircumflex" unicode="&#x125;" horiz-adv-x="580" 
d="M69 0v700h110v-250h5q16 23 54 45.5t87 22.5q56 0 100.5 -27.5t70 -77.5t25.5 -116v-297h-109v289q0 56 -32.5 91.5t-83.5 35.5q-52 0 -84.5 -35.5t-32.5 -91.5v-289h-110zM343 902l116 -147h-99l-65 84l-65 -84h-97l116 147h94z" />
    <glyph glyph-name="Hbar" unicode="&#x126;" horiz-adv-x="761" 
d="M654 607h91v-99h-91v-508h-116v302h-315v-302h-116v508h-91v99h91v93h116v-95h315v95h116v-93zM223 511v-98h315v98h-315z" />
    <glyph glyph-name="hbar" unicode="&#x127;" horiz-adv-x="594" 
d="M440 463.5q45 -27.5 70.5 -78t25.5 -116.5v-269h-110v262q0 56 -32.5 91.5t-83.5 35.5q-52 0 -84.5 -35.5t-32.5 -91.5v-262h-110v547h-77v85h77v68h110v-68h169v-85h-169v-125h5q15 23 53.5 46t87.5 23q56 0 101 -27.5z" />
    <glyph glyph-name="Itilde" unicode="&#x128;" horiz-adv-x="270" 
d="M193 0h-116v700h116v-700zM158 770.5q-18 9.5 -37 26.5q-14 12 -22.5 17t-19.5 5q-16 0 -27 -14.5t-11 -38.5h-72q0 62 28 95.5t71 33.5q28 0 46 -9.5t36 -26.5q12 -11 21 -16.5t20 -5.5q16 0 27.5 14.5t11.5 38.5h72q0 -63 -28 -96t-71 -33q-27 0 -45 9.5z" />
    <glyph glyph-name="itilde" unicode="&#x129;" horiz-adv-x="237" 
d="M174 0h-110v506h110v-506zM144 583.5q-16 9.5 -37 28.5q-12 12 -21.5 18.5t-19.5 6.5q-16 0 -27 -15.5t-11 -42.5h-71q0 65 27 99.5t70 34.5q24 0 40 -9.5t37 -28.5q12 -12 21.5 -18.5t19.5 -6.5q16 0 27 15.5t11 42.5h71q0 -65 -27 -99.5t-70 -34.5q-24 0 -40 9.5z" />
    <glyph glyph-name="Imacron" unicode="&#x12a;" horiz-adv-x="270" 
d="M193 0h-116v700h116v-700zM280 786h-290v84h290v-84z" />
    <glyph glyph-name="imacron" unicode="&#x12b;" horiz-adv-x="237" 
d="M174 0h-110v506h110v-506zM259 602h-281v80h281v-80z" />
    <glyph glyph-name="Ibreve" unicode="&#x12c;" horiz-adv-x="270" 
d="M193 0h-116v700h116v-700zM29 799q-42 39 -47 98h83q3 -27 21 -45.5t50 -18.5t49.5 18t21.5 46h83q-5 -59 -47.5 -98t-106.5 -39q-65 0 -107 39z" />
    <glyph glyph-name="ibreve" unicode="&#x12d;" horiz-adv-x="237" 
d="M174 0h-110v506h110v-506zM14 612.5q-41 39.5 -46 98.5h80q4 -29 21.5 -47.5t49.5 -18.5t49.5 18.5t21.5 47.5h80q-5 -59 -46 -98.5t-105 -39.5t-105 39.5z" />
    <glyph glyph-name="Iogonek" unicode="&#x12e;" horiz-adv-x="270" 
d="M193 0q-77 -48 -77 -102q0 -23 13 -36t33 -13q18 0 31 6v-64q-28 -7 -48 -7q-47 0 -76 26.5t-29 71.5q0 37 20 67.5t53 50.5h-36v700h116v-700z" />
    <glyph glyph-name="iogonek" unicode="&#x12f;" horiz-adv-x="237" 
d="M73 595.5q-19 18.5 -19 45.5q0 28 19 46.5t46 18.5t45.5 -18.5t18.5 -46.5q0 -27 -18.5 -45.5t-45.5 -18.5t-46 18.5zM64 0v506h110v-506h-14q-77 -48 -77 -102q0 -23 13 -36t33 -13q18 0 31 6v-64q-28 -7 -48 -7q-47 0 -76 26.5t-29 71.5q0 37 20 67.5t53 50.5h-16z" />
    <glyph glyph-name="Idotaccent" unicode="&#x130;" horiz-adv-x="270" 
d="M193 0h-116v700h116v-700zM90 781.5q-19 18.5 -19 46.5q0 27 19 45.5t46 18.5t45.5 -18t18.5 -46t-18.5 -46.5t-45.5 -18.5t-46 18.5z" />
    <glyph glyph-name="dotlessi" unicode="&#x131;" horiz-adv-x="237" 
d="M174 0h-110v506h110v-506z" />
    <glyph glyph-name="IJ" unicode="&#x132;" horiz-adv-x="808" 
d="M193 0h-116v700h116v-700zM388 16.5q-52 28.5 -80 78t-28 110.5h115q2 -44 33 -75t80 -31q51 0 81.5 31.5t30.5 81.5v488h116v-488q0 -65 -28 -116t-79.5 -79.5t-120.5 -28.5q-68 0 -120 28.5z" />
    <glyph glyph-name="ij" unicode="&#x133;" horiz-adv-x="475" 
d="M174 0h-110v506h110v-506zM73 595.5q-19 18.5 -19 45.5q0 28 19 46.5t46 18.5t45.5 -18.5t18.5 -46.5q0 -27 -18.5 -45.5t-45.5 -18.5t-46 18.5zM191 -175v100q17 -7 36 -7q35 0 54.5 20.5t19.5 60.5v507h110v-515q0 -82 -44 -129t-115 -47q-31 0 -61 10zM311 595.5
q-19 18.5 -19 45.5q0 28 19 46.5t46 18.5t45.5 -18.5t18.5 -46.5q0 -27 -18.5 -45.5t-45.5 -18.5t-46 18.5z" />
    <glyph glyph-name="Jcircumflex" unicode="&#x134;" horiz-adv-x="538" 
d="M118 16.5q-52 28.5 -80 78t-28 110.5h115q2 -44 33 -75t80 -31q51 0 81.5 31.5t30.5 81.5v488h116v-488q0 -65 -28 -116t-79.5 -79.5t-120.5 -28.5q-68 0 -120 28.5zM455 902l116 -147h-99l-65 84l-65 -84h-97l116 147h94z" />
    <glyph glyph-name="jcircumflex" unicode="&#x135;" horiz-adv-x="237" 
d="M-46 -175v100q17 -7 36 -7q35 0 54.5 20.5t19.5 60.5v507h110v-515q0 -82 -44 -129t-115 -47q-31 0 -61 10zM166 718l110 -152h-97l-61 89l-61 -89h-94l110 152h93z" />
    <glyph glyph-name="uni0136" unicode="&#x136;" horiz-adv-x="587" 
d="M311 360l287 -360h-146l-259 331v-331h-116v700h116v-321l249 321h137zM366 -90.5q19 -19.5 19 -53.5q0 -85 -91 -155l-20 26q12 10 24.5 30t16.5 44q-26 1 -44 19.5t-18 44.5q0 27 19 45.5t46 18.5q29 0 48 -19.5z" />
    <glyph glyph-name="uni0137" unicode="&#x137;" horiz-adv-x="495" 
d="M288 266l217 -266h-137l-189 239v-239h-110v700h110v-418l177 224h127zM320 -90.5q19 -19.5 19 -53.5q0 -85 -91 -155l-20 26q12 10 24.5 30t16.5 44q-26 1 -44 19.5t-18 44.5q0 27 19 45.5t46 18.5q29 0 48 -19.5z" />
    <glyph glyph-name="Lacute" unicode="&#x139;" horiz-adv-x="535" 
d="M525 0h-448v700h116v-589h332v-111zM165 755h-87l78 147h118z" />
    <glyph glyph-name="lacute" unicode="&#x13a;" horiz-adv-x="247" 
d="M179 0h-110v700h110v-700zM153 755h-87l78 147h118z" />
    <glyph glyph-name="uni013B" unicode="&#x13b;" horiz-adv-x="535" 
d="M525 0h-448v700h116v-589h332v-111zM348 -90.5q19 -19.5 19 -53.5q0 -85 -91 -155l-20 26q12 10 24.5 30t16.5 44q-26 1 -44 19.5t-18 44.5q0 27 19 45.5t46 18.5q29 0 48 -19.5z" />
    <glyph glyph-name="uni013C" unicode="&#x13c;" horiz-adv-x="247" 
d="M179 0h-110v700h110v-700zM170 -90.5q19 -19.5 19 -53.5q0 -85 -91 -155l-20 26q12 10 24.5 30t16.5 44q-26 1 -44 19.5t-18 44.5q0 27 19 45.5t46 18.5q29 0 48 -19.5z" />
    <glyph glyph-name="Lcaron" unicode="&#x13d;" horiz-adv-x="535" 
d="M525 0h-448v700h116v-589h332v-111zM306 551h-70l32 149h104z" />
    <glyph glyph-name="lcaron" unicode="&#x13e;" horiz-adv-x="247" 
d="M179 0h-110v700h110v-700zM292 551h-70l32 149h104z" />
    <glyph glyph-name="Ldot" unicode="&#x13f;" horiz-adv-x="535" 
d="M525 0h-448v700h116v-589h332v-111zM353 341.5q-20 20.5 -20 49.5t20 49t50 20t50 -20t20 -49t-20 -49.5t-50 -20.5t-50 20.5z" />
    <glyph glyph-name="ldot" unicode="&#x140;" horiz-adv-x="384" 
d="M179 0h-110v700h110v-700zM265 302.5q-20 20.5 -20 49.5t20 49t50 20t50 -20t20 -49t-20 -49.5t-50 -20.5t-50 20.5z" />
    <glyph glyph-name="Lslash" unicode="&#x141;" horiz-adv-x="565" 
d="M223 315v-204h332v-111h-448v243l-91 -57v112l91 57v345h116v-273l160 100v-113z" />
    <glyph glyph-name="lslash" unicode="&#x142;" horiz-adv-x="287" 
d="M198 435l82 55v-98l-82 -54v-338h-110v264l-82 -54v97l82 55v338h110v-265z" />
    <glyph glyph-name="Nacute" unicode="&#x143;" horiz-adv-x="709" 
d="M519 201v499h113v-700h-107l-335 499v-499h-113v700h107zM390 755h-87l78 147h118z" />
    <glyph glyph-name="nacute" unicode="&#x144;" horiz-adv-x="575" 
d="M64 0v506h82l20 -56h5q17 23 54.5 45.5t87.5 22.5q59 0 105 -27.5t72 -77.5t26 -116v-297h-109v289q0 56 -32.5 91.5t-83.5 35.5q-52 0 -84.5 -35.5t-32.5 -91.5v-289h-110zM326 566h-84l72 152h114z" />
    <glyph glyph-name="uni0145" unicode="&#x145;" horiz-adv-x="709" 
d="M519 201v499h113v-700h-107l-335 499v-499h-113v700h107zM407 -90.5q19 -19.5 19 -53.5q0 -85 -91 -155l-20 26q12 10 24.5 30t16.5 44q-26 1 -44 19.5t-18 44.5q0 27 19 45.5t46 18.5q29 0 48 -19.5z" />
    <glyph glyph-name="uni0146" unicode="&#x146;" horiz-adv-x="575" 
d="M64 0v506h82l20 -56h5q17 23 54.5 45.5t87.5 22.5q59 0 105 -27.5t72 -77.5t26 -116v-297h-109v289q0 56 -32.5 91.5t-83.5 35.5q-52 0 -84.5 -35.5t-32.5 -91.5v-289h-110zM339 -90.5q19 -19.5 19 -53.5q0 -85 -91 -155l-20 26q12 10 24.5 30t16.5 44q-26 1 -44 19.5
t-18 44.5q0 27 19 45.5t46 18.5q29 0 48 -19.5z" />
    <glyph glyph-name="Ncaron" unicode="&#x147;" horiz-adv-x="709" 
d="M519 201v499h113v-700h-107l-335 499v-499h-113v700h107zM361 818l65 84h98l-116 -147h-94l-116 147h99z" />
    <glyph glyph-name="ncaron" unicode="&#x148;" horiz-adv-x="575" 
d="M64 0v506h82l20 -56h5q17 23 54.5 45.5t87.5 22.5q59 0 105 -27.5t72 -77.5t26 -116v-297h-109v289q0 56 -32.5 91.5t-83.5 35.5q-52 0 -84.5 -35.5t-32.5 -91.5v-289h-110zM297 629l60 89h96l-110 -152h-93l-110 152h96z" />
    <glyph glyph-name="napostrophe" unicode="&#x149;" horiz-adv-x="616" 
d="M105 0v506h82l20 -56h5q17 23 54.5 45.5t87.5 22.5q59 0 105 -27.5t72 -77.5t26 -116v-297h-109v289q0 56 -32.5 91.5t-83.5 35.5q-52 0 -84.5 -35.5t-32.5 -91.5v-289h-110zM85 692q19 -20 19 -53q0 -55 -29 -97t-64 -70l-20 25q36 41 43 87q-26 2 -44 20t-18 44
q0 27 19 45.5t46 18.5q29 0 48 -20z" />
    <glyph glyph-name="Eng" unicode="&#x14a;" horiz-adv-x="709" 
d="M519 700h113v-716q0 -94 -47.5 -143t-133.5 -49q-40 0 -65 11v103q22 -9 45 -9q45 0 66.5 21.5t21.5 68.5v22l-329 490v-499h-113v700h107l335 -499v499z" />
    <glyph glyph-name="eng" unicode="&#x14b;" horiz-adv-x="575" 
d="M324 -181.5q-17 3.5 -26 7.5v93q17 -5 34 -5q35 0 55 19.5t20 55.5v300q0 56 -32.5 91.5t-83.5 35.5q-52 0 -84.5 -35.5t-32.5 -91.5v-289h-110v506h82l20 -56h5q17 23 54.5 45.5t87.5 22.5q59 0 105 -27.5t72 -77.5t26 -116v-310q0 -79 -43.5 -125.5t-112.5 -46.5
q-19 0 -36 3.5z" />
    <glyph glyph-name="Omacron" unicode="&#x14c;" horiz-adv-x="748" 
d="M206.5 36q-77.5 48 -123.5 131t-46 183t46 183t123.5 131t167.5 48t167.5 -48t123.5 -131t46 -183t-46 -183t-123.5 -131t-167.5 -48t-167.5 48zM483.5 131.5q50.5 32.5 81 89.5t30.5 129t-30.5 129t-81 89.5t-109.5 32.5t-109.5 -32.5t-81 -89.5t-30.5 -129t30.5 -129
t81 -89.5t109.5 -32.5t109.5 32.5zM518 786h-290v84h290v-84z" />
    <glyph glyph-name="omacron" unicode="&#x14d;" horiz-adv-x="572" 
d="M160.5 23.5q-57.5 35.5 -91.5 96.5t-34 133q0 73 34 133.5t91.5 96t125.5 35.5t125.5 -35.5t91.5 -96t34 -133.5q0 -72 -34 -133t-91.5 -96.5t-125.5 -35.5t-125.5 35.5zM357.5 111q32.5 21 51.5 58t19 84t-19 84t-51.5 58t-71.5 21t-71.5 -21t-51.5 -58t-19 -84t19 -84
t51.5 -58t71.5 -21t71.5 21zM427 602h-281v80h281v-80z" />
    <glyph glyph-name="Obreve" unicode="&#x14e;" horiz-adv-x="748" 
d="M206.5 36q-77.5 48 -123.5 131t-46 183t46 183t123.5 131t167.5 48t167.5 -48t123.5 -131t46 -183t-46 -183t-123.5 -131t-167.5 -48t-167.5 48zM483.5 131.5q50.5 32.5 81 89.5t30.5 129t-30.5 129t-81 89.5t-109.5 32.5t-109.5 -32.5t-81 -89.5t-30.5 -129t30.5 -129
t81 -89.5t109.5 -32.5t109.5 32.5zM267 799q-42 39 -47 98h83q3 -27 21 -45.5t50 -18.5t49.5 18t21.5 46h83q-5 -59 -47.5 -98t-106.5 -39q-65 0 -107 39z" />
    <glyph glyph-name="obreve" unicode="&#x14f;" horiz-adv-x="572" 
d="M160.5 23.5q-57.5 35.5 -91.5 96.5t-34 133q0 73 34 133.5t91.5 96t125.5 35.5t125.5 -35.5t91.5 -96t34 -133.5q0 -72 -34 -133t-91.5 -96.5t-125.5 -35.5t-125.5 35.5zM357.5 111q32.5 21 51.5 58t19 84t-19 84t-51.5 58t-71.5 21t-71.5 -21t-51.5 -58t-19 -84t19 -84
t51.5 -58t71.5 -21t71.5 21zM181 612.5q-41 39.5 -46 98.5h80q4 -29 21.5 -47.5t49.5 -18.5t49.5 18.5t21.5 47.5h80q-5 -59 -46 -98.5t-105 -39.5t-105 39.5z" />
    <glyph glyph-name="Ohungarumlaut" unicode="&#x150;" horiz-adv-x="748" 
d="M206.5 36q-77.5 48 -123.5 131t-46 183t46 183t123.5 131t167.5 48t167.5 -48t123.5 -131t46 -183t-46 -183t-123.5 -131t-167.5 -48t-167.5 48zM483.5 131.5q50.5 32.5 81 89.5t30.5 129t-30.5 129t-81 89.5t-109.5 32.5t-109.5 -32.5t-81 -89.5t-30.5 -129t30.5 -129
t81 -89.5t109.5 -32.5t109.5 32.5zM336 755h-79l86 147h110zM493 755h-80l86 147h111z" />
    <glyph glyph-name="ohungarumlaut" unicode="&#x151;" horiz-adv-x="572" 
d="M160.5 23.5q-57.5 35.5 -91.5 96.5t-34 133q0 73 34 133.5t91.5 96t125.5 35.5t125.5 -35.5t91.5 -96t34 -133.5q0 -72 -34 -133t-91.5 -96.5t-125.5 -35.5t-125.5 35.5zM357.5 111q32.5 21 51.5 58t19 84t-19 84t-51.5 58t-71.5 21t-71.5 -21t-51.5 -58t-19 -84t19 -84
t51.5 -58t71.5 -21t71.5 21zM247 566h-77l80 152h108zM404 566h-79l80 152h109z" />
    <glyph glyph-name="OE" unicode="&#x152;" horiz-adv-x="933" 
d="M568 110h325v-110h-511q-94 0 -173 46t-125.5 126.5t-46.5 177.5t46.5 177.5t125.5 126.5t173 46h501v-110h-315v-178h277v-107h-277v-195zM455 110v480h-73q-62 0 -114.5 -31t-83.5 -86t-31 -123t31 -123t83.5 -86t114.5 -31h73z" />
    <glyph glyph-name="oe" unicode="&#x153;" horiz-adv-x="902" 
d="M862 215h-354q9 -61 44 -94.5t85 -33.5q34 0 60 15.5t39 37.5h115q-24 -62 -80.5 -107t-130.5 -45q-59 0 -107.5 30.5t-73.5 70.5q-28 -42 -75.5 -71.5t-110.5 -29.5q-64 0 -118.5 34t-87 94.5t-32.5 136.5t32.5 136.5t87 94.5t118.5 34t111 -29.5t75 -71.5
q26 40 74.5 70.5t104.5 30.5q64 0 116.5 -33t83 -92.5t30.5 -134.5q0 -10 -6 -43zM338.5 107q29.5 20 47 57.5t17.5 88.5t-17.5 88.5t-47 57.5t-64.5 20t-64.5 -20t-47.5 -57.5t-18 -88.5t18 -88.5t47.5 -57.5t64.5 -20t64.5 20zM554.5 385.5q-35.5 -33.5 -46.5 -91.5h254
q-8 55 -42 90t-84 35q-46 0 -81.5 -33.5z" />
    <glyph glyph-name="Racute" unicode="&#x154;" horiz-adv-x="625" 
d="M459 0l-150 268h-116v-268h-116v700h269q66 0 118.5 -28.5t82 -78t29.5 -111.5q0 -68 -41 -121.5t-110 -76.5l168 -284h-134zM193 590v-216h151q51 0 83.5 30.5t32.5 76.5q0 47 -32.5 78t-83.5 31h-151zM345 755h-87l78 147h118z" />
    <glyph glyph-name="racute" unicode="&#x155;" horiz-adv-x="349" 
d="M64 0v506h82l20 -56h5q16 23 49 45.5t76 22.5q25 0 42 -4v-110q-19 4 -45 4q-53 0 -86 -34t-33 -94v-280h-110zM229 566h-84l72 152h114z" />
    <glyph glyph-name="uni0156" unicode="&#x156;" horiz-adv-x="625" 
d="M459 0l-150 268h-116v-268h-116v700h269q66 0 118.5 -28.5t82 -78t29.5 -111.5q0 -68 -41 -121.5t-110 -76.5l168 -284h-134zM193 590v-216h151q51 0 83.5 30.5t32.5 76.5q0 47 -32.5 78t-83.5 31h-151zM369 -90.5q19 -19.5 19 -53.5q0 -85 -91 -155l-20 26
q12 10 24.5 30t16.5 44q-26 1 -44 19.5t-18 44.5q0 27 19 45.5t46 18.5q29 0 48 -19.5z" />
    <glyph glyph-name="uni0157" unicode="&#x157;" horiz-adv-x="349" 
d="M64 0v506h82l20 -56h5q16 23 49 45.5t76 22.5q25 0 42 -4v-110q-19 4 -45 4q-53 0 -86 -34t-33 -94v-280h-110zM167 -90.5q19 -19.5 19 -53.5q0 -85 -91 -155l-20 26q12 10 24.5 30t16.5 44q-26 1 -44 19.5t-18 44.5q0 27 19 45.5t46 18.5q29 0 48 -19.5z" />
    <glyph glyph-name="Rcaron" unicode="&#x158;" horiz-adv-x="625" 
d="M459 0l-150 268h-116v-268h-116v700h269q66 0 118.5 -28.5t82 -78t29.5 -111.5q0 -68 -41 -121.5t-110 -76.5l168 -284h-134zM193 590v-216h151q51 0 83.5 30.5t32.5 76.5q0 47 -32.5 78t-83.5 31h-151zM316 818l65 84h98l-116 -147h-94l-116 147h99z" />
    <glyph glyph-name="rcaron" unicode="&#x159;" horiz-adv-x="349" 
d="M64 0v506h82l20 -56h5q16 23 49 45.5t76 22.5q25 0 42 -4v-110q-19 4 -45 4q-53 0 -86 -34t-33 -94v-280h-110zM200 629l60 89h96l-110 -152h-93l-110 152h96z" />
    <glyph glyph-name="Sacute" unicode="&#x15a;" horiz-adv-x="575" 
d="M159 17q-57 29 -88.5 80.5t-34.5 117.5h116q5 -56 41.5 -89t99.5 -33q60 0 92.5 26t32.5 66q0 32 -19.5 53.5t-49.5 34.5t-82 31q-68 23 -111 44.5t-73.5 62t-30.5 105.5q0 56 28 100.5t80.5 70t123.5 25.5q70 0 123.5 -29t83.5 -79.5t33 -112.5h-116q-3 52 -36 84
t-88 32t-85.5 -26t-30.5 -67q0 -31 19.5 -51.5t49 -33.5t80.5 -29q70 -23 112.5 -43.5t73.5 -61.5t31 -107q0 -58 -28.5 -103t-83 -71t-130.5 -26t-133 29zM316 755h-87l78 147h118z" />
    <glyph glyph-name="sacute" unicode="&#x15b;" horiz-adv-x="458" 
d="M129.5 10.5q-44.5 22.5 -70 60.5t-28.5 83h108q3 -34 28 -54.5t65 -20.5q39 0 60.5 17t21.5 43q0 30 -26 45.5t-82 32.5q-51 16 -83.5 32t-55.5 45t-23 75q0 42 22 76t63.5 53.5t97.5 19.5q54 0 96.5 -21.5t66.5 -58t27 -81.5h-108q-4 33 -24.5 51.5t-57.5 18.5
q-35 0 -54 -15.5t-19 -38.5q0 -28 25 -42.5t79 -30.5q52 -16 85 -32t57 -46t24 -78q0 -68 -51 -112t-141 -44q-58 0 -102.5 22.5zM256 566h-84l72 152h114z" />
    <glyph glyph-name="Scircumflex" unicode="&#x15c;" horiz-adv-x="575" 
d="M159 17q-57 29 -88.5 80.5t-34.5 117.5h116q5 -56 41.5 -89t99.5 -33q60 0 92.5 26t32.5 66q0 32 -19.5 53.5t-49.5 34.5t-82 31q-68 23 -111 44.5t-73.5 62t-30.5 105.5q0 56 28 100.5t80.5 70t123.5 25.5q70 0 123.5 -29t83.5 -79.5t33 -112.5h-116q-3 52 -36 84
t-88 32t-85.5 -26t-30.5 -67q0 -31 19.5 -51.5t49 -33.5t80.5 -29q70 -23 112.5 -43.5t73.5 -61.5t31 -107q0 -58 -28.5 -103t-83 -71t-130.5 -26t-133 29zM334 902l116 -147h-99l-65 84l-65 -84h-97l116 147h94z" />
    <glyph glyph-name="scircumflex" unicode="&#x15d;" horiz-adv-x="458" 
d="M129.5 10.5q-44.5 22.5 -70 60.5t-28.5 83h108q3 -34 28 -54.5t65 -20.5q39 0 60.5 17t21.5 43q0 30 -26 45.5t-82 32.5q-51 16 -83.5 32t-55.5 45t-23 75q0 42 22 76t63.5 53.5t97.5 19.5q54 0 96.5 -21.5t66.5 -58t27 -81.5h-108q-4 33 -24.5 51.5t-57.5 18.5
q-35 0 -54 -15.5t-19 -38.5q0 -28 25 -42.5t79 -30.5q52 -16 85 -32t57 -46t24 -78q0 -68 -51 -112t-141 -44q-58 0 -102.5 22.5zM274 718l110 -152h-97l-61 89l-61 -89h-94l110 152h93z" />
    <glyph glyph-name="Scedilla" unicode="&#x15e;" horiz-adv-x="575" 
d="M507.5 87.5q-26.5 -44.5 -78 -71t-123.5 -28.5l-13 -29q44 -3 69.5 -26t25.5 -58q0 -42 -30 -66.5t-92 -24.5q-39 0 -68 11v58q25 -7 54 -7q61 0 61 32q0 15 -14 23.5t-45 8.5q-21 0 -39 -5l34 86q-95 12 -152 73t-61 151h116q5 -56 41.5 -89t99.5 -33q60 0 92.5 26
t32.5 66q0 32 -19.5 53.5t-49.5 34.5t-82 31q-68 23 -111 44.5t-73.5 62t-30.5 105.5q0 56 28 100.5t80.5 70t123.5 25.5q70 0 123.5 -29t83.5 -79.5t33 -112.5h-116q-3 52 -36 84t-88 32t-85.5 -26t-30.5 -67q0 -31 19.5 -51.5t49 -33.5t80.5 -29q70 -23 112.5 -43.5
t73.5 -61.5t31 -107q0 -56 -26.5 -100.5z" />
    <glyph glyph-name="scedilla" unicode="&#x15f;" horiz-adv-x="458" 
d="M378 35.5q-46 -43.5 -129 -47.5l-13 -29q44 -3 69.5 -26t25.5 -58q0 -42 -30 -66.5t-92 -24.5q-39 0 -68 11v58q24 -7 54 -7q61 0 61 32q0 15 -14 23.5t-45 8.5q-21 0 -39 -5l34 86q-71 11 -114.5 56.5t-46.5 106.5h108q3 -34 28 -54.5t65 -20.5q39 0 60.5 17t21.5 43
q0 30 -26 45.5t-82 32.5q-51 16 -83.5 32t-55.5 45t-23 75q0 42 22 76t63.5 53.5t97.5 19.5q54 0 96.5 -21.5t66.5 -58t27 -81.5h-108q-4 33 -24.5 51.5t-57.5 18.5q-35 0 -54 -15.5t-19 -38.5q0 -28 25 -42.5t79 -30.5q52 -16 85 -32t57 -46t24 -78q0 -65 -46 -108.5z" />
    <glyph glyph-name="Scaron" unicode="&#x160;" horiz-adv-x="575" 
d="M159 17q-57 29 -88.5 80.5t-34.5 117.5h116q5 -56 41.5 -89t99.5 -33q60 0 92.5 26t32.5 66q0 32 -19.5 53.5t-49.5 34.5t-82 31q-68 23 -111 44.5t-73.5 62t-30.5 105.5q0 56 28 100.5t80.5 70t123.5 25.5q70 0 123.5 -29t83.5 -79.5t33 -112.5h-116q-3 52 -36 84
t-88 32t-85.5 -26t-30.5 -67q0 -31 19.5 -51.5t49 -33.5t80.5 -29q70 -23 112.5 -43.5t73.5 -61.5t31 -107q0 -58 -28.5 -103t-83 -71t-130.5 -26t-133 29zM287 818l65 84h98l-116 -147h-94l-116 147h99z" />
    <glyph glyph-name="scaron" unicode="&#x161;" horiz-adv-x="458" 
d="M129.5 10.5q-44.5 22.5 -70 60.5t-28.5 83h108q3 -34 28 -54.5t65 -20.5q39 0 60.5 17t21.5 43q0 30 -26 45.5t-82 32.5q-51 16 -83.5 32t-55.5 45t-23 75q0 42 22 76t63.5 53.5t97.5 19.5q54 0 96.5 -21.5t66.5 -58t27 -81.5h-108q-4 33 -24.5 51.5t-57.5 18.5
q-35 0 -54 -15.5t-19 -38.5q0 -28 25 -42.5t79 -30.5q52 -16 85 -32t57 -46t24 -78q0 -68 -51 -112t-141 -44q-58 0 -102.5 22.5zM227 629l60 89h96l-110 -152h-93l-110 152h96z" />
    <glyph glyph-name="uni0162" unicode="&#x162;" horiz-adv-x="562" 
d="M339 0h-41l-18 -41q44 -3 69.5 -26t25.5 -58q0 -42 -30 -66.5t-92 -24.5q-39 0 -68 11v58q25 -7 54 -7q61 0 61 32q0 15 -14 23.5t-45 8.5q-21 0 -39 -5l38 95h-17v589h-208v111h532v-111h-208v-589z" />
    <glyph glyph-name="uni0163" unicode="&#x163;" horiz-adv-x="352" 
d="M317 407h-110v-234q0 -41 20 -61.5t55 -20.5q21 0 35 7v-100q-26 -10 -60 -10q-8 0 -24 2l-14 -31q44 -3 69.5 -26t25.5 -58q0 -42 -30 -66.5t-92 -24.5q-39 0 -68 11v58q24 -7 54 -7q61 0 61 32q0 15 -14 23.5t-45 8.5q-21 0 -39 -5l40 101q-39 20 -61 60.5t-22 97.5
v243h-83v93h36q30 0 45.5 15.5t15.5 44.5v76h95v-130h110v-99z" />
    <glyph glyph-name="Tcaron" unicode="&#x164;" horiz-adv-x="562" 
d="M339 0h-116v589h-208v111h532v-111h-208v-589zM281 818l65 84h98l-116 -147h-94l-116 147h99z" />
    <glyph glyph-name="tcaron" unicode="&#x165;" horiz-adv-x="352" 
d="M142 35q-44 47 -44 129v243h-83v93h36q30 0 45.5 15.5t15.5 44.5v76h95v-130h110v-99h-110v-234q0 -41 20 -61.5t55 -20.5q21 0 35 7v-100q-26 -10 -60 -10q-71 0 -115 47zM321 551h-70l32 149h104z" />
    <glyph glyph-name="Tbar" unicode="&#x166;" horiz-adv-x="562" 
d="M547 700v-111h-208v-216h112v-99h-112v-274h-116v274h-112v99h112v216h-208v111h532z" />
    <glyph glyph-name="tbar" unicode="&#x167;" horiz-adv-x="352" 
d="M317 407h-110v-114h106v-71h-106v-49q0 -41 20 -61.5t55 -20.5q21 0 35 7v-100q-26 -10 -60 -10q-71 0 -115 47t-44 129v58h-80v71h80v114h-83v93h36q30 0 45.5 15.5t15.5 44.5v76h95v-130h110v-99z" />
    <glyph glyph-name="Utilde" unicode="&#x168;" horiz-adv-x="684" 
d="M200.5 23.5q-61.5 35.5 -95 98t-33.5 140.5v438h116v-438q0 -73 41.5 -118t112.5 -45t112.5 45t41.5 118v438h116v-438q0 -78 -33.5 -140.5t-95 -98t-141.5 -35.5t-141.5 35.5zM365 770.5q-18 9.5 -37 26.5q-14 12 -22.5 17t-19.5 5q-16 0 -27 -14.5t-11 -38.5h-72
q0 62 28 95.5t71 33.5q28 0 46 -9.5t36 -26.5q12 -11 21 -16.5t20 -5.5q16 0 27.5 14.5t11.5 38.5h72q0 -63 -28 -96t-71 -33q-27 0 -45 9.5z" />
    <glyph glyph-name="utilde" unicode="&#x169;" horiz-adv-x="575" 
d="M157 15.5q-46 27.5 -72 77.5t-26 116v297h110v-289q0 -56 32.5 -91.5t82.5 -35.5q52 0 85 35.5t33 91.5v289h109v-506h-82l-20 57h-5q-17 -24 -55 -46.5t-87 -22.5q-59 0 -105 27.5zM310 583.5q-16 9.5 -37 28.5q-12 12 -21.5 18.5t-19.5 6.5q-16 0 -27 -15.5t-11 -42.5
h-71q0 65 27 99.5t70 34.5q24 0 40 -9.5t37 -28.5q12 -12 21.5 -18.5t19.5 -6.5q16 0 27 15.5t11 42.5h71q0 -65 -27 -99.5t-70 -34.5q-24 0 -40 9.5z" />
    <glyph glyph-name="Umacron" unicode="&#x16a;" horiz-adv-x="684" 
d="M200.5 23.5q-61.5 35.5 -95 98t-33.5 140.5v438h116v-438q0 -73 41.5 -118t112.5 -45t112.5 45t41.5 118v438h116v-438q0 -78 -33.5 -140.5t-95 -98t-141.5 -35.5t-141.5 35.5zM487 786h-290v84h290v-84z" />
    <glyph glyph-name="umacron" unicode="&#x16b;" horiz-adv-x="575" 
d="M157 15.5q-46 27.5 -72 77.5t-26 116v297h110v-289q0 -56 32.5 -91.5t82.5 -35.5q52 0 85 35.5t33 91.5v289h109v-506h-82l-20 57h-5q-17 -24 -55 -46.5t-87 -22.5q-59 0 -105 27.5zM426 602h-281v80h281v-80z" />
    <glyph glyph-name="Ubreve" unicode="&#x16c;" horiz-adv-x="684" 
d="M200.5 23.5q-61.5 35.5 -95 98t-33.5 140.5v438h116v-438q0 -73 41.5 -118t112.5 -45t112.5 45t41.5 118v438h116v-438q0 -78 -33.5 -140.5t-95 -98t-141.5 -35.5t-141.5 35.5zM235 799q-42 39 -47 98h83q3 -27 21 -45.5t50 -18.5t49.5 18t21.5 46h83q-5 -59 -47.5 -98
t-106.5 -39q-65 0 -107 39z" />
    <glyph glyph-name="ubreve" unicode="&#x16d;" horiz-adv-x="575" 
d="M157 15.5q-46 27.5 -72 77.5t-26 116v297h110v-289q0 -56 32.5 -91.5t82.5 -35.5q52 0 85 35.5t33 91.5v289h109v-506h-82l-20 57h-5q-17 -24 -55 -46.5t-87 -22.5q-59 0 -105 27.5zM180 612.5q-41 39.5 -46 98.5h80q4 -29 21.5 -47.5t49.5 -18.5t49.5 18.5t21.5 47.5h80
q-5 -59 -46 -98.5t-105 -39.5t-105 39.5z" />
    <glyph glyph-name="Uring" unicode="&#x16e;" horiz-adv-x="684" 
d="M200.5 23.5q-61.5 35.5 -95 98t-33.5 140.5v438h116v-438q0 -73 41.5 -118t112.5 -45t112.5 45t41.5 118v438h116v-438q0 -78 -33.5 -140.5t-95 -98t-141.5 -35.5t-141.5 35.5zM267 786q-30 29 -30 71t30 71t75 29t75 -29t30 -71t-30 -71t-75 -29t-75 29zM372 827.5
q12 11.5 12 29.5t-12 29.5t-30 11.5q-17 0 -29 -11.5t-12 -29.5t11.5 -29.5t29.5 -11.5t30 11.5z" />
    <glyph glyph-name="uring" unicode="&#x16f;" horiz-adv-x="575" 
d="M157 15.5q-46 27.5 -72 77.5t-26 116v297h110v-289q0 -56 32.5 -91.5t82.5 -35.5q52 0 85 35.5t33 91.5v289h109v-506h-82l-20 57h-5q-17 -24 -55 -46.5t-87 -22.5q-59 0 -105 27.5zM211.5 582q-29.5 29 -29.5 71t29.5 70.5t73.5 28.5q45 0 74.5 -28.5t29.5 -70.5
t-29.5 -71t-74.5 -29q-44 0 -73.5 29zM315 622.5q12 11.5 12 30.5t-12 30.5t-30 11.5t-30 -11.5t-12 -30.5t12 -30.5t30 -11.5t30 11.5z" />
    <glyph glyph-name="Uhungarumlaut" unicode="&#x170;" horiz-adv-x="684" 
d="M200.5 23.5q-61.5 35.5 -95 98t-33.5 140.5v438h116v-438q0 -73 41.5 -118t112.5 -45t112.5 45t41.5 118v438h116v-438q0 -78 -33.5 -140.5t-95 -98t-141.5 -35.5t-141.5 35.5zM304 755h-79l86 147h110zM461 755h-80l86 147h111z" />
    <glyph glyph-name="uhungarumlaut" unicode="&#x171;" horiz-adv-x="575" 
d="M157 15.5q-46 27.5 -72 77.5t-26 116v297h110v-289q0 -56 32.5 -91.5t82.5 -35.5q52 0 85 35.5t33 91.5v289h109v-506h-82l-20 57h-5q-17 -24 -55 -46.5t-87 -22.5q-59 0 -105 27.5zM246 566h-77l80 152h108zM403 566h-79l80 152h109z" />
    <glyph glyph-name="Uogonek" unicode="&#x172;" horiz-adv-x="684" 
d="M496 700h116v-438q0 -70 -28 -127.5t-80 -98.5q-53 -41 -80 -75t-27 -64q0 -23 14.5 -35.5t38.5 -12.5q19 0 34 6v-63q-22 -8 -51 -8q-51 0 -81 26.5t-30 72.5q0 32 16.5 59.5t45.5 48.5q-21 -3 -42 -3q-80 0 -141.5 35.5t-95 98t-33.5 140.5v438h116v-438
q0 -73 41.5 -118t112.5 -45t112.5 45t41.5 118v438z" />
    <glyph glyph-name="uogonek" unicode="&#x173;" horiz-adv-x="575" 
d="M511 0q-86 -48 -86 -103q0 -23 14 -35.5t38 -12.5q19 0 34 6v-64q-23 -7 -50 -7q-51 0 -81.5 27t-30.5 72q0 36 21 66.5t58 52.5l-19 55h-5q-17 -24 -55 -46.5t-87 -22.5q-59 0 -105 27.5t-72 77.5t-26 116v297h110v-289q0 -56 32.5 -91.5t82.5 -35.5q52 0 85 35.5
t33 91.5v289h109v-506z" />
    <glyph glyph-name="Wcircumflex" unicode="&#x174;" horiz-adv-x="906" 
d="M639 209l144 491h116l-217 -700h-92l-137 473l-137 -473h-93l-215 700h119l144 -491l140 491h86zM502 902l116 -147h-99l-65 84l-65 -84h-97l116 147h94z" />
    <glyph glyph-name="wcircumflex" unicode="&#x175;" horiz-adv-x="725" 
d="M508 162l106 344h109l-167 -506h-91l-103 321l-101 -321h-91l-167 506h113l105 -342l109 342h69zM412 718l110 -152h-97l-61 89l-61 -89h-94l110 152h93z" />
    <glyph glyph-name="Ycircumflex" unicode="&#x176;" horiz-adv-x="569" 
d="M287 387l160 313h124l-229 -434v-266h-116v266l-228 434h128zM334 902l116 -147h-99l-65 84l-65 -84h-97l116 147h94z" />
    <glyph glyph-name="ycircumflex" unicode="&#x177;" horiz-adv-x="502" 
d="M386 506h113l-210 -534q-35 -87 -72.5 -122t-87.5 -35q-30 0 -54 10v100q14 -7 34 -7q29 0 48.5 14.5t32.5 48.5l12 32l-199 493h118l135 -359zM301 718l110 -152h-97l-61 89l-61 -89h-94l110 152h93z" />
    <glyph glyph-name="Ydieresis" unicode="&#x178;" horiz-adv-x="569" 
d="M287 387l160 313h124l-229 -434v-266h-116v266l-228 434h128zM148 785q-18 18 -18 43t18 42.5t43 17.5q24 0 42 -17.5t18 -42.5t-18 -43t-42 -18q-25 0 -43 18zM339.5 785q-18.5 18 -18.5 43t18.5 42.5t42.5 17.5q25 0 43 -17.5t18 -42.5t-18 -43t-43 -18q-24 0 -42.5 18
z" />
    <glyph glyph-name="Zacute" unicode="&#x179;" horiz-adv-x="565" 
d="M517 612l-338 -503h351v-109h-495v88l338 503h-327v109h471v-88zM311 755h-87l78 147h118z" />
    <glyph glyph-name="zacute" unicode="&#x17a;" horiz-adv-x="441" 
d="M403 416l-244 -317h252v-99h-381v90l244 317h-239v99h368v-90zM249 566h-84l72 152h114z" />
    <glyph glyph-name="Zdotaccent" unicode="&#x17b;" horiz-adv-x="565" 
d="M517 612l-338 -503h351v-109h-495v88l338 503h-327v109h471v-88zM236 781.5q-19 18.5 -19 46.5q0 27 19 45.5t46 18.5t45.5 -18t18.5 -46t-18.5 -46.5t-45.5 -18.5t-46 18.5z" />
    <glyph glyph-name="zdotaccent" unicode="&#x17c;" horiz-adv-x="441" 
d="M403 416l-244 -317h252v-99h-381v90l244 317h-239v99h368v-90zM174 595.5q-19 18.5 -19 45.5q0 28 19 46.5t46 18.5t45.5 -18.5t18.5 -46.5q0 -27 -18.5 -45.5t-45.5 -18.5t-46 18.5z" />
    <glyph glyph-name="Zcaron" unicode="&#x17d;" horiz-adv-x="565" 
d="M517 612l-338 -503h351v-109h-495v88l338 503h-327v109h471v-88zM282 818l65 84h98l-116 -147h-94l-116 147h99z" />
    <glyph glyph-name="zcaron" unicode="&#x17e;" horiz-adv-x="441" 
d="M403 416l-244 -317h252v-99h-381v90l244 317h-239v99h368v-90zM220 629l60 89h96l-110 -152h-93l-110 152h96z" />
    <glyph glyph-name="uni018F" unicode="&#x18f;" horiz-adv-x="741" 
d="M534.5 664q77.5 -48 123.5 -131t46 -183t-46 -183t-123.5 -131t-167.5 -48t-165.5 47t-120 129t-44.5 184q0 19 3 41h545q-8 61 -39 109.5t-78 75.5t-101 27q-65 0 -113 -32t-73 -84h-120q19 62 62.5 114t106.5 82.5t137 30.5q90 0 167.5 -48zM463.5 123.5
q45.5 24.5 77 69t42.5 100.5h-425q4 -53 33 -97.5t75.5 -70.5t100.5 -26q51 0 96.5 24.5z" />
    <glyph glyph-name="florin" unicode="&#x192;" horiz-adv-x="397" 
d="M278 521l-18 -93h108l-20 -102h-108l-64 -332q-18 -91 -63.5 -135t-122.5 -44q-20 0 -37.5 4t-26.5 8l22 94q17 -6 37 -6q35 0 56 22.5t31 68.5l62 320h-79l19 102h80l20 104q17 92 62.5 136t122.5 44q20 0 37.5 -3.5t27.5 -8.5l-22 -94q-16 6 -37 6q-71 0 -87 -91z" />
    <glyph glyph-name="Ohorn" unicode="&#x1a0;" horiz-adv-x="748" 
d="M680.5 500q30.5 -70 30.5 -150q0 -100 -46 -183t-123.5 -131t-167.5 -48t-167.5 48t-123.5 131t-46 183t46 183t123.5 131t167.5 48q58 0 115 -22h64q46 0 46 46q0 25 -14 56h77q18 -34 18 -68q0 -38 -22 -66t-61 -37q53 -51 83.5 -121zM483.5 131.5q50.5 32.5 81 89.5
t30.5 129t-30.5 129t-81 89.5t-109.5 32.5t-109.5 -32.5t-81 -89.5t-30.5 -129t30.5 -129t81 -89.5t109.5 -32.5t109.5 32.5z" />
    <glyph glyph-name="ohorn" unicode="&#x1a1;" horiz-adv-x="572" 
d="M518.5 353q18.5 -47 18.5 -100q0 -72 -34 -133t-91.5 -96.5t-125.5 -35.5t-125.5 35.5t-91.5 96.5t-34 133q0 73 34 133.5t91.5 96t125.5 35.5q56 0 106 -25h8q46 0 46 43q0 25 -14 59h72q20 -34 20 -68q0 -30 -15 -53.5t-42 -36.5q33 -37 51.5 -84zM357.5 111
q32.5 21 51.5 58t19 84t-19 84t-51.5 58t-71.5 21t-71.5 -21t-51.5 -58t-19 -84t19 -84t51.5 -58t71.5 -21t71.5 21z" />
    <glyph glyph-name="Uhorn" unicode="&#x1af;" horiz-adv-x="711" 
d="M714 802q18 -34 18 -68q0 -46 -32 -76.5t-85 -30.5h-3v-365q0 -78 -33.5 -140.5t-95 -98t-141.5 -35.5t-141.5 35.5t-95 98t-33.5 140.5v438h116v-438q0 -73 41.5 -118t112.5 -45t112.5 45t41.5 118v438h109q46 0 46 46q0 25 -14 56h77z" />
    <glyph glyph-name="uhorn" unicode="&#x1b0;" horiz-adv-x="601" 
d="M610 608q19 -36 19 -68q0 -44 -31 -73t-82 -29h-5v-438h-82l-20 57h-5q-17 -24 -55 -46.5t-87 -22.5q-59 0 -105 27.5t-72 77.5t-26 116v297h110v-289q0 -56 32.5 -91.5t82.5 -35.5q52 0 85 35.5t33 91.5v289h103q46 0 46 43q0 25 -14 59h73z" />
    <glyph glyph-name="uni01F4" unicode="&#x1f4;" horiz-adv-x="758" 
d="M387 359h305v-359h-71l-22 100q-34 -47 -93 -79.5t-132 -32.5q-90 0 -167.5 48t-123.5 131t-46 183t46 183t123.5 131t167.5 48q78 0 143.5 -33t108 -87t55.5 -115h-119q-20 51 -68.5 87.5t-119.5 36.5q-59 0 -109.5 -32.5t-81 -89.5t-30.5 -129t30.5 -129t81 -89.5
t109.5 -32.5q56 0 99 23.5t68 60.5t31 76h-185v100zM402 755h-87l78 147h118z" />
    <glyph glyph-name="uni01F5" unicode="&#x1f5;" horiz-adv-x="580" 
d="M166 -164.5q-49 25.5 -75.5 62t-34.5 71.5h112q11 -26 40.5 -43t73.5 -17q57 0 91 32t34 88v55h-5q-15 -21 -52 -43.5t-86 -22.5q-61 0 -114 33t-84 90.5t-31 126.5t31 126.5t84 90.5t114 33q52 0 90.5 -23t54.5 -45h5l21 56h82v-476q0 -101 -63 -160.5t-170 -59.5
q-69 0 -118 25.5zM341 136.5q30 19.5 48 54.5t18 77q0 43 -18 77.5t-48 54t-65 19.5q-36 0 -66 -19.5t-48 -54t-18 -77.5t18 -77.5t48 -54t66 -19.5q35 0 65 19.5zM320 566h-84l72 152h114z" />
    <glyph glyph-name="Aringacute" unicode="&#x1fa;" horiz-adv-x="633" 
d="M635 0h-122l-57 157h-283l-57 -157h-118l263 700h112zM418 264l-103 287l-104 -287h207zM359 960h-83l67 129h110zM242 776q-30 29 -30 71t30 71t75 29t75 -29t30 -71t-30 -71t-75 -29t-75 29zM347 817.5q12 11.5 12 29.5t-12 29.5t-30 11.5q-17 0 -29 -11.5t-12 -29.5
t11.5 -29.5t29.5 -11.5t30 11.5z" />
    <glyph glyph-name="aringacute" unicode="&#x1fb;" horiz-adv-x="515" 
d="M401 461.5q55 -56.5 55 -149.5v-312h-82l-20 57h-5q-21 -27 -57.5 -48t-90.5 -21q-48 0 -87 20.5t-61 55t-22 75.5q0 50 29.5 87.5t83 57.5t122.5 20h81v17q0 45 -25.5 71.5t-68.5 26.5q-38 0 -61 -19.5t-28 -47.5h-110q5 44 29.5 82t68.5 61t102 23q92 0 147 -56.5z
M313 114q34 33 34 79v32h-80q-63 0 -94.5 -20.5t-31.5 -56.5q0 -30 21.5 -48.5t61.5 -18.5q55 0 89 33zM297 766h-79l65 134h109zM184.5 583.5q-29.5 28.5 -29.5 69.5t29.5 69.5t72.5 28.5t72.5 -28.5t29.5 -69.5t-29.5 -69.5t-72.5 -28.5t-72.5 28.5zM287 623q12 12 12 30
t-12 30t-30 12q-19 0 -30.5 -12t-11.5 -30t11.5 -30t30.5 -12q18 0 30 12z" />
    <glyph glyph-name="AEacute" unicode="&#x1fc;" horiz-adv-x="902" 
d="M537 305v-195h325v-110h-438v157h-245l-85 -157h-128l389 700h497v-110h-315v-178h277v-107h-277zM414 591l-177 -327h187v327h-10zM510 755h-87l78 147h118z" />
    <glyph glyph-name="aeacute" unicode="&#x1fd;" horiz-adv-x="832" 
d="M792 217h-347q8 -61 42 -95.5t84 -34.5q65 0 96 53h114q-22 -64 -76.5 -108t-129.5 -44q-60 0 -106 27.5t-68 69.5q-24 -44 -71.5 -70.5t-120.5 -26.5q-55 0 -95.5 20.5t-61.5 54.5t-21 74q0 74 62.5 117.5t174.5 43.5h79v24q0 45 -25.5 71t-67.5 26q-39 0 -61.5 -19.5
t-28.5 -47.5h-110q5 44 30 82t69 61t104 23q53 0 93.5 -26t59.5 -60q23 37 65 61.5t99 24.5q63 0 114 -32t80.5 -89.5t29.5 -132.5q0 -26 -6 -47zM491 386.5q-34 -32.5 -44 -89.5h245q-8 55 -40 88.5t-81 33.5q-46 0 -80 -32.5zM314 113.5q33 32.5 33 84.5v21h-78
q-63 0 -95.5 -19.5t-32.5 -55.5q0 -28 21.5 -45.5t61.5 -17.5q57 0 90 32.5zM446 566h-84l72 152h114z" />
    <glyph glyph-name="Oslashacute" unicode="&#x1fe;" horiz-adv-x="748" 
d="M711 638l-68 -71q33 -46 50.5 -101t17.5 -116q0 -100 -46 -183t-123.5 -131t-167.5 -48q-56 0 -108 19t-95 54l-65 -69l-69 70l67 71q-32 46 -49.5 101.5t-17.5 115.5q0 100 46 183t123.5 131t167.5 48q55 0 107 -19t95 -54l65 69zM262.5 571.5q-51.5 -32.5 -82 -90.5
t-30.5 -131q0 -75 34 -137l321 344q-58 47 -131 47q-60 0 -111.5 -32.5zM485.5 128.5q51.5 32.5 82 90.5t30.5 131q0 75 -34 137l-321 -344q58 -47 131 -47q60 0 111.5 32.5zM403 755h-87l78 147h118z" />
    <glyph glyph-name="oslashacute" unicode="&#x1ff;" horiz-adv-x="572" 
d="M538 457l-48 -50q47 -67 47 -154q0 -72 -34 -133t-91.5 -96.5t-125.5 -35.5q-83 0 -149 52l-46 -47l-56 56l48 49q-48 70 -48 155q0 73 34 133.5t91.5 96t125.5 35.5q84 0 150 -52l45 47zM211.5 400q-33.5 -21 -52.5 -59.5t-19 -87.5q0 -47 17 -84l215 223q-37 29 -86 29
q-41 0 -74.5 -21zM360.5 107q33.5 21 52.5 59t19 87q0 47 -17 84l-214 -223q37 -28 85 -28q41 0 74.5 21zM316 566h-84l72 152h114z" />
    <glyph glyph-name="uni0218" unicode="&#x218;" horiz-adv-x="575" 
d="M159 17q-57 29 -88.5 80.5t-34.5 117.5h116q5 -56 41.5 -89t99.5 -33q60 0 92.5 26t32.5 66q0 32 -19.5 53.5t-49.5 34.5t-82 31q-68 23 -111 44.5t-73.5 62t-30.5 105.5q0 56 28 100.5t80.5 70t123.5 25.5q70 0 123.5 -29t83.5 -79.5t33 -112.5h-116q-3 52 -36 84
t-88 32t-85.5 -26t-30.5 -67q0 -31 19.5 -51.5t49 -33.5t80.5 -29q70 -23 112.5 -43.5t73.5 -61.5t31 -107q0 -58 -28.5 -103t-83 -71t-130.5 -26t-133 29zM341 -90.5q19 -19.5 19 -53.5q0 -85 -91 -155l-20 26q12 10 24.5 30t16.5 44q-26 1 -44 19.5t-18 44.5q0 27 19 45.5
t46 18.5q29 0 48 -19.5z" />
    <glyph glyph-name="uni0219" unicode="&#x219;" horiz-adv-x="458" 
d="M129.5 10.5q-44.5 22.5 -70 60.5t-28.5 83h108q3 -34 28 -54.5t65 -20.5q39 0 60.5 17t21.5 43q0 30 -26 45.5t-82 32.5q-51 16 -83.5 32t-55.5 45t-23 75q0 42 22 76t63.5 53.5t97.5 19.5q54 0 96.5 -21.5t66.5 -58t27 -81.5h-108q-4 33 -24.5 51.5t-57.5 18.5
q-35 0 -54 -15.5t-19 -38.5q0 -28 25 -42.5t79 -30.5q52 -16 85 -32t57 -46t24 -78q0 -68 -51 -112t-141 -44q-58 0 -102.5 22.5zM284 -90.5q19 -19.5 19 -53.5q0 -85 -91 -155l-20 26q12 10 24.5 30t16.5 44q-26 1 -44 19.5t-18 44.5q0 27 19 45.5t46 18.5q29 0 48 -19.5z
" />
    <glyph glyph-name="uni021A" unicode="&#x21a;" horiz-adv-x="562" 
d="M339 0h-116v589h-208v111h532v-111h-208v-589zM329 -90.5q19 -19.5 19 -53.5q0 -85 -91 -155l-20 26q12 10 24.5 30t16.5 44q-26 1 -44 19.5t-18 44.5q0 27 19 45.5t46 18.5q29 0 48 -19.5z" />
    <glyph glyph-name="uni021B" unicode="&#x21b;" horiz-adv-x="352" 
d="M142 35q-44 47 -44 129v243h-83v93h36q30 0 45.5 15.5t15.5 44.5v76h95v-130h110v-99h-110v-234q0 -41 20 -61.5t55 -20.5q21 0 35 7v-100q-26 -10 -60 -10q-71 0 -115 47zM267 -90.5q19 -19.5 19 -53.5q0 -85 -91 -155l-20 26q12 10 24.5 30t16.5 44q-26 1 -44 19.5
t-18 44.5q0 27 19 45.5t46 18.5q29 0 48 -19.5z" />
    <glyph glyph-name="uni0232" unicode="&#x232;" horiz-adv-x="569" 
d="M287 387l160 313h124l-229 -434v-266h-116v266l-228 434h128zM431 786h-290v84h290v-84z" />
    <glyph glyph-name="uni0233" unicode="&#x233;" horiz-adv-x="502" 
d="M386 506h113l-210 -534q-35 -87 -72.5 -122t-87.5 -35q-30 0 -54 10v100q14 -7 34 -7q29 0 48.5 14.5t32.5 48.5l12 32l-199 493h118l135 -359zM394 602h-281v80h281v-80z" />
    <glyph glyph-name="uni0237" unicode="&#x237;" horiz-adv-x="237" 
d="M-46 -175v100q17 -7 36 -7q35 0 54.5 20.5t19.5 60.5v507h110v-515q0 -82 -44 -129t-115 -47q-31 0 -61 10z" />
    <glyph glyph-name="uni0244" unicode="&#x244;" horiz-adv-x="745" 
d="M735 474v-99h-92v-113q0 -78 -34 -140.5t-95.5 -98t-140.5 -35.5q-80 0 -141.5 35.5t-95.5 98t-34 140.5v113h-91v99h91v226h116v-226h309v226h116v-226h92zM527 375h-309v-113q0 -73 42 -118t113 -45q70 0 112 45t42 118v113z" />
    <glyph glyph-name="uni0259" unicode="&#x259;" horiz-adv-x="560" 
d="M401 483q58 -35 91.5 -95.5t33.5 -134.5q0 -72 -34 -133t-91.5 -96.5t-124.5 -35.5t-122 33.5t-87 92t-32 129.5q0 35 5 53h375q-10 57 -48 90t-92 33q-39 0 -66 -15t-43 -38h-114q15 38 46.5 73t77 57t98.5 22q69 0 127 -35zM366.5 121.5q38.5 34.5 48.5 91.5h-274
q9 -56 46 -91t89 -35t90.5 34.5z" />
    <glyph glyph-name="uni0289" unicode="&#x289;" horiz-adv-x="614" 
d="M607 358v-83h-76v-275h-82l-21 57h-5q-16 -23 -54 -46t-88 -23q-59 0 -105 27.5t-72 77.5t-26 116v66h-77v83h77v148h110v-148h233v148h110v-148h76zM421 275h-233v-58q0 -56 32.5 -91.5t82.5 -35.5q52 0 85 35.5t33 91.5v58z" />
    <glyph glyph-name="uni02BC" unicode="&#x2bc;" horiz-adv-x="192" 
d="M143 692q19 -20 19 -53q0 -55 -29 -97t-64 -70l-20 25q36 41 43 87q-26 2 -44 20t-18 44q0 27 19 45.5t46 18.5q29 0 48 -20z" />
    <glyph glyph-name="circumflex" unicode="&#x2c6;" horiz-adv-x="373" 
d="M233 718l110 -152h-97l-61 89l-61 -89h-94l110 152h93z" />
    <glyph glyph-name="caron" unicode="&#x2c7;" horiz-adv-x="373" 
d="M187 629l60 89h96l-110 -152h-93l-110 152h96z" />
    <glyph glyph-name="breve" unicode="&#x2d8;" horiz-adv-x="362" 
d="M76 612.5q-41 39.5 -46 98.5h80q4 -29 21.5 -47.5t49.5 -18.5t49.5 18.5t21.5 47.5h80q-5 -59 -46 -98.5t-105 -39.5t-105 39.5z" />
    <glyph glyph-name="dotaccent" unicode="&#x2d9;" horiz-adv-x="189" 
d="M49 595.5q-19 18.5 -19 45.5q0 28 19 46.5t46 18.5t45.5 -18.5t18.5 -46.5q0 -27 -18.5 -45.5t-45.5 -18.5t-46 18.5z" />
    <glyph glyph-name="ring" unicode="&#x2da;" horiz-adv-x="267" 
d="M59.5 582q-29.5 29 -29.5 71t29.5 70.5t73.5 28.5q45 0 74.5 -28.5t29.5 -70.5t-29.5 -71t-74.5 -29q-44 0 -73.5 29zM163 622.5q12 11.5 12 30.5t-12 30.5t-30 11.5t-30 -11.5t-12 -30.5t12 -30.5t30 -11.5t30 11.5z" />
    <glyph glyph-name="ogonek" unicode="&#x2db;" horiz-adv-x="222" 
d="M120 -138.5q14 -12.5 38 -12.5q19 0 34 6v-64q-23 -7 -50 -7q-51 0 -81.5 27t-30.5 72q0 36 21.5 67.5t59.5 53.5v11l81 -15q-86 -48 -86 -103q0 -23 14 -35.5z" />
    <glyph glyph-name="tilde" unicode="&#x2dc;" horiz-adv-x="384" 
d="M217 583.5q-16 9.5 -37 28.5q-12 12 -21.5 18.5t-19.5 6.5q-16 0 -27 -15.5t-11 -42.5h-71q0 65 27 99.5t70 34.5q24 0 40 -9.5t37 -28.5q12 -12 21.5 -18.5t19.5 -6.5q16 0 27 15.5t11 42.5h71q0 -65 -27 -99.5t-70 -34.5q-24 0 -40 9.5z" />
    <glyph glyph-name="hungarumlaut" unicode="&#x2dd;" horiz-adv-x="404" 
d="M107 566h-77l80 152h108zM264 566h-79l80 152h109z" />
    <glyph glyph-name="gravecomb" unicode="&#x300;" 
d="M-30 566h-84l-103 152h115z" />
    <glyph glyph-name="acutecomb" unicode="&#x301;" 
d="M-132 566h-84l72 152h114z" />
    <glyph glyph-name="uni0302" unicode="&#x302;" 
d="M-140 718l110 -152h-97l-61 89l-61 -89h-94l110 152h93z" />
    <glyph glyph-name="tildecomb" unicode="&#x303;" 
d="M-167 583.5q-16 9.5 -37 28.5q-12 12 -21.5 18.5t-19.5 6.5q-16 0 -27 -15.5t-11 -42.5h-71q0 65 27 99.5t70 34.5q24 0 40 -9.5t37 -28.5q12 -12 21.5 -18.5t19.5 -6.5q16 0 27 15.5t11 42.5h71q0 -65 -27 -99.5t-70 -34.5q-24 0 -40 9.5z" />
    <glyph glyph-name="uni0304" unicode="&#x304;" 
d="M-30 602h-281v80h281v-80z" />
    <glyph glyph-name="uni0306" unicode="&#x306;" 
d="M-286 612.5q-41 39.5 -46 98.5h80q4 -29 21.5 -47.5t49.5 -18.5t49.5 18.5t21.5 47.5h80q-5 -59 -46 -98.5t-105 -39.5t-105 39.5z" />
    <glyph glyph-name="uni0307" unicode="&#x307;" 
d="M-140 595.5q-19 18.5 -19 45.5q0 28 19 46.5t46 18.5t45.5 -18.5t18.5 -46.5q0 -27 -18.5 -45.5t-45.5 -18.5t-46 18.5z" />
    <glyph glyph-name="uni0308" unicode="&#x308;" 
d="M-308 598.5q-18 17.5 -18 42.5q0 26 17.5 43t42.5 17t42.5 -17t17.5 -43q0 -25 -17.5 -42.5t-42.5 -17.5q-24 0 -42 17.5zM-132 598.5q-18 17.5 -18 42.5q0 26 17.5 43t42.5 17t42.5 -17t17.5 -43q0 -25 -17.5 -42.5t-42.5 -17.5q-24 0 -42 17.5z" />
    <glyph glyph-name="hookabovecomb" unicode="&#x309;" 
d="M-128 563q21 29 21 60q0 26 -14 40t-39 14q-9 0 -29 -4v65q26 8 52 8q50 0 78.5 -26.5t28.5 -69.5q0 -48 -31 -87h-67z" />
    <glyph glyph-name="uni030A" unicode="&#x30a;" 
d="M-207.5 582q-29.5 29 -29.5 71t29.5 70.5t73.5 28.5q45 0 74.5 -28.5t29.5 -70.5t-29.5 -71t-74.5 -29q-44 0 -73.5 29zM-104 622.5q12 11.5 12 30.5t-12 30.5t-30 11.5t-30 -11.5t-12 -30.5t12 -30.5t30 -11.5t30 11.5z" />
    <glyph glyph-name="uni030B" unicode="&#x30b;" 
d="M-297 566h-77l80 152h108zM-140 566h-79l80 152h109z" />
    <glyph glyph-name="uni030C" unicode="&#x30c;" 
d="M-186 629l60 89h96l-110 -152h-93l-110 152h96z" />
    <glyph glyph-name="uni0312" unicode="&#x312;" 
d="M-48.5 675q18.5 -18 18.5 -45t-19 -45.5t-46 -18.5q-29 0 -48 20t-19 54q0 52 29.5 90t63.5 64l19 -26q-13 -11 -25.5 -30.5t-16.5 -43.5q25 -1 43.5 -19z" />
    <glyph glyph-name="uni031B" unicode="&#x31b;" 
d="M-200 438l-10 68h56q46 0 46 43q0 25 -14 59h72q20 -34 20 -68q0 -44 -31 -73t-83 -29h-56z" />
    <glyph glyph-name="dotbelowcomb" unicode="&#x323;" 
d="M-140 -181.5q-19 18.5 -19 46.5q0 27 19 45.5t46 18.5t45.5 -18t18.5 -46t-18.5 -46.5t-45.5 -18.5t-46 18.5z" />
    <glyph glyph-name="uni0327" unicode="&#x327;" 
d="M-125 -41q44 -3 69.5 -26t25.5 -58q0 -42 -30 -66.5t-92 -24.5q-39 0 -68 11v58q24 -7 54 -7q61 0 61 32q0 15 -14 23.5t-45 8.5q-21 0 -39 -5l45 113h59z" />
    <glyph glyph-name="uni0328" unicode="&#x328;" 
d="M-102 -138.5q14 -12.5 38 -12.5q19 0 34 6v-64q-23 -7 -50 -7q-51 0 -81.5 27t-30.5 72q0 36 21.5 67.5t59.5 53.5v11l81 -15q-86 -48 -86 -103q0 -23 14 -35.5z" />
    <glyph glyph-name="uni0400" unicode="&#x400;" horiz-adv-x="589" 
d="M193 305v-195h356v-110h-472v700h462v-110h-346v-178h308v-107h-308zM366 755h-87l-109 147h118z" />
    <glyph glyph-name="uni0401" unicode="&#x401;" horiz-adv-x="589" 
d="M193 305v-195h356v-110h-472v700h462v-110h-346v-178h308v-107h-308zM170 785q-18 18 -18 43t18 42.5t43 17.5q24 0 42 -17.5t18 -42.5t-18 -43t-42 -18q-25 0 -43 18zM361.5 785q-18.5 18 -18.5 43t18.5 42.5t42.5 17.5q25 0 43 -17.5t18 -42.5t-18 -43t-43 -18
q-24 0 -42.5 18z" />
    <glyph glyph-name="uni0402" unicode="&#x402;" horiz-adv-x="735" 
d="M569.5 422q54.5 -30 85 -86t30.5 -132q0 -82 -32 -141.5t-90.5 -91.5t-137.5 -32v107q64 0 104 41t40 110q0 72 -38 110t-103 38q-45 0 -83.5 -13t-65.5 -31v-301h-116v593h-162v107h499v-107h-221v-186q31 19 74 32t91 13q71 0 125.5 -30z" />
    <glyph glyph-name="uni0403" unicode="&#x403;" horiz-adv-x="515" 
d="M193 0h-116v700h427v-111h-311v-589zM321 755h-87l78 147h118z" />
    <glyph glyph-name="uni0404" unicode="&#x404;" horiz-adv-x="713" 
d="M681 227q-16 -62 -58 -116.5t-106.5 -88.5t-144.5 -34q-89 0 -166 48t-123 131t-46 183t46 183t123 131t166 48q77 0 141 -34t106 -89t58 -116h-120q-20 51 -68 89.5t-117 38.5q-51 0 -96.5 -25t-77 -70.5t-41.5 -103.5h262v-103h-262q10 -58 41.5 -103.5t77 -71
t96.5 -25.5q70 0 119.5 38t70.5 90h119z" />
    <glyph glyph-name="uni0405" unicode="&#x405;" horiz-adv-x="575" 
d="M159 17q-57 29 -88.5 80.5t-34.5 117.5h116q5 -56 41.5 -89t99.5 -33q60 0 92.5 26t32.5 66q0 32 -19.5 53.5t-49.5 34.5t-82 31q-68 23 -111 44.5t-73.5 62t-30.5 105.5q0 56 28 100.5t80.5 70t123.5 25.5q70 0 123.5 -29t83.5 -79.5t33 -112.5h-116q-3 52 -36 84
t-88 32t-85.5 -26t-30.5 -67q0 -31 19.5 -51.5t49 -33.5t80.5 -29q70 -23 112.5 -43.5t73.5 -61.5t31 -107q0 -58 -28.5 -103t-83 -71t-130.5 -26t-133 29z" />
    <glyph glyph-name="uni0406" unicode="&#x406;" horiz-adv-x="270" 
d="M193 0h-116v700h116v-700z" />
    <glyph glyph-name="uni0407" unicode="&#x407;" horiz-adv-x="270" 
d="M193 0h-116v700h116v-700zM11 785q-18 18 -18 43t18 42.5t43 17.5q24 0 42 -17.5t18 -42.5t-18 -43t-42 -18q-25 0 -43 18zM174 785q-18 18 -18 43t18 42.5t43 17.5q24 0 42 -17.5t18 -42.5t-18 -43t-42 -18q-25 0 -43 18z" />
    <glyph glyph-name="uni0408" unicode="&#x408;" horiz-adv-x="538" 
d="M118 16.5q-52 28.5 -80 78t-28 110.5h115q2 -44 33 -75t80 -31q51 0 81.5 31.5t30.5 81.5v488h116v-488q0 -65 -28 -116t-79.5 -79.5t-120.5 -28.5q-68 0 -120 28.5z" />
    <glyph glyph-name="uni0409" unicode="&#x409;" horiz-adv-x="988" 
d="M727 436q66 0 119 -29.5t83.5 -79.5t30.5 -109t-30.5 -109t-83.5 -79.5t-119 -29.5h-242v589h-219l-31 -382q-8 -106 -59 -162.5t-131 -56.5q-32 0 -52 6v108h18q49 0 78 30.5t33 91.5l38 476h441v-264h126zM725 111q54 0 86 30t32 77t-32 77t-86 30h-124v-214h124z" />
    <glyph glyph-name="uni040A" unicode="&#x40a;" horiz-adv-x="996" 
d="M735 436q66 0 119 -29.5t83.5 -79.5t30.5 -109t-30.5 -109t-83.5 -79.5t-119 -29.5h-242v325h-300v-325h-116v700h116v-264h300v264h116v-264h126zM734 111q53 0 85 30t32 77t-32 77t-85 30h-125v-214h125z" />
    <glyph glyph-name="uni040B" unicode="&#x40b;" horiz-adv-x="740" 
d="M616 388q64 -64 64 -176v-212h-116v201q0 69 -35.5 104.5t-100.5 35.5q-45 0 -83.5 -13t-65.5 -31v-297h-116v593h-162v107h499v-107h-221v-186q31 19 74 32t91 13q108 0 172 -64z" />
    <glyph glyph-name="uni040C" unicode="&#x40c;" horiz-adv-x="587" 
d="M311 360l287 -360h-146l-259 331v-331h-116v700h116v-321l249 321h137zM343 755h-87l78 147h118z" />
    <glyph glyph-name="uni040D" unicode="&#x40d;" horiz-adv-x="709" 
d="M190 189l335 511h107v-700h-113v511l-335 -511h-107v700h113v-511zM418 755h-87l-109 147h118z" />
    <glyph glyph-name="uni040E" unicode="&#x40e;" horiz-adv-x="580" 
d="M466 700h118l-243 -541q-42 -92 -84 -131.5t-108 -39.5q-19 0 -36 3.5t-26 7.5v103q18 -7 43 -7q35 0 58.5 20t40.5 56l13 29l-235 500h125l169 -380zM190 799q-43 39 -48 98h83q3 -27 21.5 -45t53.5 -18q34 0 52.5 17.5t22.5 45.5h83q-5 -59 -48 -98t-110 -39t-110 39z
" />
    <glyph glyph-name="uni040F" unicode="&#x40f;" horiz-adv-x="696" 
d="M503 700h116v-700h-213v-150h-116v150h-213v700h116v-589h310v589z" />
    <glyph glyph-name="uni0410" unicode="&#x410;" horiz-adv-x="633" 
d="M635 0h-122l-57 157h-283l-57 -157h-118l263 700h112zM418 264l-103 287l-104 -287h207z" />
    <glyph glyph-name="uni0411" unicode="&#x411;" horiz-adv-x="621" 
d="M362 421q65 0 116 -27.5t80 -75.5t29 -107t-29 -107t-80 -76t-116 -28h-285v700h458v-105h-342v-174h169zM359 105q50 0 81 29t31 77t-31 77t-81 29h-166v-212h166z" />
    <glyph glyph-name="uni0412" unicode="&#x412;" horiz-adv-x="630" 
d="M556 314.5q38 -43.5 38 -113.5q0 -56 -28.5 -102t-80 -72.5t-117.5 -26.5h-291v700h279q61 0 109 -24.5t74.5 -67t26.5 -93.5q0 -56 -28 -92t-66 -50q46 -15 84 -58.5zM193 599v-184h153q46 0 75 26t29 67q0 40 -29 65.5t-75 25.5h-153zM358 101q53 0 86.5 30.5
t33.5 78.5q0 47 -33.5 77.5t-86.5 30.5h-165v-217h165z" />
    <glyph glyph-name="uni0413" unicode="&#x413;" horiz-adv-x="515" 
d="M193 0h-116v700h427v-111h-311v-589z" />
    <glyph glyph-name="uni0414" unicode="&#x414;" horiz-adv-x="709" 
d="M603 107h89v-257h-116v150h-453v-150h-116v257h48q59 43 66 126l39 467h443v-593zM487 107v486h-222l-29 -360q-7 -85 -46 -126h297z" />
    <glyph glyph-name="uni0415" unicode="&#x415;" horiz-adv-x="589" 
d="M193 305v-195h356v-110h-472v700h462v-110h-346v-178h308v-107h-308z" />
    <glyph glyph-name="uni0416" unicode="&#x416;" horiz-adv-x="846" 
d="M587 360l269 -360h-139l-238 327v-327h-113v326l-238 -326h-139l270 360l-250 340h129l228 -316v316h113v-317l229 317h129z" />
    <glyph glyph-name="uni0417" unicode="&#x417;" horiz-adv-x="558" 
d="M484.5 304q37.5 -43 37.5 -112q0 -54 -30 -101t-86 -75t-129 -28q-75 0 -130.5 28.5t-87 77.5t-38.5 111h115q8 -47 44 -78.5t93 -31.5q63 0 98 29.5t35 75.5q0 48 -34.5 78t-97.5 30h-62v97h62q53 0 84 27.5t31 71.5q0 45 -31.5 73t-85.5 28q-53 0 -85 -29t-37 -75h-116
q6 58 36.5 106t83 76.5t119.5 28.5q68 0 121 -27.5t82 -73.5t29 -98q0 -54 -32 -92t-74 -56q48 -18 85.5 -61z" />
    <glyph glyph-name="uni0418" unicode="&#x418;" horiz-adv-x="709" 
d="M190 189l335 511h107v-700h-113v511l-335 -511h-107v700h113v-511z" />
    <glyph glyph-name="uni0419" unicode="&#x419;" horiz-adv-x="709" 
d="M190 189l335 511h107v-700h-113v511l-335 -511h-107v700h113v-511zM251 799q-43 39 -48 98h83q3 -27 21.5 -45t53.5 -18q34 0 52.5 17.5t22.5 45.5h83q-5 -59 -48 -98t-110 -39t-110 39z" />
    <glyph glyph-name="uni041A" unicode="&#x41a;" horiz-adv-x="587" 
d="M311 360l287 -360h-146l-259 331v-331h-116v700h116v-321l249 321h137z" />
    <glyph glyph-name="uni041B" unicode="&#x41b;" horiz-adv-x="692" 
d="M-7 -6v108h18q49 0 78 30.5t33 91.5l38 476h455v-700h-116v589h-233l-31 -382q-8 -106 -59 -162.5t-131 -56.5q-32 0 -52 6z" />
    <glyph glyph-name="uni041C" unicode="&#x41c;" horiz-adv-x="850" 
d="M428 169l241 531h104v-700h-113v450l-205 -450h-62l-203 445v-445h-113v700h110z" />
    <glyph glyph-name="uni041D" unicode="&#x41d;" horiz-adv-x="700" 
d="M507 413v287h116v-700h-116v302h-314v-302h-116v700h116v-287h314z" />
    <glyph glyph-name="uni041E" unicode="&#x41e;" horiz-adv-x="748" 
d="M206.5 36q-77.5 48 -123.5 131t-46 183t46 183t123.5 131t167.5 48t167.5 -48t123.5 -131t46 -183t-46 -183t-123.5 -131t-167.5 -48t-167.5 48zM483.5 131.5q50.5 32.5 81 89.5t30.5 129t-30.5 129t-81 89.5t-109.5 32.5t-109.5 -32.5t-81 -89.5t-30.5 -129t30.5 -129
t81 -89.5t109.5 -32.5t109.5 32.5z" />
    <glyph glyph-name="uni041F" unicode="&#x41f;" horiz-adv-x="700" 
d="M193 0h-116v700h546v-700h-116v589h-314v-589z" />
    <glyph glyph-name="uni0420" unicode="&#x420;" horiz-adv-x="602" 
d="M327 700q66 0 120 -30.5t85.5 -82.5t31.5 -116t-31 -116.5t-85.5 -83t-120.5 -30.5h-134v-241h-116v700h250zM325 352q52 0 87.5 34t35.5 85t-35.5 84.5t-87.5 33.5h-132v-237h132z" />
    <glyph glyph-name="uni0421" unicode="&#x421;" horiz-adv-x="718" 
d="M206.5 36q-77.5 48 -123.5 131t-46 183t46 183t123.5 131t167.5 48q78 0 142.5 -35.5t106.5 -93.5t58 -126h-119q-18 60 -67 102t-121 42q-59 0 -109.5 -32.5t-81 -89.5t-30.5 -129t30.5 -129t81 -89.5t109.5 -32.5q72 0 122 41.5t71 102.5h119q-16 -68 -58.5 -126
t-107.5 -93.5t-146 -35.5q-90 0 -167.5 48z" />
    <glyph glyph-name="uni0422" unicode="&#x422;" horiz-adv-x="562" 
d="M339 0h-116v589h-208v111h532v-111h-208v-589z" />
    <glyph glyph-name="uni0423" unicode="&#x423;" horiz-adv-x="580" 
d="M466 700h118l-243 -541q-42 -92 -84 -131.5t-108 -39.5q-19 0 -36 3.5t-26 7.5v103q18 -7 43 -7q35 0 58.5 20t40.5 56l13 29l-235 500h125l169 -380z" />
    <glyph glyph-name="uni0424" unicode="&#x424;" horiz-adv-x="804" 
d="M732.5 216q-40.5 -63 -111.5 -98t-161 -37v-93h-116v93q-90 2 -161 37t-111.5 98t-40.5 144t40.5 144t111.5 98t161 37v73h116v-73q90 -2 161 -37t111.5 -98t40.5 -144t-40.5 -144zM201 237.5q54 -47.5 146 -48.5v343q-92 -1 -146 -49t-54 -123t54 -122.5zM458 189
q60 1 105 23.5t69.5 61t24.5 86.5q0 49 -24 87.5t-69.5 61t-105.5 23.5v-343z" />
    <glyph glyph-name="uni0425" unicode="&#x425;" horiz-adv-x="609" 
d="M372 355l228 -355h-134l-163 265l-165 -265h-129l227 355l-216 345h133l153 -255l153 255h130z" />
    <glyph glyph-name="uni0426" unicode="&#x426;" horiz-adv-x="710" 
d="M692 -150h-116v150h-499v700h116v-589h294v589h116v-589h89v-261z" />
    <glyph glyph-name="uni0427" unicode="&#x427;" horiz-adv-x="656" 
d="M463 700h116v-700h-116v250q-32 -19 -75 -32t-91 -13q-107 0 -171 64.5t-64 176.5v254h116v-243q0 -69 35.5 -105t100.5 -36q45 0 83 12.5t66 31.5v340z" />
    <glyph glyph-name="uni0428" unicode="&#x428;" horiz-adv-x="945" 
d="M752 111v589h116v-700h-791v700h116v-589h221v589h116v-589h222z" />
    <glyph glyph-name="uni0429" unicode="&#x429;" horiz-adv-x="974" 
d="M868 700v-589h89v-261h-116v150h-764v700h116v-589h221v589h116v-589h222v589h116z" />
    <glyph glyph-name="uni042A" unicode="&#x42a;" horiz-adv-x="672" 
d="M409 456q67 0 120.5 -30t84 -82t30.5 -116t-30.5 -116t-84 -82t-120.5 -30h-253v589h-158v111h274v-244h137zM407 111q53 0 87 33t34 84t-34 84t-87 33h-135v-234h135z" />
    <glyph glyph-name="uni042B" unicode="&#x42b;" horiz-adv-x="825" 
d="M318 456q67 0 120.5 -30t84.5 -82t31 -116t-31 -116t-84.5 -82t-120.5 -30h-241v700h116v-244h125zM632 0v700h116v-700h-116zM316 111q53 0 87.5 33t34.5 84t-34.5 84t-87.5 33h-123v-234h123z" />
    <glyph glyph-name="uni042C" unicode="&#x42c;" horiz-adv-x="594" 
d="M330 456q67 0 120.5 -30t84.5 -82t31 -116t-31 -116t-84.5 -82t-120.5 -30h-253v700h116v-244h137zM328 111q53 0 87.5 33t34.5 84t-34.5 84t-87.5 33h-135v-234h135z" />
    <glyph glyph-name="uni042D" unicode="&#x42d;" horiz-adv-x="705" 
d="M499 664q77 -48 123 -131t46 -183t-46 -183t-123 -131t-166 -48q-80 0 -144.5 34t-106.5 88.5t-58 116.5h120q20 -51 70 -89.5t119 -38.5q51 0 96.5 25.5t77 71t41.5 103.5h-262v103h262q-10 58 -41.5 103.5t-77 70.5t-96.5 25q-68 0 -116.5 -38.5t-68.5 -89.5h-120
q16 61 58 116t106 89t141 34q89 0 166 -48z" />
    <glyph glyph-name="uni042E" unicode="&#x42e;" horiz-adv-x="960" 
d="M762.5 666q73.5 -46 117 -129t43.5 -187t-43.5 -187t-117 -129t-158.5 -46q-78 0 -147 38.5t-114 109t-56 161.5h-94v-297h-116v700h116v-296h94q11 90 56.5 160.5t114 109t146.5 38.5q85 0 158.5 -46zM704.5 129.5q46.5 30.5 74.5 88t28 132.5t-28 132.5t-74.5 88
t-100.5 30.5q-55 0 -101.5 -30.5t-74.5 -88t-28 -132.5t28 -132.5t74.5 -88t101.5 -30.5q54 0 100.5 30.5z" />
    <glyph glyph-name="uni042F" unicode="&#x42f;" horiz-adv-x="624" 
d="M547 700v-700h-116v265h-117l-154 -265h-133l171 282q-64 25 -105 77.5t-41 125.5q0 59 30.5 108.5t82.5 78t115 28.5h267zM284 589q-49 0 -82 -30.5t-33 -78.5q0 -47 33 -77t82 -30h147v216h-147z" />
    <glyph glyph-name="uni0430" unicode="&#x430;" horiz-adv-x="515" 
d="M401 461.5q55 -56.5 55 -149.5v-312h-82l-20 57h-5q-21 -27 -57.5 -48t-90.5 -21q-48 0 -87 20.5t-61 55t-22 75.5q0 50 29.5 87.5t83 57.5t122.5 20h81v17q0 45 -25.5 71.5t-68.5 26.5q-38 0 -61 -19.5t-28 -47.5h-110q5 44 29.5 82t68.5 61t102 23q92 0 147 -56.5z
M313 114q34 33 34 79v32h-80q-63 0 -94.5 -20.5t-31.5 -56.5q0 -30 21.5 -48.5t61.5 -18.5q55 0 89 33z" />
    <glyph glyph-name="uni0431" unicode="&#x431;" horiz-adv-x="575" 
d="M167.5 22.5q-56.5 34.5 -89.5 105t-33 173.5q0 350 276 390l169 25v-101q-51 -10 -151 -25q-90 -13 -132.5 -59.5t-53.5 -116.5h5q19 28 59.5 51t96.5 23q60 0 112 -32t83 -89t31 -129q0 -73 -32 -130t-87.5 -88.5t-124.5 -31.5q-72 0 -128.5 34.5zM391.5 130.5
q38.5 40.5 38.5 107.5t-38.5 108t-96.5 41t-97 -41t-39 -108t39 -107.5t97 -40.5t96.5 40.5z" />
    <glyph glyph-name="uni0432" unicode="&#x432;" horiz-adv-x="507" 
d="M447.5 222q24.5 -31 24.5 -78q0 -40 -20 -73t-56 -52t-81 -19h-251v506h232q44 0 80 -18.5t56 -49.5t20 -67q0 -37 -19 -65t-44 -40q34 -13 58.5 -44zM170 420v-122h106q32 0 51 16.5t19 45.5q0 27 -19 43.5t-51 16.5h-106zM296 86q30 0 50 18.5t20 48.5q0 28 -20 47
t-50 19h-126v-133h126z" />
    <glyph glyph-name="uni0433" unicode="&#x433;" horiz-adv-x="417" 
d="M174 0h-110v506h343v-102h-233v-404z" />
    <glyph glyph-name="uni0434" unicode="&#x434;" horiz-adv-x="575" 
d="M480 99h79v-227h-106v128h-341v-128h-107v227h43q44 35 50 99l25 308h357v-407zM374 99v308h-153l-17 -209q-7 -70 -38 -99h208z" />
    <glyph glyph-name="uni0435" unicode="&#x435;" horiz-adv-x="560" 
d="M520 210h-375q10 -57 48 -90t92 -33q39 0 66 15t43 38h114q-15 -38 -46.5 -73t-77 -57t-98.5 -22q-69 0 -126.5 35t-91 95.5t-33.5 134.5q0 73 34 133.5t91.5 96t124.5 35.5t122 -33.5t87 -91.5t32 -129q0 -32 -6 -54zM194 384.5q-39 -34.5 -49 -91.5h274q-9 56 -46 91
t-88 35q-52 0 -91 -34.5z" />
    <glyph glyph-name="uni0436" unicode="&#x436;" horiz-adv-x="691" 
d="M505 268l196 -268h-128l-174 245v-245h-107v245l-174 -245h-129l197 268l-175 238h122l159 -225v225h107v-225l159 225h122z" />
    <glyph glyph-name="uni0437" unicode="&#x437;" horiz-adv-x="457" 
d="M399.5 216.5q23.5 -30.5 23.5 -74.5q0 -41 -23.5 -76t-68 -56.5t-105.5 -21.5q-93 0 -146.5 47t-62.5 121h106q3 -30 28 -51.5t71 -21.5t69.5 18t23.5 49t-23 50t-67 19h-58v81h57q38 0 58.5 16.5t20.5 43.5t-21.5 45.5t-59.5 18.5q-41 0 -63 -19.5t-26 -49.5h-105
q7 71 59 117t140 46q56 0 97.5 -21t64 -56t22.5 -76q0 -39 -20 -64.5t-49 -39.5q34 -14 57.5 -44.5z" />
    <glyph glyph-name="uni0438" unicode="&#x438;" horiz-adv-x="577" 
d="M170 158l246 348h97v-506h-107v346l-245 -346h-97v506h106v-348z" />
    <glyph glyph-name="uni0439" unicode="&#x439;" horiz-adv-x="577" 
d="M170 158l246 348h97v-506h-107v346l-245 -346h-97v506h106v-348zM186 612.5q-42 39.5 -47 98.5h80q4 -28 22.5 -46.5t52.5 -18.5q35 0 53 18t22 47h80q-5 -59 -47 -98.5t-108 -39.5t-108 39.5z" />
    <glyph glyph-name="uni043A" unicode="&#x43a;" horiz-adv-x="490" 
d="M283 266l217 -266h-137l-189 239v-239h-110v506h110v-224l177 224h127z" />
    <glyph glyph-name="uni043B" unicode="&#x43b;" horiz-adv-x="548" 
d="M-2 -6v98h18q36 0 55 22.5t23 73.5l27 318h364v-506h-110v404h-156l-20 -237q-7 -89 -48.5 -134t-111.5 -45q-23 0 -41 6z" />
    <glyph glyph-name="uni043C" unicode="&#x43c;" horiz-adv-x="679" 
d="M340 141l162 365h113v-506h-107v303l-140 -303h-57l-141 306v-306h-106v506h114z" />
    <glyph glyph-name="uni043D" unicode="&#x43d;" horiz-adv-x="573" 
d="M399 304v202h110v-506h-110v202h-225v-202h-110v506h110v-202h225z" />
    <glyph glyph-name="uni043E" unicode="&#x43e;" horiz-adv-x="572" 
d="M160.5 23.5q-57.5 35.5 -91.5 96.5t-34 133q0 73 34 133.5t91.5 96t125.5 35.5t125.5 -35.5t91.5 -96t34 -133.5q0 -72 -34 -133t-91.5 -96.5t-125.5 -35.5t-125.5 35.5zM357.5 111q32.5 21 51.5 58t19 84t-19 84t-51.5 58t-71.5 21t-71.5 -21t-51.5 -58t-19 -84t19 -84
t51.5 -58t71.5 -21t71.5 21z" />
    <glyph glyph-name="uni043F" unicode="&#x43f;" horiz-adv-x="566" 
d="M174 0h-110v506h438v-506h-110v404h-218v-404z" />
    <glyph glyph-name="uni0440" unicode="&#x440;" horiz-adv-x="590" 
d="M64 -180v686h82l20 -56h5q17 22 57.5 45t93.5 23q62 0 115.5 -34.5t85.5 -95t32 -135.5t-32 -135.5t-85.5 -95t-115.5 -34.5q-35 0 -65.5 11.5t-50.5 27t-27 26.5h-5v-233h-110zM378 110.5q31 20.5 49.5 58t18.5 84.5t-18.5 84.5t-49.5 58t-68 20.5t-68 -20.5t-49.5 -58
t-18.5 -84.5t18.5 -84.5t49.5 -58t68 -20.5t68 20.5z" />
    <glyph glyph-name="uni0441" unicode="&#x441;" horiz-adv-x="549" 
d="M160.5 23.5q-57.5 35.5 -91.5 96.5t-34 133q0 73 34 133.5t91.5 96t125.5 35.5q60 0 110 -28t82 -73.5t42 -96.5h-110q-11 37 -43 66.5t-81 29.5q-39 0 -71.5 -21t-51.5 -58t-19 -84t19 -84t51.5 -58t71.5 -21q49 0 81 29.5t43 66.5h110q-10 -51 -42 -96.5t-82 -73.5
t-110 -28q-68 0 -125.5 35.5z" />
    <glyph glyph-name="uni0442" unicode="&#x442;" horiz-adv-x="443" 
d="M276 0h-109v404h-154v102h417v-102h-154v-404z" />
    <glyph glyph-name="uni0443" unicode="&#x443;" horiz-adv-x="502" 
d="M386 506h113l-210 -534q-35 -87 -72.5 -122t-87.5 -35q-30 0 -54 10v100q14 -7 34 -7q29 0 48.5 14.5t32.5 48.5l12 32l-199 493h118l135 -359z" />
    <glyph glyph-name="uni0444" unicode="&#x444;" horiz-adv-x="723" 
d="M417 518q77 0 139 -35t97 -95.5t35 -134.5t-35 -134.5t-97 -95.5t-139 -35h-1v-168h-110v168h-1q-76 0 -138 35t-97 95.5t-35 134.5t35 134.5t97 95.5t138 35h1v182h110v-182h1zM189 135q45 -45 118 -45h1v326h-1q-73 0 -118 -45t-45 -118t45 -118zM416 90q73 0 117.5 45
t44.5 118t-44.5 118t-117.5 45h-2v-326h2z" />
    <glyph glyph-name="uni0445" unicode="&#x445;" horiz-adv-x="488" 
d="M312 258l172 -258h-126l-116 182l-116 -182h-122l172 258l-161 248h125l106 -170l106 170h120z" />
    <glyph glyph-name="uni0446" unicode="&#x446;" horiz-adv-x="588" 
d="M572 -128h-107v128h-401v506h110v-404h209v404h110v-404h79v-230z" />
    <glyph glyph-name="uni0447" unicode="&#x447;" horiz-adv-x="535" 
d="M362 506h109v-506h-109v177q-23 -13 -57 -23.5t-73 -10.5q-53 0 -95.5 23.5t-66.5 66.5t-24 100v173h110v-164q0 -47 26.5 -72t74.5 -25q56 0 105 35v226z" />
    <glyph glyph-name="uni0448" unicode="&#x448;" horiz-adv-x="769" 
d="M596 102v404h110v-506h-642v506h110v-404h156v404h110v-404h156z" />
    <glyph glyph-name="uni0449" unicode="&#x449;" horiz-adv-x="800" 
d="M706 506v-404h78v-230h-106v128h-614v506h110v-404h156v404h110v-404h156v404h110z" />
    <glyph glyph-name="uni044A" unicode="&#x44a;" horiz-adv-x="541" 
d="M340 341q51 0 91.5 -22t63.5 -60.5t23 -87.5q0 -50 -23 -89t-63.5 -60.5t-91.5 -21.5h-222v404h-115v102h224v-165h113zM325 94q39 0 61 20.5t22 56.5q0 35 -22 55.5t-61 20.5h-98v-153h98z" />
    <glyph glyph-name="uni044B" unicode="&#x44b;" horiz-adv-x="685" 
d="M278 341q52 0 92.5 -22t63 -60.5t22.5 -87.5q0 -76 -49.5 -123.5t-128.5 -47.5h-214v506h110v-165h104zM511 0v506h110v-506h-110zM263 94q39 0 61 20.5t22 56.5q0 35 -22 55.5t-61 20.5h-89v-153h89z" />
    <glyph glyph-name="uni044C" unicode="&#x44c;" horiz-adv-x="487" 
d="M287 341q51 0 91.5 -22t63 -60.5t22.5 -87.5q0 -76 -49.5 -123.5t-127.5 -47.5h-223v506h110v-165h113zM271 94q39 0 61.5 20.5t22.5 56.5q0 35 -22.5 55.5t-61.5 20.5h-97v-153h97z" />
    <glyph glyph-name="uni044D" unicode="&#x44d;" horiz-adv-x="541" 
d="M380.5 482.5q57.5 -35.5 92 -96t34.5 -133.5q0 -72 -34.5 -133t-92 -96.5t-125.5 -35.5q-60 0 -109.5 27.5t-81.5 71.5t-43 93h110q10 -38 42 -65.5t82 -27.5q51 0 89.5 34.5t48.5 91.5h-164v80h164q-10 57 -48.5 91.5t-89.5 34.5q-49 0 -81 -28.5t-43 -64.5h-110
q11 49 43 93t81.5 71.5t109.5 27.5q68 0 125.5 -35.5z" />
    <glyph glyph-name="uni044E" unicode="&#x44e;" horiz-adv-x="748" 
d="M594.5 484q54.5 -34 86.5 -94.5t32 -136.5t-32 -136.5t-86.5 -94.5t-120.5 -34q-59 0 -109 27.5t-83.5 77t-43.5 113.5h-64v-206h-110v506h110v-205h65q9 64 42.5 113t84 76.5t108.5 27.5q66 0 120.5 -34zM539 109q30 20 47.5 57.5t17.5 86.5t-17.5 86.5t-47.5 57.5
t-65 20t-65 -20t-48 -57.5t-18 -86.5t18 -86.5t48 -57.5t65 -20t65 20z" />
    <glyph glyph-name="uni044F" unicode="&#x44f;" horiz-adv-x="508" 
d="M444 506v-506h-110v172h-86l-103 -172h-125l120 189q-46 20 -72.5 60t-26.5 91q0 48 22.5 85.5t63.5 59t94 21.5h223zM232 413q-37 0 -59.5 -20t-22.5 -53q0 -35 22 -55t60 -20h106v148h-106z" />
    <glyph glyph-name="uni0450" unicode="&#x450;" horiz-adv-x="560" 
d="M520 210h-375q10 -57 48 -90t92 -33q39 0 66 15t43 38h114q-15 -38 -46.5 -73t-77 -57t-98.5 -22q-69 0 -126.5 35t-91 95.5t-33.5 134.5q0 73 34 133.5t91.5 96t124.5 35.5t122 -33.5t87 -91.5t32 -129q0 -32 -6 -54zM194 384.5q-39 -34.5 -49 -91.5h274q-9 56 -46 91
t-88 35q-52 0 -91 -34.5zM337 566h-84l-103 152h115z" />
    <glyph glyph-name="uni0451" unicode="&#x451;" horiz-adv-x="560" 
d="M520 210h-375q10 -57 48 -90t92 -33q39 0 66 15t43 38h114q-15 -38 -46.5 -73t-77 -57t-98.5 -22q-69 0 -126.5 35t-91 95.5t-33.5 134.5q0 73 34 133.5t91.5 96t124.5 35.5t122 -33.5t87 -91.5t32 -129q0 -32 -6 -54zM194 384.5q-39 -34.5 -49 -91.5h274q-9 56 -46 91
t-88 35q-52 0 -91 -34.5zM153 598.5q-18 17.5 -18 42.5q0 26 17.5 43t42.5 17t42.5 -17t17.5 -43q0 -25 -17.5 -42.5t-42.5 -17.5q-24 0 -42 17.5zM329 598.5q-18 17.5 -18 42.5q0 26 17.5 43t42.5 17t42.5 -17t17.5 -43q0 -25 -17.5 -42.5t-42.5 -17.5q-24 0 -42 17.5z" />
    <glyph glyph-name="uni0452" unicode="&#x452;" horiz-adv-x="584" 
d="M440.5 460q45.5 -31 73 -93t27.5 -150q0 -87 -30.5 -149t-86 -94t-129.5 -32v102q67 0 101.5 42t34.5 131t-31.5 130.5t-86.5 41.5q-53 0 -86.5 -35.5t-33.5 -92.5v-261h-110v547h-77v85h77v68h110v-68h169v-85h-169v-125h5q15 23 53.5 46t87.5 23q56 0 101.5 -31z" />
    <glyph glyph-name="uni0453" unicode="&#x453;" horiz-adv-x="417" 
d="M174 0h-110v506h343v-102h-233v-404zM266 566h-84l72 152h114z" />
    <glyph glyph-name="uni0454" unicode="&#x454;" horiz-adv-x="549" 
d="M368 114.5q32 27.5 42 65.5h110q-11 -49 -43 -93t-81.5 -71.5t-109.5 -27.5q-68 0 -125.5 35.5t-91.5 96.5t-34 133q0 73 34 133.5t91.5 96t125.5 35.5q60 0 109.5 -27.5t81.5 -71.5t43 -93h-110q-11 36 -43 64.5t-81 28.5q-51 0 -89.5 -34.5t-48.5 -91.5h164v-80h-164
q10 -57 48.5 -91.5t89.5 -34.5q50 0 82 27.5z" />
    <glyph glyph-name="uni0455" unicode="&#x455;" horiz-adv-x="458" 
d="M129.5 10.5q-44.5 22.5 -70 60.5t-28.5 83h108q3 -34 28 -54.5t65 -20.5q39 0 60.5 17t21.5 43q0 30 -26 45.5t-82 32.5q-51 16 -83.5 32t-55.5 45t-23 75q0 42 22 76t63.5 53.5t97.5 19.5q54 0 96.5 -21.5t66.5 -58t27 -81.5h-108q-4 33 -24.5 51.5t-57.5 18.5
q-35 0 -54 -15.5t-19 -38.5q0 -28 25 -42.5t79 -30.5q52 -16 85 -32t57 -46t24 -78q0 -68 -51 -112t-141 -44q-58 0 -102.5 22.5z" />
    <glyph glyph-name="uni0456" unicode="&#x456;" horiz-adv-x="237" 
d="M174 0h-110v506h110v-506zM73 595.5q-19 18.5 -19 45.5q0 28 19 46.5t46 18.5t45.5 -18.5t18.5 -46.5q0 -27 -18.5 -45.5t-45.5 -18.5t-46 18.5z" />
    <glyph glyph-name="uni0457" unicode="&#x457;" horiz-adv-x="237" 
d="M174 0h-110v506h110v-506zM2 598.5q-18 17.5 -18 42.5q0 26 17.5 43t42.5 17t42.5 -17t17.5 -43q0 -25 -17.5 -42.5t-42.5 -17.5q-24 0 -42 17.5zM151 598.5q-18 17.5 -18 42.5q0 26 17.5 43t42.5 17t42.5 -17t17.5 -43q0 -25 -17.5 -42.5t-42.5 -17.5q-24 0 -42 17.5z
" />
    <glyph glyph-name="uni0458" unicode="&#x458;" horiz-adv-x="237" 
d="M-46 -175v100q17 -7 36 -7q35 0 54.5 20.5t19.5 60.5v507h110v-515q0 -82 -44 -129t-115 -47q-31 0 -61 10zM73 595.5q-19 18.5 -19 45.5q0 28 19 46.5t46 18.5t45.5 -18.5t18.5 -46.5q0 -27 -18.5 -45.5t-45.5 -18.5t-46 18.5z" />
    <glyph glyph-name="uni0459" unicode="&#x459;" horiz-adv-x="775" 
d="M576 322q50 0 90.5 -21t63.5 -56.5t23 -77.5q0 -48 -22.5 -86t-63 -59.5t-91.5 -21.5h-214v404h-143l-20 -237q-7 -89 -48.5 -134t-111.5 -45q-23 0 -41 6v99h18q36 0 55 22t23 73l27 318h351v-184h104zM562 93q38 0 59.5 18t21.5 51q0 31 -21.5 49.5t-59.5 18.5h-90
v-137h90z" />
    <glyph glyph-name="uni045A" unicode="&#x45a;" horiz-adv-x="800" 
d="M600 322q51 0 91.5 -21t63 -56.5t22.5 -77.5q0 -48 -22.5 -86t-63 -59.5t-91.5 -21.5h-214v225h-212v-225h-110v506h110v-184h212v184h110v-184h104zM586 93q39 0 60 18t21 51q0 31 -21.5 49.5t-59.5 18.5h-90v-137h90z" />
    <glyph glyph-name="uni045B" unicode="&#x45b;" horiz-adv-x="594" 
d="M440 463.5q45 -27.5 70.5 -78t25.5 -116.5v-269h-110v262q0 56 -32.5 91.5t-83.5 35.5q-52 0 -84.5 -35.5t-32.5 -91.5v-262h-110v547h-77v85h77v68h110v-68h169v-85h-169v-125h5q15 23 53.5 46t87.5 23q56 0 101 -27.5z" />
    <glyph glyph-name="uni045C" unicode="&#x45c;" horiz-adv-x="490" 
d="M283 266l217 -266h-137l-189 239v-239h-110v506h110v-224l177 224h127zM293 566h-84l72 152h114z" />
    <glyph glyph-name="uni045D" unicode="&#x45d;" horiz-adv-x="577" 
d="M170 158l246 348h97v-506h-107v346l-245 -346h-97v506h106v-348zM348 566h-84l-103 152h115z" />
    <glyph glyph-name="uni045E" unicode="&#x45e;" horiz-adv-x="502" 
d="M386 506h113l-210 -534q-35 -87 -72.5 -122t-87.5 -35q-30 0 -54 10v100q14 -7 34 -7q29 0 48.5 14.5t32.5 48.5l12 32l-199 493h118l135 -359zM146 612.5q-42 39.5 -47 98.5h80q4 -28 22.5 -46.5t52.5 -18.5q35 0 53 18t22 47h80q-5 -59 -47 -98.5t-108 -39.5t-108 39.5
z" />
    <glyph glyph-name="uni045F" unicode="&#x45f;" horiz-adv-x="569" 
d="M395 506h110v-506h-167v-128h-107v128h-167v506h110v-404h221v404z" />
    <glyph glyph-name="uni0462" unicode="&#x462;" horiz-adv-x="648" 
d="M386 446q67 0 120.5 -29.5t83.5 -80.5t30 -113t-30 -113t-83.5 -80.5t-120.5 -29.5h-254v521h-137v94h137v85h116v-85h179v-94h-179v-75h138zM386 111q52 0 85 32t33 82t-33 82t-85 32h-138v-228h138z" />
    <glyph glyph-name="uni0463" unicode="&#x463;" horiz-adv-x="530" 
d="M330 338q51 0 91.5 -21.5t63 -60t22.5 -86.5q0 -49 -22.5 -88t-63 -60.5t-91.5 -21.5h-227v457h-107v88h107v155h110v-155h149v-88h-149v-119h117zM315 94q38 0 60.5 20.5t22.5 55.5t-22.5 56t-60.5 21h-102v-153h102z" />
    <glyph glyph-name="uni0472" unicode="&#x472;" horiz-adv-x="748" 
d="M541.5 664q77.5 -48 123.5 -131t46 -183t-46 -183t-123.5 -131t-167.5 -48t-167.5 48t-123.5 131t-46 183t46 183t123.5 131t167.5 48t167.5 -48zM274.5 578.5q-46.5 -25.5 -78.5 -72.5t-42 -107h440q-10 60 -42 107t-78.5 72.5t-99.5 25.5t-99.5 -25.5zM473.5 121.5
q46.5 25.5 78.5 72t42 106.5h-440q10 -60 42 -106.5t78.5 -72t99.5 -25.5t99.5 25.5z" />
    <glyph glyph-name="uni0473" unicode="&#x473;" horiz-adv-x="572" 
d="M411.5 482.5q57.5 -35.5 91.5 -96t34 -133.5q0 -72 -34 -133t-91.5 -96.5t-125.5 -35.5t-125.5 35.5t-91.5 96.5t-34 133q0 73 34 133.5t91.5 96t125.5 35.5t125.5 -35.5zM193 386q-39 -35 -49 -93h284q-10 58 -49 93t-93 35t-93 -35zM379 120.5q39 34.5 49 92.5h-284
q10 -58 49 -92.5t93 -34.5t93 34.5z" />
    <glyph glyph-name="uni0474" unicode="&#x474;" horiz-adv-x="678" 
d="M685.5 711q21.5 -6 32.5 -14l-30 -103q-20 12 -42 12q-28 0 -46 -19t-36 -68l-187 -519h-119l-250 700h123l190 -543l140 399q29 86 70.5 123.5t105.5 37.5q27 0 48.5 -6z" />
    <glyph glyph-name="uni0475" unicode="&#x475;" horiz-adv-x="529" 
d="M560 503l-27 -89q-11 7 -31 7q-19 0 -31 -11t-24 -44l-142 -366h-106l-196 506h116l135 -373l94 260q24 67 58 98.5t84 31.5q41 0 70 -20z" />
    <glyph glyph-name="uni048A" unicode="&#x48a;" horiz-adv-x="738" 
d="M251 799q-43 39 -48 98h83q4 -28 22.5 -45.5t52.5 -17.5q35 0 53.5 18t21.5 45h83q-5 -59 -48 -98t-110 -39t-110 39zM632 700v-589h104v-20l-89 -241h-87l38 150h-79v511l-335 -511h-107v700h113v-511l335 511h107z" />
    <glyph glyph-name="uni048B" unicode="&#x48b;" horiz-adv-x="608" 
d="M186 612.5q-42 39.5 -47 98.5h81q3 -28 21.5 -46.5t52.5 -18.5q35 0 53.5 18.5t21.5 46.5h81q-5 -59 -47.5 -98.5t-108.5 -39.5t-108 39.5zM513 506v-404h84v-19l-76 -211h-81l31 128h-65v346l-245 -346h-97v506h106v-348l246 348h97z" />
    <glyph glyph-name="uni048C" unicode="&#x48c;" horiz-adv-x="648" 
d="M386 446q67 0 120.5 -29.5t83.5 -80.5t30 -113t-30 -113t-83.5 -80.5t-120.5 -29.5h-254v521h-137v94h137v85h116v-85h179v-94h-179v-75h138zM386 111q52 0 85 32t33 82t-33 82t-85 32h-138v-228h138z" />
    <glyph glyph-name="uni048D" unicode="&#x48d;" horiz-adv-x="530" 
d="M330 338q51 0 91.5 -21.5t63 -60t22.5 -86.5q0 -49 -22.5 -88t-63 -60.5t-91.5 -21.5h-227v457h-107v88h107v155h110v-155h149v-88h-149v-119h117zM315 94q38 0 60.5 20.5t22.5 55.5t-22.5 56t-60.5 21h-102v-153h102z" />
    <glyph glyph-name="uni048E" unicode="&#x48e;" horiz-adv-x="602" 
d="M542.5 373.5q-21.5 -45.5 -59.5 -77.5l55 -78l-66 -48l-60 85q-40 -14 -85 -14h-134v-241h-116v700h250q66 0 120 -30.5t85.5 -82.5t31.5 -116q0 -52 -21.5 -97.5zM325 350q13 0 19 1l-54 77l66 48l61 -87q31 33 31 82q0 52 -35.5 86.5t-87.5 34.5h-132v-242h132z" />
    <glyph glyph-name="uni048F" unicode="&#x48f;" horiz-adv-x="590" 
d="M535.5 145q-19.5 -50 -54.5 -87l57 -77l-56 -43l-56 77q-51 -27 -104 -27q-35 0 -65.5 11.5t-50.5 27t-27 26.5h-5v-233h-110v686h82l20 -56h5q17 22 57.5 45t93.5 23q62 0 115.5 -34.5t85.5 -95t32 -135.5q0 -58 -19.5 -108zM362 102l-56 77l56 42l53 -73q31 46 31 105
q0 47 -18.5 84.5t-49.5 58t-68 20.5t-68 -20.5t-49.5 -58t-18.5 -84.5t18.5 -84.5t49.5 -58t68 -20.5q28 0 52 12z" />
    <glyph glyph-name="uni0490" unicode="&#x490;" horiz-adv-x="515" 
d="M193 0h-116v700h314v128h113v-239h-311v-589z" />
    <glyph glyph-name="uni0491" unicode="&#x491;" horiz-adv-x="417" 
d="M174 0h-110v506h237v100h106v-202h-233v-404z" />
    <glyph glyph-name="uni0492" unicode="&#x492;" horiz-adv-x="554" 
d="M535 700v-111h-312v-208h224v-108h-224v-273h-116v273h-91v108h91v319h428z" />
    <glyph glyph-name="uni0493" unicode="&#x493;" horiz-adv-x="441" 
d="M426 506v-102h-233v-144h168v-89h-168v-171h-110v171h-77v89h77v246h343z" />
    <glyph glyph-name="uni0494" unicode="&#x494;" horiz-adv-x="650" 
d="M485 422q54 -30 84.5 -86t30.5 -132q0 -123 -70.5 -194t-190.5 -71v107q64 0 104 41t40 110t-39 108.5t-106 39.5q-65 0 -105 -38t-40 -97v-210h-116v700h417v-107h-301v-210q67 69 169 69q69 0 123 -30z" />
    <glyph glyph-name="uni0495" unicode="&#x495;" horiz-adv-x="522" 
d="M276 -86q53 0 84 33.5t31 99.5q0 62 -30 97t-77 35q-48 0 -79 -32.5t-31 -84.5v-62h-110v506h333v-102h-223v-177h5q20 23 51 38.5t72 15.5q55 0 100.5 -28.5t72 -81t26.5 -122.5t-29.5 -123.5t-80.5 -83.5t-115 -30v102z" />
    <glyph glyph-name="uni0496" unicode="&#x496;" horiz-adv-x="870" 
d="M587 360l187 -249h101v-261h-116v150h-42l-238 327v-327h-113v326l-238 -326h-139l270 360l-250 340h129l228 -316v316h113v-317l229 317h129z" />
    <glyph glyph-name="uni0497" unicode="&#x497;" horiz-adv-x="713" 
d="M505 268l123 -166h90v-230h-106v128h-39l-174 245v-245h-107v245l-174 -245h-129l197 268l-175 238h122l159 -225v225h107v-225l159 225h122z" />
    <glyph glyph-name="uni0498" unicode="&#x498;" horiz-adv-x="558" 
d="M472 65q-50 -56 -136 -72v-143h-116v143q-87 15 -138.5 73t-60.5 139h115q8 -47 44 -78.5t93 -31.5q63 0 98 29.5t35 75.5q0 48 -34.5 78t-97.5 30h-62v97h62q53 0 84 27.5t31 71.5q0 45 -31.5 73t-85.5 28q-53 0 -85 -29t-37 -75h-116q6 58 36.5 106t83 76.5t119.5 28.5
q68 0 121 -27.5t82 -73.5t29 -98q0 -54 -32 -92t-74 -56q48 -18 85.5 -61t37.5 -112q0 -71 -50 -127z" />
    <glyph glyph-name="uni0499" unicode="&#x499;" horiz-adv-x="457" 
d="M384.5 47q-38.5 -42 -106.5 -54v-121h-107v121q-68 13 -107.5 57t-46.5 106h106q3 -30 28 -51.5t71 -21.5t69.5 18t23.5 49t-23 50t-67 19h-58v81h57q38 0 58.5 16.5t20.5 43.5t-21.5 45.5t-59.5 18.5q-41 0 -63 -19.5t-26 -49.5h-105q7 71 59 117t140 46q56 0 97.5 -21
t64 -56t22.5 -76q0 -39 -20 -64.5t-49 -39.5q34 -14 57.5 -44.5t23.5 -74.5q0 -53 -38.5 -95z" />
    <glyph glyph-name="uni049A" unicode="&#x49a;" horiz-adv-x="605" 
d="M311 360l200 -249h99v-261h-116v150h-42l-259 331v-331h-116v700h116v-321l249 321h137z" />
    <glyph glyph-name="uni049B" unicode="&#x49b;" horiz-adv-x="504" 
d="M283 266l136 -164h90v-230h-106v128h-40l-189 239v-239h-110v506h110v-224l177 224h127z" />
    <glyph glyph-name="uni049C" unicode="&#x49c;" horiz-adv-x="674" 
d="M665 700l-244 -343l263 -357h-140l-219 301h-23v-101h-77v101h-32v-301h-116v700h116v-300h32v100h77v-100h22l209 300h132z" />
    <glyph glyph-name="uni049D" unicode="&#x49d;" horiz-adv-x="534" 
d="M525 506l-165 -248l185 -258h-129l-143 207h-12v-92h-60v92h-27v-207h-110v506h110v-205h27v92h60v-92h12l129 205h123z" />
    <glyph glyph-name="uni049E" unicode="&#x49e;" horiz-adv-x="618" 
d="M341 360l287 -360h-145l-260 332v-332h-116v551h-111v87h111v62h116v-62h97v-87h-97v-173l249 322h138z" />
    <glyph glyph-name="uni049F" unicode="&#x49f;" horiz-adv-x="509" 
d="M303 264l216 -264h-137l-189 239v-239h-110v547h-77v85h77v68h110v-68h140v-85h-140v-265l177 218h127z" />
    <glyph glyph-name="uni04A0" unicode="&#x4a0;" horiz-adv-x="666" 
d="M390 360l286 -360h-145l-259 331v-331h-116v589h-158v111h274v-320l248 320h138z" />
    <glyph glyph-name="uni04A1" unicode="&#x4a1;" horiz-adv-x="543" 
d="M337 266l217 -266h-137l-190 241v-241h-109v404h-115v102h224v-225l177 225h128z" />
    <glyph glyph-name="uni04A2" unicode="&#x4a2;" horiz-adv-x="730" 
d="M623 700v-589h89v-261h-116v150h-89v302h-314v-302h-116v700h116v-287h314v287h116z" />
    <glyph glyph-name="uni04A3" unicode="&#x4a3;" horiz-adv-x="604" 
d="M509 506v-404h79v-230h-107v128h-82v202h-225v-202h-110v506h110v-202h225v202h110z" />
    <glyph glyph-name="uni04A4" unicode="&#x4a4;" horiz-adv-x="911" 
d="M490 413v287h410v-111h-294v-589h-116v302h-297v-302h-116v700h116v-287h297z" />
    <glyph glyph-name="uni04A5" unicode="&#x4a5;" horiz-adv-x="719" 
d="M382 304v202h327v-102h-217v-404h-110v202h-208v-202h-110v506h110v-202h208z" />
    <glyph glyph-name="uni04A8" unicode="&#x4a8;" horiz-adv-x="795" 
d="M811 37q-23 -17 -63.5 -33t-92.5 -16q-43 0 -81.5 11.5t-63.5 26.5q-26 -16 -63 -27t-82 -11q-87 0 -162.5 47t-120.5 130t-45 185q0 95 38 172.5t103 127t144 62.5v-111q-48 -11 -87.5 -44t-63.5 -86.5t-24 -120.5q0 -74 30 -132.5t80.5 -90.5t107.5 -32q22 0 44 6
q-46 39 -83 108t-37 169q0 85 31 148.5t81.5 97t108.5 33.5t109 -33.5t81.5 -97t30.5 -148.5q0 -98 -37.5 -169t-82.5 -108q26 -6 45 -6q55 0 100 30zM586.5 226.5q34.5 63.5 34.5 154.5q0 83 -32.5 125.5t-78.5 42.5t-78 -42.5t-32 -125.5q0 -91 34 -154.5t76 -96.5
q42 33 76.5 96.5z" />
    <glyph glyph-name="uni04A9" unicode="&#x4a9;" horiz-adv-x="612" 
d="M628 26q-16 -13 -52 -25.5t-76 -12.5q-67 0 -109 30q-22 -15 -47.5 -22.5t-61.5 -7.5q-67 0 -123.5 34.5t-90 95.5t-33.5 135q0 69 25 125t69 92t100 48v-103q-40 -16 -66.5 -57t-26.5 -105q0 -53 19.5 -92t52.5 -60t72 -21q15 0 22 1q-31 30 -54.5 78.5t-23.5 113.5
q0 59 22 103.5t60.5 68.5t85.5 24q46 0 84.5 -24t60.5 -68.5t22 -103.5q0 -64 -24 -113.5t-54 -77.5q7 -2 21 -2q29 0 51 6t32 13zM438 173q20 42 20 100q0 51 -18.5 76t-47.5 25q-30 0 -48.5 -25t-18.5 -76q0 -59 20.5 -101t46.5 -67q26 26 46 68z" />
    <glyph glyph-name="uni04AA" unicode="&#x4aa;" horiz-adv-x="718" 
d="M686 243q-21 -91 -88.5 -161.5t-165.5 -88.5v-143h-116v143q-78 15 -141.5 65.5t-100.5 126.5t-37 165q0 100 46 183t123.5 131t167.5 48q78 0 142.5 -35.5t106.5 -93.5t58 -126h-119q-18 60 -67 102t-121 42q-59 0 -109.5 -32.5t-81 -89.5t-30.5 -129t30.5 -129
t81 -89.5t109.5 -32.5q72 0 122 41.5t71 102.5h119z" />
    <glyph glyph-name="uni04AB" unicode="&#x4ab;" horiz-adv-x="549" 
d="M367 119.5q32 29.5 43 66.5h110q-13 -65 -61.5 -119.5t-117.5 -71.5v-123h-107v122q-56 12 -101.5 49.5t-71.5 92t-26 117.5q0 73 34 133.5t91.5 96t125.5 35.5q60 0 110 -28t82 -73.5t42 -96.5h-110q-11 37 -43 66.5t-81 29.5q-39 0 -71.5 -21t-51.5 -58t-19 -84t19 -84
t51.5 -58t71.5 -21q49 0 81 29.5z" />
    <glyph glyph-name="uni04AC" unicode="&#x4ac;" horiz-adv-x="562" 
d="M428 -150h-116v150h-89v589h-208v111h532v-111h-208v-478h89v-261z" />
    <glyph glyph-name="uni04AD" unicode="&#x4ad;" horiz-adv-x="443" 
d="M355 -128h-106v128h-82v404h-154v102h417v-102h-154v-302h79v-230z" />
    <glyph glyph-name="uni04AE" unicode="&#x4ae;" horiz-adv-x="569" 
d="M287 387l160 313h124l-229 -434v-266h-116v266l-228 434h128z" />
    <glyph glyph-name="uni04AF" unicode="&#x4af;" horiz-adv-x="504" 
d="M255 124l134 382h112l-194 -502v-184h-109v184l-195 502h116z" />
    <glyph glyph-name="uni04B0" unicode="&#x4b0;" horiz-adv-x="569" 
d="M447 700h124l-218 -413h126v-99h-137v-188h-116v188h-137v99h126l-217 413h128l161 -313z" />
    <glyph glyph-name="uni04B1" unicode="&#x4b1;" horiz-adv-x="504" 
d="M389 506h112l-187 -483h96v-84h-103v-119h-109v119h-102v84h95l-188 483h116l136 -382z" />
    <glyph glyph-name="uni04B2" unicode="&#x4b2;" horiz-adv-x="619" 
d="M372 355l157 -244h95v-261h-116v150h-42l-163 265l-165 -265h-129l227 355l-216 345h133l153 -255l153 255h130z" />
    <glyph glyph-name="uni04B3" unicode="&#x4b3;" horiz-adv-x="499" 
d="M312 258l105 -156h87v-230h-107v128h-39l-116 182l-116 -182h-122l172 258l-161 248h125l106 -170l106 170h120z" />
    <glyph glyph-name="uni04B4" unicode="&#x4b4;" horiz-adv-x="840" 
d="M823 -150h-116v150h-503v589h-189v111h489v-111h-184v-478h298v589h116v-589h89v-261z" />
    <glyph glyph-name="uni04B5" unicode="&#x4b5;" horiz-adv-x="675" 
d="M660 -128h-107v128h-405v406h-135v100h377v-100h-132v-304h213v404h110v-404h79v-230z" />
    <glyph glyph-name="uni04B6" unicode="&#x4b6;" horiz-adv-x="686" 
d="M579 111h89v-261h-116v150h-89v250q-32 -19 -75 -32t-91 -13q-107 0 -171 64.5t-64 176.5v254h116v-243q0 -69 35.5 -105t100.5 -36q45 0 83 12.5t66 31.5v340h116v-589z" />
    <glyph glyph-name="uni04B7" unicode="&#x4b7;" horiz-adv-x="566" 
d="M471 102h79v-230h-106v128h-82v177q-23 -13 -57 -23.5t-73 -10.5q-53 0 -95.5 23.5t-66.5 66.5t-24 100v173h110v-164q0 -47 26.5 -72t74.5 -25q56 0 105 35v226h109v-404z" />
    <glyph glyph-name="uni04B8" unicode="&#x4b8;" horiz-adv-x="656" 
d="M463 700h116v-700h-116v250q-50 -29 -104 -39v-107h-77v101q-101 5 -160.5 68.5t-59.5 172.5v254h116v-243q0 -61 27 -96t77 -43v100h77v-98q58 9 104 40v340z" />
    <glyph glyph-name="uni04B9" unicode="&#x4b9;" horiz-adv-x="535" 
d="M362 506h109v-506h-109v177q-28 -17 -73 -28v-99h-60v93q-52 0 -94 24t-65.5 67t-23.5 99v173h110v-164q0 -40 19 -64t54 -31v90h60v-89q40 8 73 32v226z" />
    <glyph glyph-name="uni04BA" unicode="&#x4ba;" horiz-adv-x="656" 
d="M530 430.5q64 -64.5 64 -176.5v-254h-116v243q0 69 -35.5 105t-100.5 36q-45 0 -83.5 -13t-65.5 -31v-340h-116v700h116v-250q32 19 74.5 32t90.5 13q108 0 172 -64.5z" />
    <glyph glyph-name="uni04BB" unicode="&#x4bb;" horiz-adv-x="580" 
d="M69 0v700h110v-250h5q16 23 54 45.5t87 22.5q56 0 100.5 -27.5t70 -77.5t25.5 -116v-297h-109v289q0 56 -32.5 91.5t-83.5 35.5q-52 0 -84.5 -35.5t-32.5 -91.5v-289h-110z" />
    <glyph glyph-name="uni04BC" unicode="&#x4bc;" horiz-adv-x="857" 
d="M817 311h-545q8 -61 39 -109.5t77.5 -75.5t100.5 -27q66 0 114 32t73 84h120q-19 -62 -62.5 -114t-107 -82.5t-137.5 -30.5q-84 0 -157 42t-120.5 116t-56.5 165h-21q-64 0 -101.5 37t-37.5 101v32h99v-28q0 -22 12.5 -34t34.5 -12h16q13 87 60.5 156.5t119 109
t152.5 39.5q90 0 166 -47t120.5 -129t44.5 -184q0 -17 -3 -41zM393 576.5q-45 -24.5 -76.5 -69t-42.5 -100.5h425q-4 53 -33 97.5t-75.5 70.5t-101.5 26q-51 0 -96 -24.5z" />
    <glyph glyph-name="uni04BD" unicode="&#x4bd;" horiz-adv-x="663" 
d="M623 211h-375q10 -58 47.5 -91t92.5 -33q39 0 66 15t43 38h114q-15 -38 -46.5 -73t-77.5 -57t-99 -22q-62 0 -115.5 29t-88.5 79.5t-44 114.5h-10q-61 0 -95.5 33.5t-34.5 90.5v22h85v-22q0 -24 10.5 -34.5t34.5 -10.5h9q9 64 44.5 116t89 82t114.5 30q67 0 122 -33.5
t87 -91.5t32 -129q0 -35 -5 -53zM295.5 384q-38.5 -35 -48.5 -94h276q-9 57 -46.5 93t-89.5 36q-53 0 -91.5 -35z" />
    <glyph glyph-name="uni04BE" unicode="&#x4be;" horiz-adv-x="857" 
d="M817 311h-545q8 -61 39 -109.5t77.5 -75.5t100.5 -27q66 0 114 32t73 84h120q-25 -83 -92 -144.5t-158 -77.5v-143h-116v144q-71 13 -131 57.5t-98 112t-46 147.5h-21q-64 0 -101.5 37t-37.5 101v32h99v-28q0 -22 12.5 -34t34.5 -12h16q13 87 60.5 156.5t119 109
t152.5 39.5q90 0 166 -47t120.5 -129t44.5 -184q0 -17 -3 -41zM393 576.5q-45 -24.5 -76.5 -69t-42.5 -100.5h425q-4 53 -33 97.5t-75.5 70.5t-101.5 26q-51 0 -96 -24.5z" />
    <glyph glyph-name="uni04BF" unicode="&#x4bf;" horiz-adv-x="663" 
d="M623 211h-375q10 -58 47.5 -91t92.5 -33q39 0 66 15t43 38h114q-18 -49 -63.5 -90.5t-106.5 -55.5v-122h-107v122q-76 17 -129 76t-65 141h-10q-61 0 -95.5 33.5t-34.5 90.5v22h85v-22q0 -24 10.5 -34.5t34.5 -10.5h9q9 64 44.5 116t89 82t114.5 30q67 0 122 -33.5
t87 -91.5t32 -129q0 -35 -5 -53zM295.5 384q-38.5 -35 -48.5 -94h276q-9 57 -46.5 93t-89.5 36q-53 0 -91.5 -35z" />
    <glyph glyph-name="uni04C0" unicode="&#x4c0;" horiz-adv-x="270" 
d="M193 0h-116v700h116v-700z" />
    <glyph glyph-name="uni04C1" unicode="&#x4c1;" horiz-adv-x="846" 
d="M587 360l269 -360h-139l-238 327v-327h-113v326l-238 -326h-139l270 360l-250 340h129l228 -316v316h113v-317l229 317h129zM313 799q-43 39 -48 98h83q3 -27 21.5 -45t53.5 -18q34 0 52.5 17.5t22.5 45.5h83q-5 -59 -48 -98t-110 -39t-110 39z" />
    <glyph glyph-name="uni04C2" unicode="&#x4c2;" horiz-adv-x="691" 
d="M505 268l196 -268h-128l-174 245v-245h-107v245l-174 -245h-129l197 268l-175 238h122l159 -225v225h107v-225l159 225h122zM238 612.5q-42 39.5 -47 98.5h80q4 -28 22.5 -46.5t52.5 -18.5q35 0 53 18t22 47h80q-5 -59 -47 -98.5t-108 -39.5t-108 39.5z" />
    <glyph glyph-name="uni04C3" unicode="&#x4c3;" horiz-adv-x="653" 
d="M479.5 371.5q57.5 -30.5 91.5 -87.5t34 -132q0 -77 -34 -137.5t-93.5 -94t-132.5 -33.5v107q61 0 102 42t41 111q0 70 -40 111t-106 41q-67 0 -108 -38.5t-41 -99.5v-161h-116v700h116v-331l249 331h138l-232 -298h5q69 0 126.5 -30.5z" />
    <glyph glyph-name="uni04C4" unicode="&#x4c4;" horiz-adv-x="522" 
d="M402.5 252.5q45.5 -28.5 72 -81t26.5 -122.5t-29.5 -123.5t-80.5 -83.5t-115 -30v102q53 0 84 33.5t31 98.5q0 63 -30 98t-77 35q-48 0 -79 -32t-31 -84v-63h-110v506h110v-232l170 232h127l-175 -225h7q54 0 99.5 -28.5z" />
    <glyph glyph-name="uni04C5" unicode="&#x4c5;" horiz-adv-x="721" 
d="M543 -150l38 150h-82v589h-233l-31 -382q-8 -106 -59 -162.5t-131 -56.5q-32 0 -52 6v108h18q49 0 78 30.5t33 91.5l38 476h455v-589h104v-20l-89 -241h-87z" />
    <glyph glyph-name="uni04C6" unicode="&#x4c6;" horiz-adv-x="580" 
d="M412 -128l30 128h-67v404h-156l-20 -237q-7 -89 -48.5 -134t-111.5 -45q-23 0 -41 6v98h18q36 0 55 22.5t23 73.5l27 318h364v-404h84v-19l-76 -211h-81z" />
    <glyph glyph-name="uni04C7" unicode="&#x4c7;" horiz-adv-x="700" 
d="M507 700h116v-716q0 -94 -47.5 -143t-133.5 -49q-38 0 -65 11v103q22 -9 45 -9q43 0 64 21.5t21 68.5v315h-314v-302h-116v700h116v-287h314v287z" />
    <glyph glyph-name="uni04C8" unicode="&#x4c8;" horiz-adv-x="573" 
d="M399 506h110v-519q0 -79 -44 -125.5t-112 -46.5q-20 0 -37 3.5t-25 7.5v93q15 -5 34 -5q35 0 54.5 19.5t19.5 55.5v213h-225v-202h-110v506h110v-202h225v202z" />
    <glyph glyph-name="uni04C9" unicode="&#x4c9;" horiz-adv-x="730" 
d="M623 700v-589h104v-20l-89 -241h-87l38 150h-82v302h-314v-302h-116v700h116v-287h314v287h116z" />
    <glyph glyph-name="uni04CA" unicode="&#x4ca;" horiz-adv-x="604" 
d="M509 506v-404h84v-19l-76 -211h-81l31 128h-68v202h-225v-202h-110v506h110v-202h225v202h110z" />
    <glyph glyph-name="uni04CB" unicode="&#x4cb;" horiz-adv-x="656" 
d="M463 700h116v-700h-84v-150h-116v253h84v147q-32 -19 -75 -32t-91 -13q-107 0 -171 64.5t-64 176.5v254h116v-243q0 -69 35.5 -105t100.5 -36q45 0 83 12.5t66 31.5v340z" />
    <glyph glyph-name="uni04CC" unicode="&#x4cc;" horiz-adv-x="535" 
d="M362 506h109v-506h-77v-128h-106v207h74v98q-23 -13 -57 -23.5t-73 -10.5q-53 0 -95.5 23.5t-66.5 66.5t-24 100v173h110v-164q0 -47 26.5 -72t74.5 -25q56 0 105 35v226z" />
    <glyph glyph-name="uni04CD" unicode="&#x4cd;" horiz-adv-x="879" 
d="M773 700v-589h103v-20l-88 -241h-87l37 150h-78v450l-205 -450h-62l-203 445v-445h-113v700h110l241 -531l241 531h104z" />
    <glyph glyph-name="uni04CE" unicode="&#x4ce;" horiz-adv-x="710" 
d="M615 506v-404h84v-19l-76 -211h-81l30 128h-64v303l-140 -303h-57l-141 306v-306h-106v506h114l162 -365l162 365h113z" />
    <glyph glyph-name="uni04CF" unicode="&#x4cf;" horiz-adv-x="247" 
d="M179 0h-110v700h110v-700z" />
    <glyph glyph-name="uni04D0" unicode="&#x4d0;" horiz-adv-x="633" 
d="M635 0h-122l-57 157h-283l-57 -157h-118l263 700h112zM418 264l-103 287l-104 -287h207zM207 799q-43 39 -48 98h83q3 -27 21.5 -45t53.5 -18q34 0 52.5 17.5t22.5 45.5h83q-5 -59 -48 -98t-110 -39t-110 39z" />
    <glyph glyph-name="uni04D1" unicode="&#x4d1;" horiz-adv-x="515" 
d="M401 461.5q55 -56.5 55 -149.5v-312h-82l-20 57h-5q-21 -27 -57.5 -48t-90.5 -21q-48 0 -87 20.5t-61 55t-22 75.5q0 50 29.5 87.5t83 57.5t122.5 20h81v17q0 45 -25.5 71.5t-68.5 26.5q-38 0 -61 -19.5t-28 -47.5h-110q5 44 29.5 82t68.5 61t102 23q92 0 147 -56.5z
M313 114q34 33 34 79v32h-80q-63 0 -94.5 -20.5t-31.5 -56.5q0 -30 21.5 -48.5t61.5 -18.5q55 0 89 33zM149 612.5q-42 39.5 -47 98.5h80q4 -28 22.5 -46.5t52.5 -18.5q35 0 53 18t22 47h80q-5 -59 -47 -98.5t-108 -39.5t-108 39.5z" />
    <glyph glyph-name="uni04D2" unicode="&#x4d2;" horiz-adv-x="633" 
d="M635 0h-122l-57 157h-283l-57 -157h-118l263 700h112zM418 264l-103 287l-104 -287h207zM179 785q-18 18 -18 43t18 42.5t43 17.5q24 0 42 -17.5t18 -42.5t-18 -43t-42 -18q-25 0 -43 18zM370.5 785q-18.5 18 -18.5 43t18.5 42.5t42.5 17.5q25 0 43 -17.5t18 -42.5
t-18 -43t-43 -18q-24 0 -42.5 18z" />
    <glyph glyph-name="uni04D3" unicode="&#x4d3;" horiz-adv-x="515" 
d="M401 461.5q55 -56.5 55 -149.5v-312h-82l-20 57h-5q-21 -27 -57.5 -48t-90.5 -21q-48 0 -87 20.5t-61 55t-22 75.5q0 50 29.5 87.5t83 57.5t122.5 20h81v17q0 45 -25.5 71.5t-68.5 26.5q-38 0 -61 -19.5t-28 -47.5h-110q5 44 29.5 82t68.5 61t102 23q92 0 147 -56.5z
M313 114q34 33 34 79v32h-80q-63 0 -94.5 -20.5t-31.5 -56.5q0 -30 21.5 -48.5t61.5 -18.5q55 0 89 33zM127 598.5q-18 17.5 -18 42.5q0 26 17.5 43t42.5 17t42.5 -17t17.5 -43q0 -25 -17.5 -42.5t-42.5 -17.5q-24 0 -42 17.5zM303 598.5q-18 17.5 -18 42.5q0 26 17.5 43
t42.5 17t42.5 -17t17.5 -43q0 -25 -17.5 -42.5t-42.5 -17.5q-24 0 -42 17.5z" />
    <glyph glyph-name="uni04D4" unicode="&#x4d4;" horiz-adv-x="902" 
d="M537 305v-195h325v-110h-438v157h-245l-85 -157h-128l389 700h497v-110h-315v-178h277v-107h-277zM414 591l-177 -327h187v327h-10z" />
    <glyph glyph-name="uni04D5" unicode="&#x4d5;" horiz-adv-x="832" 
d="M792 217h-347q8 -61 42 -95.5t84 -34.5q65 0 96 53h114q-22 -64 -76.5 -108t-129.5 -44q-60 0 -106 27.5t-68 69.5q-24 -44 -71.5 -70.5t-120.5 -26.5q-55 0 -95.5 20.5t-61.5 54.5t-21 74q0 74 62.5 117.5t174.5 43.5h79v24q0 45 -25.5 71t-67.5 26q-39 0 -61.5 -19.5
t-28.5 -47.5h-110q5 44 30 82t69 61t104 23q53 0 93.5 -26t59.5 -60q23 37 65 61.5t99 24.5q63 0 114 -32t80.5 -89.5t29.5 -132.5q0 -26 -6 -47zM491 386.5q-34 -32.5 -44 -89.5h245q-8 55 -40 88.5t-81 33.5q-46 0 -80 -32.5zM314 113.5q33 32.5 33 84.5v21h-78
q-63 0 -95.5 -19.5t-32.5 -55.5q0 -28 21.5 -45.5t61.5 -17.5q57 0 90 32.5z" />
    <glyph glyph-name="uni04D6" unicode="&#x4d6;" horiz-adv-x="589" 
d="M193 305v-195h356v-110h-472v700h462v-110h-346v-178h308v-107h-308zM199 799q-43 39 -48 98h83q3 -27 21.5 -45t53.5 -18q34 0 52.5 17.5t22.5 45.5h83q-5 -59 -48 -98t-110 -39t-110 39z" />
    <glyph glyph-name="uni04D7" unicode="&#x4d7;" horiz-adv-x="560" 
d="M520 210h-375q10 -57 48 -90t92 -33q39 0 66 15t43 38h114q-15 -38 -46.5 -73t-77 -57t-98.5 -22q-69 0 -126.5 35t-91 95.5t-33.5 134.5q0 73 34 133.5t91.5 96t124.5 35.5t122 -33.5t87 -91.5t32 -129q0 -32 -6 -54zM194 384.5q-39 -34.5 -49 -91.5h274q-9 56 -46 91
t-88 35q-52 0 -91 -34.5zM175 612.5q-42 39.5 -47 98.5h80q4 -28 22.5 -46.5t52.5 -18.5q35 0 53 18t22 47h80q-5 -59 -47 -98.5t-108 -39.5t-108 39.5z" />
    <glyph glyph-name="uni04D8" unicode="&#x4d8;" horiz-adv-x="741" 
d="M534.5 664q77.5 -48 123.5 -131t46 -183t-46 -183t-123.5 -131t-167.5 -48t-165.5 47t-120 129t-44.5 184q0 19 3 41h545q-8 61 -39 109.5t-78 75.5t-101 27q-65 0 -113 -32t-73 -84h-120q19 62 62.5 114t106.5 82.5t137 30.5q90 0 167.5 -48zM463.5 123.5
q45.5 24.5 77 69t42.5 100.5h-425q4 -53 33 -97.5t75.5 -70.5t100.5 -26q51 0 96.5 24.5z" />
    <glyph glyph-name="uni04D9" unicode="&#x4d9;" horiz-adv-x="560" 
d="M401 483q58 -35 91.5 -95.5t33.5 -134.5q0 -72 -34 -133t-91.5 -96.5t-124.5 -35.5t-122 33.5t-87 92t-32 129.5q0 35 5 53h375q-10 57 -48 90t-92 33q-39 0 -66 -15t-43 -38h-114q15 38 46.5 73t77 57t98.5 22q69 0 127 -35zM366.5 121.5q38.5 34.5 48.5 91.5h-274
q9 -56 46 -91t89 -35t90.5 34.5z" />
    <glyph glyph-name="uni04DA" unicode="&#x4da;" horiz-adv-x="741" 
d="M534.5 664q77.5 -48 123.5 -131t46 -183t-46 -183t-123.5 -131t-167.5 -48t-165.5 47t-120 129t-44.5 184q0 19 3 41h545q-8 61 -39 109.5t-78 75.5t-101 27q-65 0 -113 -32t-73 -84h-120q19 62 62.5 114t106.5 82.5t137 30.5q90 0 167.5 -48zM463.5 123.5
q45.5 24.5 77 69t42.5 100.5h-425q4 -53 33 -97.5t75.5 -70.5t100.5 -26q51 0 96.5 24.5zM230 785q-18 18 -18 43t18 42.5t43 17.5q24 0 42 -17.5t18 -42.5t-18 -43t-42 -18q-25 0 -43 18zM421.5 785q-18.5 18 -18.5 43t18.5 42.5t42.5 17.5q25 0 43 -17.5t18 -42.5t-18 -43
t-43 -18q-24 0 -42.5 18z" />
    <glyph glyph-name="uni04DB" unicode="&#x4db;" horiz-adv-x="560" 
d="M401 483q58 -35 91.5 -95.5t33.5 -134.5q0 -72 -34 -133t-91.5 -96.5t-124.5 -35.5t-122 33.5t-87 92t-32 129.5q0 35 5 53h375q-10 57 -48 90t-92 33q-39 0 -66 -15t-43 -38h-114q15 38 46.5 73t77 57t98.5 22q69 0 127 -35zM366.5 121.5q38.5 34.5 48.5 91.5h-274
q9 -56 46 -91t89 -35t90.5 34.5zM145 598.5q-18 17.5 -18 42.5q0 26 17.5 43t42.5 17t42.5 -17t17.5 -43q0 -25 -17.5 -42.5t-42.5 -17.5q-24 0 -42 17.5zM321 598.5q-18 17.5 -18 42.5q0 26 17.5 43t42.5 17t42.5 -17t17.5 -43q0 -25 -17.5 -42.5t-42.5 -17.5
q-24 0 -42 17.5z" />
    <glyph glyph-name="uni04DC" unicode="&#x4dc;" horiz-adv-x="846" 
d="M587 360l269 -360h-139l-238 327v-327h-113v326l-238 -326h-139l270 360l-250 340h129l228 -316v316h113v-317l229 317h129zM285 785q-18 18 -18 43t18 42.5t43 17.5q24 0 42 -17.5t18 -42.5t-18 -43t-42 -18q-25 0 -43 18zM476.5 785q-18.5 18 -18.5 43t18.5 42.5
t42.5 17.5q25 0 43 -17.5t18 -42.5t-18 -43t-43 -18q-24 0 -42.5 18z" />
    <glyph glyph-name="uni04DD" unicode="&#x4dd;" horiz-adv-x="691" 
d="M505 268l196 -268h-128l-174 245v-245h-107v245l-174 -245h-129l197 268l-175 238h122l159 -225v225h107v-225l159 225h122zM216 598.5q-18 17.5 -18 42.5q0 26 17.5 43t42.5 17t42.5 -17t17.5 -43q0 -25 -17.5 -42.5t-42.5 -17.5q-24 0 -42 17.5zM392 598.5
q-18 17.5 -18 42.5q0 26 17.5 43t42.5 17t42.5 -17t17.5 -43q0 -25 -17.5 -42.5t-42.5 -17.5q-24 0 -42 17.5z" />
    <glyph glyph-name="uni04DE" unicode="&#x4de;" horiz-adv-x="558" 
d="M484.5 304q37.5 -43 37.5 -112q0 -54 -30 -101t-86 -75t-129 -28q-75 0 -130.5 28.5t-87 77.5t-38.5 111h115q8 -47 44 -78.5t93 -31.5q63 0 98 29.5t35 75.5q0 48 -34.5 78t-97.5 30h-62v97h62q53 0 84 27.5t31 71.5q0 45 -31.5 73t-85.5 28q-53 0 -85 -29t-37 -75h-116
q6 58 36.5 106t83 76.5t119.5 28.5q68 0 121 -27.5t82 -73.5t29 -98q0 -54 -32 -92t-74 -56q48 -18 85.5 -61zM136 785q-18 18 -18 43t18 42.5t43 17.5q24 0 42 -17.5t18 -42.5t-18 -43t-42 -18q-25 0 -43 18zM327.5 785q-18.5 18 -18.5 43t18.5 42.5t42.5 17.5
q25 0 43 -17.5t18 -42.5t-18 -43t-43 -18q-24 0 -42.5 18z" />
    <glyph glyph-name="uni04DF" unicode="&#x4df;" horiz-adv-x="457" 
d="M399.5 216.5q23.5 -30.5 23.5 -74.5q0 -41 -23.5 -76t-68 -56.5t-105.5 -21.5q-93 0 -146.5 47t-62.5 121h106q3 -30 28 -51.5t71 -21.5t69.5 18t23.5 49t-23 50t-67 19h-58v81h57q38 0 58.5 16.5t20.5 43.5t-21.5 45.5t-59.5 18.5q-41 0 -63 -19.5t-26 -49.5h-105
q7 71 59 117t140 46q56 0 97.5 -21t64 -56t22.5 -76q0 -39 -20 -64.5t-49 -39.5q34 -14 57.5 -44.5zM95 598.5q-18 17.5 -18 42.5q0 26 17.5 43t42.5 17t42.5 -17t17.5 -43q0 -25 -17.5 -42.5t-42.5 -17.5q-24 0 -42 17.5zM271 598.5q-18 17.5 -18 42.5q0 26 17.5 43
t42.5 17t42.5 -17t17.5 -43q0 -25 -17.5 -42.5t-42.5 -17.5q-24 0 -42 17.5z" />
    <glyph glyph-name="uni04E0" unicode="&#x4e0;" horiz-adv-x="572" 
d="M333 428q55 -4 101.5 -33t74 -77t27.5 -107q0 -62 -32 -112.5t-91 -80.5t-135 -30q-114 0 -183 60t-79 159h115q6 -50 44 -81t103 -31q67 0 104.5 33t37.5 85q0 53 -38.5 86t-103.5 33h-91v84l181 177h-314v107h455v-102z" />
    <glyph glyph-name="uni04E1" unicode="&#x4e1;" horiz-adv-x="496" 
d="M273 230q55 -3 99.5 -31.5t70.5 -75.5t26 -104q0 -61 -28.5 -108.5t-81 -74t-120.5 -26.5q-103 0 -164.5 55.5t-68.5 147.5h110q6 -47 37.5 -74t85.5 -27q53 0 86.5 32t33.5 82q0 52 -34 83.5t-88 31.5h-98v75l178 191h-272v99h402v-93z" />
    <glyph glyph-name="uni04E2" unicode="&#x4e2;" horiz-adv-x="709" 
d="M190 189l335 511h107v-700h-113v511l-335 -511h-107v700h113v-511zM506 786h-290v84h290v-84z" />
    <glyph glyph-name="uni04E3" unicode="&#x4e3;" horiz-adv-x="577" 
d="M170 158l246 348h97v-506h-107v346l-245 -346h-97v506h106v-348zM435 602h-281v80h281v-80z" />
    <glyph glyph-name="uni04E4" unicode="&#x4e4;" horiz-adv-x="709" 
d="M190 189l335 511h107v-700h-113v511l-335 -511h-107v700h113v-511zM223 785q-18 18 -18 43t18 42.5t43 17.5q24 0 42 -17.5t18 -42.5t-18 -43t-42 -18q-25 0 -43 18zM414.5 785q-18.5 18 -18.5 43t18.5 42.5t42.5 17.5q25 0 43 -17.5t18 -42.5t-18 -43t-43 -18
q-24 0 -42.5 18z" />
    <glyph glyph-name="uni04E5" unicode="&#x4e5;" horiz-adv-x="577" 
d="M170 158l246 348h97v-506h-107v346l-245 -346h-97v506h106v-348zM164 598.5q-18 17.5 -18 42.5q0 26 17.5 43t42.5 17t42.5 -17t17.5 -43q0 -25 -17.5 -42.5t-42.5 -17.5q-24 0 -42 17.5zM340 598.5q-18 17.5 -18 42.5q0 26 17.5 43t42.5 17t42.5 -17t17.5 -43
q0 -25 -17.5 -42.5t-42.5 -17.5q-24 0 -42 17.5z" />
    <glyph glyph-name="uni04E6" unicode="&#x4e6;" horiz-adv-x="748" 
d="M206.5 36q-77.5 48 -123.5 131t-46 183t46 183t123.5 131t167.5 48t167.5 -48t123.5 -131t46 -183t-46 -183t-123.5 -131t-167.5 -48t-167.5 48zM483.5 131.5q50.5 32.5 81 89.5t30.5 129t-30.5 129t-81 89.5t-109.5 32.5t-109.5 -32.5t-81 -89.5t-30.5 -129t30.5 -129
t81 -89.5t109.5 -32.5t109.5 32.5zM235 785q-18 18 -18 43t18 42.5t43 17.5q24 0 42 -17.5t18 -42.5t-18 -43t-42 -18q-25 0 -43 18zM426.5 785q-18.5 18 -18.5 43t18.5 42.5t42.5 17.5q25 0 43 -17.5t18 -42.5t-18 -43t-43 -18q-24 0 -42.5 18z" />
    <glyph glyph-name="uni04E7" unicode="&#x4e7;" horiz-adv-x="572" 
d="M160.5 23.5q-57.5 35.5 -91.5 96.5t-34 133q0 73 34 133.5t91.5 96t125.5 35.5t125.5 -35.5t91.5 -96t34 -133.5q0 -72 -34 -133t-91.5 -96.5t-125.5 -35.5t-125.5 35.5zM357.5 111q32.5 21 51.5 58t19 84t-19 84t-51.5 58t-71.5 21t-71.5 -21t-51.5 -58t-19 -84t19 -84
t51.5 -58t71.5 -21t71.5 21zM156 598.5q-18 17.5 -18 42.5q0 26 17.5 43t42.5 17t42.5 -17t17.5 -43q0 -25 -17.5 -42.5t-42.5 -17.5q-24 0 -42 17.5zM332 598.5q-18 17.5 -18 42.5q0 26 17.5 43t42.5 17t42.5 -17t17.5 -43q0 -25 -17.5 -42.5t-42.5 -17.5q-24 0 -42 17.5z
" />
    <glyph glyph-name="uni04E8" unicode="&#x4e8;" horiz-adv-x="748" 
d="M541.5 664q77.5 -48 123.5 -131t46 -183t-46 -183t-123.5 -131t-167.5 -48t-167.5 48t-123.5 131t-46 183t46 183t123.5 131t167.5 48t167.5 -48zM274.5 578.5q-46.5 -25.5 -78.5 -72.5t-42 -107h440q-10 60 -42 107t-78.5 72.5t-99.5 25.5t-99.5 -25.5zM473.5 121.5
q46.5 25.5 78.5 72t42 106.5h-440q10 -60 42 -106.5t78.5 -72t99.5 -25.5t99.5 25.5z" />
    <glyph glyph-name="uni04E9" unicode="&#x4e9;" horiz-adv-x="572" 
d="M411.5 482.5q57.5 -35.5 91.5 -96t34 -133.5q0 -72 -34 -133t-91.5 -96.5t-125.5 -35.5t-125.5 35.5t-91.5 96.5t-34 133q0 73 34 133.5t91.5 96t125.5 35.5t125.5 -35.5zM193 386q-39 -35 -49 -93h284q-10 58 -49 93t-93 35t-93 -35zM379 120.5q39 34.5 49 92.5h-284
q10 -58 49 -92.5t93 -34.5t93 34.5z" />
    <glyph glyph-name="uni04EA" unicode="&#x4ea;" horiz-adv-x="748" 
d="M541.5 664q77.5 -48 123.5 -131t46 -183t-46 -183t-123.5 -131t-167.5 -48t-167.5 48t-123.5 131t-46 183t46 183t123.5 131t167.5 48t167.5 -48zM274.5 578.5q-46.5 -25.5 -78.5 -72.5t-42 -107h440q-10 60 -42 107t-78.5 72.5t-99.5 25.5t-99.5 -25.5zM473.5 121.5
q46.5 25.5 78.5 72t42 106.5h-440q10 -60 42 -106.5t78.5 -72t99.5 -25.5t99.5 25.5zM235 785q-18 18 -18 43t18 42.5t43 17.5q24 0 42 -17.5t18 -42.5t-18 -43t-42 -18q-25 0 -43 18zM426.5 785q-18.5 18 -18.5 43t18.5 42.5t42.5 17.5q25 0 43 -17.5t18 -42.5t-18 -43
t-43 -18q-24 0 -42.5 18z" />
    <glyph glyph-name="uni04EB" unicode="&#x4eb;" horiz-adv-x="572" 
d="M411.5 482.5q57.5 -35.5 91.5 -96t34 -133.5q0 -72 -34 -133t-91.5 -96.5t-125.5 -35.5t-125.5 35.5t-91.5 96.5t-34 133q0 73 34 133.5t91.5 96t125.5 35.5t125.5 -35.5zM193 386q-39 -35 -49 -93h284q-10 58 -49 93t-93 35t-93 -35zM379 120.5q39 34.5 49 92.5h-284
q10 -58 49 -92.5t93 -34.5t93 34.5zM156 598.5q-18 17.5 -18 42.5q0 26 17.5 43t42.5 17t42.5 -17t17.5 -43q0 -25 -17.5 -42.5t-42.5 -17.5q-24 0 -42 17.5zM332 598.5q-18 17.5 -18 42.5q0 26 17.5 43t42.5 17t42.5 -17t17.5 -43q0 -25 -17.5 -42.5t-42.5 -17.5
q-24 0 -42 17.5z" />
    <glyph glyph-name="uni04EC" unicode="&#x4ec;" horiz-adv-x="705" 
d="M499 664q77 -48 123 -131t46 -183t-46 -183t-123 -131t-166 -48q-80 0 -144.5 34t-106.5 88.5t-58 116.5h120q20 -51 70 -89.5t119 -38.5q51 0 96.5 25.5t77 71t41.5 103.5h-262v103h262q-10 58 -41.5 103.5t-77 70.5t-96.5 25q-68 0 -116.5 -38.5t-68.5 -89.5h-120
q16 61 58 116t106 89t141 34q89 0 166 -48zM195 785q-18 18 -18 43t18 42.5t43 17.5q24 0 42 -17.5t18 -42.5t-18 -43t-42 -18q-25 0 -43 18zM386.5 785q-18.5 18 -18.5 43t18.5 42.5t42.5 17.5q25 0 43 -17.5t18 -42.5t-18 -43t-43 -18q-24 0 -42.5 18z" />
    <glyph glyph-name="uni04ED" unicode="&#x4ed;" horiz-adv-x="541" 
d="M380.5 482.5q57.5 -35.5 92 -96t34.5 -133.5q0 -72 -34.5 -133t-92 -96.5t-125.5 -35.5q-60 0 -109.5 27.5t-81.5 71.5t-43 93h110q10 -38 42 -65.5t82 -27.5q51 0 89.5 34.5t48.5 91.5h-164v80h164q-10 57 -48.5 91.5t-89.5 34.5q-49 0 -81 -28.5t-43 -64.5h-110
q11 49 43 93t81.5 71.5t109.5 27.5q68 0 125.5 -35.5zM126 598.5q-18 17.5 -18 42.5q0 26 17.5 43t42.5 17t42.5 -17t17.5 -43q0 -25 -17.5 -42.5t-42.5 -17.5q-24 0 -42 17.5zM302 598.5q-18 17.5 -18 42.5q0 26 17.5 43t42.5 17t42.5 -17t17.5 -43q0 -25 -17.5 -42.5
t-42.5 -17.5q-24 0 -42 17.5z" />
    <glyph glyph-name="uni04EE" unicode="&#x4ee;" horiz-adv-x="580" 
d="M466 700h118l-243 -541q-42 -92 -84 -131.5t-108 -39.5q-19 0 -36 3.5t-26 7.5v103q18 -7 43 -7q35 0 58.5 20t40.5 56l13 29l-235 500h125l169 -380zM444 786h-290v84h290v-84z" />
    <glyph glyph-name="uni04EF" unicode="&#x4ef;" horiz-adv-x="502" 
d="M386 506h113l-210 -534q-35 -87 -72.5 -122t-87.5 -35q-30 0 -54 10v100q14 -7 34 -7q29 0 48.5 14.5t32.5 48.5l12 32l-199 493h118l135 -359zM394 602h-281v80h281v-80z" />
    <glyph glyph-name="uni04F0" unicode="&#x4f0;" horiz-adv-x="580" 
d="M466 700h118l-243 -541q-42 -92 -84 -131.5t-108 -39.5q-19 0 -36 3.5t-26 7.5v103q18 -7 43 -7q35 0 58.5 20t40.5 56l13 29l-235 500h125l169 -380zM161 785q-18 18 -18 43t18 42.5t43 17.5q24 0 42 -17.5t18 -42.5t-18 -43t-42 -18q-25 0 -43 18zM352.5 785
q-18.5 18 -18.5 43t18.5 42.5t42.5 17.5q25 0 43 -17.5t18 -42.5t-18 -43t-43 -18q-24 0 -42.5 18z" />
    <glyph glyph-name="uni04F1" unicode="&#x4f1;" horiz-adv-x="502" 
d="M386 506h113l-210 -534q-35 -87 -72.5 -122t-87.5 -35q-30 0 -54 10v100q14 -7 34 -7q29 0 48.5 14.5t32.5 48.5l12 32l-199 493h118l135 -359zM124 598.5q-18 17.5 -18 42.5q0 26 17.5 43t42.5 17t42.5 -17t17.5 -43q0 -25 -17.5 -42.5t-42.5 -17.5q-24 0 -42 17.5z
M300 598.5q-18 17.5 -18 42.5q0 26 17.5 43t42.5 17t42.5 -17t17.5 -43q0 -25 -17.5 -42.5t-42.5 -17.5q-24 0 -42 17.5z" />
    <glyph glyph-name="uni04F2" unicode="&#x4f2;" horiz-adv-x="580" 
d="M466 700h118l-243 -541q-42 -92 -84 -131.5t-108 -39.5q-19 0 -36 3.5t-26 7.5v103q18 -7 43 -7q35 0 58.5 20t40.5 56l13 29l-235 500h125l169 -380zM261 755h-79l86 147h110zM418 755h-80l86 147h111z" />
    <glyph glyph-name="uni04F3" unicode="&#x4f3;" horiz-adv-x="502" 
d="M386 506h113l-210 -534q-35 -87 -72.5 -122t-87.5 -35q-30 0 -54 10v100q14 -7 34 -7q29 0 48.5 14.5t32.5 48.5l12 32l-199 493h118l135 -359zM215 566h-77l80 152h108zM372 566h-79l80 152h109z" />
    <glyph glyph-name="uni04F4" unicode="&#x4f4;" horiz-adv-x="656" 
d="M463 700h116v-700h-116v250q-32 -19 -75 -32t-91 -13q-107 0 -171 64.5t-64 176.5v254h116v-243q0 -69 35.5 -105t100.5 -36q45 0 83 12.5t66 31.5v340zM182 785q-18 18 -18 43t18 42.5t43 17.5q24 0 42 -17.5t18 -42.5t-18 -43t-42 -18q-25 0 -43 18zM373.5 785
q-18.5 18 -18.5 43t18.5 42.5t42.5 17.5q25 0 43 -17.5t18 -42.5t-18 -43t-43 -18q-24 0 -42.5 18z" />
    <glyph glyph-name="uni04F5" unicode="&#x4f5;" horiz-adv-x="535" 
d="M362 506h109v-506h-109v177q-23 -13 -57 -23.5t-73 -10.5q-53 0 -95.5 23.5t-66.5 66.5t-24 100v173h110v-164q0 -47 26.5 -72t74.5 -25q56 0 105 35v226zM129 598.5q-18 17.5 -18 42.5q0 26 17.5 43t42.5 17t42.5 -17t17.5 -43q0 -25 -17.5 -42.5t-42.5 -17.5
q-24 0 -42 17.5zM305 598.5q-18 17.5 -18 42.5q0 26 17.5 43t42.5 17t42.5 -17t17.5 -43q0 -25 -17.5 -42.5t-42.5 -17.5q-24 0 -42 17.5z" />
    <glyph glyph-name="uni04F6" unicode="&#x4f6;" horiz-adv-x="515" 
d="M282 -150h-116v150h-89v700h427v-111h-311v-478h89v-261z" />
    <glyph glyph-name="uni04F7" unicode="&#x4f7;" horiz-adv-x="417" 
d="M252 -128h-106v128h-82v506h343v-102h-233v-302h78v-230z" />
    <glyph glyph-name="uni04F8" unicode="&#x4f8;" horiz-adv-x="825" 
d="M318 456q67 0 120.5 -30t84.5 -82t31 -116t-31 -116t-84.5 -82t-120.5 -30h-241v700h116v-244h125zM632 0v700h116v-700h-116zM316 111q53 0 87.5 33t34.5 84t-34.5 84t-87.5 33h-123v-234h123zM274 785q-18 18 -18 43t18 42.5t43 17.5q24 0 42 -17.5t18 -42.5t-18 -43
t-42 -18q-25 0 -43 18zM465.5 785q-18.5 18 -18.5 43t18.5 42.5t42.5 17.5q25 0 43 -17.5t18 -42.5t-18 -43t-43 -18q-24 0 -42.5 18z" />
    <glyph glyph-name="uni04F9" unicode="&#x4f9;" horiz-adv-x="685" 
d="M278 341q52 0 92.5 -22t63 -60.5t22.5 -87.5q0 -76 -49.5 -123.5t-128.5 -47.5h-214v506h110v-165h104zM511 0v506h110v-506h-110zM263 94q39 0 61 20.5t22 56.5q0 35 -22 55.5t-61 20.5h-89v-153h89zM212 598.5q-18 17.5 -18 42.5q0 26 17.5 43t42.5 17t42.5 -17
t17.5 -43q0 -25 -17.5 -42.5t-42.5 -17.5q-24 0 -42 17.5zM388 598.5q-18 17.5 -18 42.5q0 26 17.5 43t42.5 17t42.5 -17t17.5 -43q0 -25 -17.5 -42.5t-42.5 -17.5q-24 0 -42 17.5z" />
    <glyph glyph-name="uni04FA" unicode="&#x4fa;" horiz-adv-x="554" 
d="M535 589h-312v-208h224v-108h-224v-170h118v-127q0 -88 -45.5 -136t-123.5 -48q-38 0 -65 11v102q24 -8 46 -8q34 0 53 20t19 59v24h-118v273h-91v108h91v319h428v-111z" />
    <glyph glyph-name="uni04FB" unicode="&#x4fb;" horiz-adv-x="441" 
d="M426 404h-233v-144h168v-89h-168v-86h97v-109q0 -48 -19.5 -84.5t-52.5 -56.5t-73 -20q-20 0 -36.5 3.5t-25.5 7.5v93q17 -5 34 -5q28 0 45.5 17t17.5 46v23h-97v171h-77v89h77v246h343v-102z" />
    <glyph glyph-name="uni04FC" unicode="&#x4fc;" horiz-adv-x="609" 
d="M536 100q29 -46 43.5 -81.5t14.5 -71.5q0 -69 -44 -112t-118 -43q-33 0 -62 11v103q22 -9 43 -9q33 0 49 15t16 41q0 19 -8.5 38t-29.5 53l-137 221l-165 -265h-129l227 355l-216 345h133l153 -255l153 255h130l-217 -345z" />
    <glyph glyph-name="uni04FD" unicode="&#x4fd;" horiz-adv-x="488" 
d="M437 72q23 -35 33.5 -64.5t10.5 -61.5q0 -57 -39.5 -94t-99.5 -37q-20 0 -36.5 3.5t-24.5 7.5v93q15 -5 33 -5q57 0 57 42q0 14 -7.5 30.5t-24.5 42.5l-97 153l-116 -182h-122l172 258l-161 248h125l106 -170l106 170h120l-160 -248z" />
    <glyph glyph-name="uni04FE" unicode="&#x4fe;" horiz-adv-x="609" 
d="M403 306l197 -306h-134l-163 265l-165 -265h-129l196 306h-138v99h138l-185 295h133l153 -255l153 255h130l-186 -295h138v-99h-138z" />
    <glyph glyph-name="uni04FF" unicode="&#x4ff;" horiz-adv-x="488" 
d="M338 219l146 -219h-126l-116 182l-116 -182h-122l146 219h-103v79h103l-135 208h125l106 -170l106 170h120l-134 -208h102v-79h-102z" />
    <glyph glyph-name="uni0510" unicode="&#x510;" horiz-adv-x="558" 
d="M536 205q-6 -62 -38 -111t-87.5 -77.5t-130.5 -28.5q-73 0 -128.5 28t-85.5 75t-30 101q0 69 37.5 112t85.5 61q-42 18 -74 56t-32 92q0 52 29 98t82 73.5t121 27.5q66 0 118.5 -28.5t83.5 -76.5t36 -106h-115q-5 46 -37.5 75t-84.5 29q-54 0 -85.5 -28t-31.5 -73
q0 -44 31 -71.5t83 -27.5h63v-97h-63q-61 0 -95.5 -30t-34.5 -78q0 -46 35 -75.5t97 -29.5q57 0 92.5 31.5t43.5 78.5h115z" />
    <glyph glyph-name="uni0511" unicode="&#x511;" horiz-adv-x="456" 
d="M439 156q-9 -75 -62 -121.5t-146 -46.5q-61 0 -105.5 21.5t-67.5 56.5t-23 76q0 45 23 75.5t57 43.5q-28 14 -48 39.5t-20 64.5q0 41 22 76t63.5 56t97.5 21q88 0 139.5 -46t59.5 -117h-105q-5 30 -27 49.5t-62 19.5q-38 0 -59.5 -18.5t-21.5 -45.5t20.5 -43.5
t58.5 -16.5h56v-81h-57q-44 0 -67 -19t-23 -50t23.5 -49t69.5 -18t70.5 21.5t27.5 51.5h106z" />
    <glyph glyph-name="uni0512" unicode="&#x512;" horiz-adv-x="692" 
d="M369 -197v103q22 -9 45 -9q43 0 64 21.5t21 68.5v602h-233l-31 -382q-8 -106 -59 -162.5t-131 -56.5q-32 0 -52 6v108h18q49 0 78 30.5t33 91.5l38 476h455v-716q0 -94 -47.5 -143t-133.5 -49q-40 0 -65 11z" />
    <glyph glyph-name="uni0513" unicode="&#x513;" horiz-adv-x="548" 
d="M292 -181.5q-17 3.5 -25 7.5v93q15 -5 33 -5q36 0 55.5 19.5t19.5 55.5v415h-156l-20 -237q-7 -89 -48.5 -134t-111.5 -45q-23 0 -41 6v98h18q36 0 55 22.5t23 73.5l27 318h364v-519q0 -79 -44 -125.5t-112 -46.5q-20 0 -37 3.5z" />
    <glyph glyph-name="uni051A" unicode="&#x51a;" horiz-adv-x="748" 
d="M691 226q-20 -59 -57 -106l67 -65l-70 -73l-69 68q-87 -62 -188 -62q-90 0 -167.5 48t-123.5 131t-46 183t46 183t123.5 131t167.5 48t167.5 -48t123.5 -131t46 -183q0 -65 -20 -124zM483 127l-94 92l70 73l96 -94q43 65 43 152q0 73 -30.5 131t-82 90.5t-111.5 32.5
t-111.5 -32.5t-82 -90.5t-30.5 -131t30.5 -131t82 -90.5t111.5 -32.5q58 0 109 31z" />
    <glyph glyph-name="uni051B" unicode="&#x51b;" horiz-adv-x="590" 
d="M416 -180v233h-5q-7 -11 -27 -26.5t-50.5 -27t-65.5 -11.5q-62 0 -115.5 34.5t-85.5 95t-32 135.5t32 135.5t85.5 95t115.5 34.5q53 0 93.5 -23t57.5 -45h5l20 56h82v-686h-110zM348 110.5q31 20.5 49.5 58t18.5 84.5t-18.5 84.5t-49.5 58t-68 20.5t-68 -20.5t-49.5 -58
t-18.5 -84.5t18.5 -84.5t49.5 -58t68 -20.5t68 20.5z" />
    <glyph glyph-name="uni051C" unicode="&#x51c;" horiz-adv-x="906" 
d="M639 209l144 491h116l-217 -700h-92l-137 473l-137 -473h-93l-215 700h119l144 -491l140 491h86z" />
    <glyph glyph-name="uni051D" unicode="&#x51d;" horiz-adv-x="725" 
d="M508 162l106 344h109l-167 -506h-91l-103 321l-101 -321h-91l-167 506h113l105 -342l109 342h69z" />
    <glyph glyph-name="uni0524" unicode="&#x524;" horiz-adv-x="730" 
d="M712 -150h-116v150h-89v589h-314v-589h-116v700h546v-589h89v-261z" />
    <glyph glyph-name="uni0525" unicode="&#x525;" horiz-adv-x="597" 
d="M581 -128h-107v128h-82v404h-218v-404h-110v506h438v-404h79v-230z" />
    <glyph glyph-name="uni0526" unicode="&#x526;" horiz-adv-x="701" 
d="M594 111h89v-261h-116v150h-89v243q0 69 -35.5 105t-100.5 36q-45 0 -83.5 -13t-65.5 -31v-340h-116v700h116v-250q32 19 74.5 32t90.5 13q108 0 172 -64.5t64 -176.5v-143z" />
    <glyph glyph-name="uni0527" unicode="&#x527;" horiz-adv-x="616" 
d="M494 -128v128h-82v289q0 56 -32.5 91.5t-83.5 35.5q-52 0 -84.5 -35.5t-32.5 -91.5v-289h-110v700h110v-250h5q16 23 54 45.5t87 22.5q56 0 100.5 -27.5t70 -77.5t25.5 -116v-195h79v-230h-106z" />
    <glyph glyph-name="uni0528" unicode="&#x528;" horiz-adv-x="700" 
d="M507 700h116v-700h-116v302h-314v-318q0 -94 -47.5 -143t-133.5 -49q-40 0 -65 11v103q22 -9 45 -9q43 0 64 21.5t21 68.5v713h116v-287h314v287z" />
    <glyph glyph-name="uni0529" unicode="&#x529;" horiz-adv-x="573" 
d="M399 506h110v-506h-110v202h-225v-215q0 -79 -44 -125.5t-112 -46.5q-20 0 -37 3.5t-25 7.5v93q15 -5 33 -5q36 0 55.5 19.5t19.5 55.5v517h110v-202h225v202z" />
    <glyph glyph-name="uni052E" unicode="&#x52e;" horiz-adv-x="721" 
d="M588 -150v150h-89v589h-233l-31 -382q-8 -106 -59 -162.5t-131 -56.5q-32 0 -52 6v108h18q49 0 78 30.5t33 91.5l38 476h455v-589h89v-261h-116z" />
    <glyph glyph-name="uni052F" unicode="&#x52f;" horiz-adv-x="580" 
d="M457 -128v128h-82v404h-156l-20 -237q-7 -89 -48.5 -134t-111.5 -45q-23 0 -41 6v98h18q36 0 55 22.5t23 73.5l27 318h364v-404h79v-230h-107z" />
    <glyph glyph-name="Wgrave" unicode="&#x1e80;" horiz-adv-x="906" 
d="M639 209l144 491h116l-217 -700h-92l-137 473l-137 -473h-93l-215 700h119l144 -491l140 491h86zM512 755h-87l-109 147h118z" />
    <glyph glyph-name="wgrave" unicode="&#x1e81;" horiz-adv-x="725" 
d="M508 162l106 344h109l-167 -506h-91l-103 321l-101 -321h-91l-167 506h113l105 -342l109 342h69zM418 566h-84l-103 152h115z" />
    <glyph glyph-name="Wacute" unicode="&#x1e82;" horiz-adv-x="906" 
d="M639 209l144 491h116l-217 -700h-92l-137 473l-137 -473h-93l-215 700h119l144 -491l140 491h86zM484 755h-87l78 147h118z" />
    <glyph glyph-name="wacute" unicode="&#x1e83;" horiz-adv-x="725" 
d="M508 162l106 344h109l-167 -506h-91l-103 321l-101 -321h-91l-167 506h113l105 -342l109 342h69zM394 566h-84l72 152h114z" />
    <glyph glyph-name="Wdieresis" unicode="&#x1e84;" horiz-adv-x="906" 
d="M639 209l144 491h116l-217 -700h-92l-137 473l-137 -473h-93l-215 700h119l144 -491l140 491h86zM316 785q-18 18 -18 43t18 42.5t43 17.5q24 0 42 -17.5t18 -42.5t-18 -43t-42 -18q-25 0 -43 18zM507.5 785q-18.5 18 -18.5 43t18.5 42.5t42.5 17.5q25 0 43 -17.5
t18 -42.5t-18 -43t-43 -18q-24 0 -42.5 18z" />
    <glyph glyph-name="wdieresis" unicode="&#x1e85;" horiz-adv-x="725" 
d="M508 162l106 344h109l-167 -506h-91l-103 321l-101 -321h-91l-167 506h113l105 -342l109 342h69zM234 598.5q-18 17.5 -18 42.5q0 26 17.5 43t42.5 17t42.5 -17t17.5 -43q0 -25 -17.5 -42.5t-42.5 -17.5q-24 0 -42 17.5zM410 598.5q-18 17.5 -18 42.5q0 26 17.5 43
t42.5 17t42.5 -17t17.5 -43q0 -25 -17.5 -42.5t-42.5 -17.5q-24 0 -42 17.5z" />
    <glyph glyph-name="uni1E9E" unicode="&#x1e9e;" horiz-adv-x="674" 
d="M440 403q51 0 96.5 -24.5t73.5 -70t28 -103.5q0 -59 -27.5 -106t-77 -73t-112.5 -26h-112v111h109q45 0 74.5 27.5t29.5 71.5t-29.5 72t-74.5 28h-102v93l144 190h-166q-45 0 -75.5 -31t-30.5 -78v-484h-116v483q0 64 28 113t78.5 76.5t115.5 27.5h293v-95l-157 -202h10z
" />
    <glyph glyph-name="uni1EA0" unicode="&#x1ea0;" horiz-adv-x="633" 
d="M635 0h-122l-57 157h-283l-57 -157h-118l263 700h112zM418 264l-103 287l-104 -287h207zM272 -181.5q-19 18.5 -19 46.5q0 27 19 45.5t46 18.5t45.5 -18t18.5 -46t-18.5 -46.5t-45.5 -18.5t-46 18.5z" />
    <glyph glyph-name="uni1EA1" unicode="&#x1ea1;" horiz-adv-x="515" 
d="M401 461.5q55 -56.5 55 -149.5v-312h-82l-20 57h-5q-21 -27 -57.5 -48t-90.5 -21q-48 0 -87 20.5t-61 55t-22 75.5q0 50 29.5 87.5t83 57.5t122.5 20h81v17q0 45 -25.5 71.5t-68.5 26.5q-38 0 -61 -19.5t-28 -47.5h-110q5 44 29.5 82t68.5 61t102 23q92 0 147 -56.5z
M313 114q34 33 34 79v32h-80q-63 0 -94.5 -20.5t-31.5 -56.5q0 -30 21.5 -48.5t61.5 -18.5q55 0 89 33zM215 -181.5q-19 18.5 -19 46.5q0 27 19 45.5t46 18.5t45.5 -18t18.5 -46t-18.5 -46.5t-45.5 -18.5t-46 18.5z" />
    <glyph glyph-name="uni1EA2" unicode="&#x1ea2;" horiz-adv-x="633" 
d="M635 0h-122l-57 157h-283l-57 -157h-118l263 700h112zM418 264l-103 287l-104 -287h207zM292 751q20 30 20 58q0 22 -14.5 35.5t-38.5 13.5q-10 0 -30 -4v67q25 9 54 9q49 0 79 -26.5t30 -68.5q0 -23 -9.5 -45.5t-23.5 -38.5h-67z" />
    <glyph glyph-name="uni1EA3" unicode="&#x1ea3;" horiz-adv-x="515" 
d="M401 461.5q55 -56.5 55 -149.5v-312h-82l-20 57h-5q-21 -27 -57.5 -48t-90.5 -21q-48 0 -87 20.5t-61 55t-22 75.5q0 50 29.5 87.5t83 57.5t122.5 20h81v17q0 45 -25.5 71.5t-68.5 26.5q-38 0 -61 -19.5t-28 -47.5h-110q5 44 29.5 82t68.5 61t102 23q92 0 147 -56.5z
M313 114q34 33 34 79v32h-80q-63 0 -94.5 -20.5t-31.5 -56.5q0 -30 21.5 -48.5t61.5 -18.5q55 0 89 33zM225 563q21 29 21 60q0 26 -14 40t-39 14q-9 0 -29 -4v65q26 8 52 8q50 0 78.5 -26.5t28.5 -69.5q0 -48 -31 -87h-67z" />
    <glyph glyph-name="uni1EA4" unicode="&#x1ea4;" horiz-adv-x="633" 
d="M635 0h-122l-57 157h-283l-57 -157h-118l263 700h112zM418 264l-103 287l-104 -287h207zM442 830l65 129h107l-92 -129h-80zM155 747l116 147h94l116 -147h-99l-65 84l-65 -84h-97z" />
    <glyph glyph-name="uni1EA5" unicode="&#x1ea5;" horiz-adv-x="515" 
d="M401 461.5q55 -56.5 55 -149.5v-312h-82l-20 57h-5q-21 -27 -57.5 -48t-90.5 -21q-48 0 -87 20.5t-61 55t-22 75.5q0 50 29.5 87.5t83 57.5t122.5 20h81v17q0 45 -25.5 71.5t-68.5 26.5q-38 0 -61 -19.5t-28 -47.5h-110q5 44 29.5 82t68.5 61t102 23q92 0 147 -56.5z
M313 114q34 33 34 79v32h-80q-63 0 -94.5 -20.5t-31.5 -56.5q0 -30 21.5 -48.5t61.5 -18.5q55 0 89 33zM380 635l65 139h108l-94 -139h-79zM101 553l110 152h93l110 -152h-97l-61 89l-61 -89h-94z" />
    <glyph glyph-name="uni1EA6" unicode="&#x1ea6;" horiz-adv-x="633" 
d="M635 0h-122l-57 157h-283l-57 -157h-118l263 700h112zM418 264l-103 287l-104 -287h207zM486 959l65 -129h-80l-92 129h107zM155 747l116 147h94l116 -147h-99l-65 84l-65 -84h-97z" />
    <glyph glyph-name="uni1EA7" unicode="&#x1ea7;" horiz-adv-x="515" 
d="M401 461.5q55 -56.5 55 -149.5v-312h-82l-20 57h-5q-21 -27 -57.5 -48t-90.5 -21q-48 0 -87 20.5t-61 55t-22 75.5q0 50 29.5 87.5t83 57.5t122.5 20h81v17q0 45 -25.5 71.5t-68.5 26.5q-38 0 -61 -19.5t-28 -47.5h-110q5 44 29.5 82t68.5 61t102 23q92 0 147 -56.5z
M313 114q34 33 34 79v32h-80q-63 0 -94.5 -20.5t-31.5 -56.5q0 -30 21.5 -48.5t61.5 -18.5q55 0 89 33zM418 774l66 -139h-79l-95 139h108zM101 553l110 152h93l110 -152h-97l-61 89l-61 -89h-94z" />
    <glyph glyph-name="uni1EA8" unicode="&#x1ea8;" horiz-adv-x="633" 
d="M635 0h-122l-57 157h-283l-57 -157h-118l263 700h112zM418 264l-103 287l-104 -287h207zM524 967q26 -23 26 -59q0 -22 -9 -42.5t-24 -35.5h-68q21 25 21 51q0 18 -11 29t-32 11q-10 0 -30 -4v65q28 8 55 8q46 0 72 -23zM155 747l116 147h94l116 -147h-99l-65 84l-65 -84
h-97z" />
    <glyph glyph-name="uni1EA9" unicode="&#x1ea9;" horiz-adv-x="515" 
d="M401 461.5q55 -56.5 55 -149.5v-312h-82l-20 57h-5q-21 -27 -57.5 -48t-90.5 -21q-48 0 -87 20.5t-61 55t-22 75.5q0 50 29.5 87.5t83 57.5t122.5 20h81v17q0 45 -25.5 71.5t-68.5 26.5q-38 0 -61 -19.5t-28 -47.5h-110q5 44 29.5 82t68.5 61t102 23q92 0 147 -56.5z
M313 114q34 33 34 79v32h-80q-63 0 -94.5 -20.5t-31.5 -56.5q0 -30 21.5 -48.5t61.5 -18.5q55 0 89 33zM450 779.5q27 -24.5 27 -62.5q0 -21 -8 -41.5t-20 -36.5h-67q18 26 18 52q0 20 -12.5 32.5t-31.5 12.5q-9 0 -29 -4v64q24 8 51 8q45 0 72 -24.5zM101 553l110 152h93
l110 -152h-97l-61 89l-61 -89h-94z" />
    <glyph glyph-name="uni1EAA" unicode="&#x1eaa;" horiz-adv-x="633" 
d="M635 0h-122l-57 157h-283l-57 -157h-118l263 700h112zM418 264l-103 287l-104 -287h207zM242.5 948.5q-10.5 -12.5 -10.5 -34.5h-71q0 57 27 88.5t67 31.5q25 0 41 -8.5t34 -24.5q12 -10 19 -14.5t16 -4.5q15 0 25 12.5t10 34.5h72q0 -57 -27 -88.5t-67 -31.5
q-25 0 -41 8.5t-34 24.5q-12 10 -19 14.5t-16 4.5q-15 0 -25.5 -12.5zM364 894l116 -147h-99l-65 84l-65 -84h-97l116 147h94z" />
    <glyph glyph-name="uni1EAB" unicode="&#x1eab;" horiz-adv-x="515" 
d="M401 461.5q55 -56.5 55 -149.5v-312h-82l-20 57h-5q-21 -27 -57.5 -48t-90.5 -21q-48 0 -87 20.5t-61 55t-22 75.5q0 50 29.5 87.5t83 57.5t122.5 20h81v17q0 45 -25.5 71.5t-68.5 26.5q-38 0 -61 -19.5t-28 -47.5h-110q5 44 29.5 82t68.5 61t102 23q92 0 147 -56.5z
M313 114q34 33 34 79v32h-80q-63 0 -94.5 -20.5t-31.5 -56.5q0 -30 21.5 -48.5t61.5 -18.5q55 0 89 33zM179.5 761.5q-10.5 -12.5 -10.5 -34.5h-71q0 55 27.5 87.5t66.5 32.5q25 0 41 -8.5t33 -23.5q11 -10 19 -15t18 -5q14 0 24.5 12.5t10.5 34.5h71q0 -56 -27.5 -88
t-66.5 -32q-25 0 -41 8.5t-33 23.5q-11 10 -19 15t-18 5q-14 0 -24.5 -12.5zM303 705l110 -152h-97l-60 89l-61 -89h-95l110 152h93z" />
    <glyph glyph-name="uni1EAC" unicode="&#x1eac;" horiz-adv-x="633" 
d="M635 0h-122l-57 157h-283l-57 -157h-118l263 700h112zM418 264l-103 287l-104 -287h207zM272 -181.5q-19 18.5 -19 46.5q0 27 19 45.5t46 18.5t45.5 -18t18.5 -46t-18.5 -46.5t-45.5 -18.5t-46 18.5zM365 902l116 -147h-99l-65 84l-65 -84h-97l116 147h94z" />
    <glyph glyph-name="uni1EAD" unicode="&#x1ead;" horiz-adv-x="515" 
d="M401 461.5q55 -56.5 55 -149.5v-312h-82l-20 57h-5q-21 -27 -57.5 -48t-90.5 -21q-48 0 -87 20.5t-61 55t-22 75.5q0 50 29.5 87.5t83 57.5t122.5 20h81v17q0 45 -25.5 71.5t-68.5 26.5q-38 0 -61 -19.5t-28 -47.5h-110q5 44 29.5 82t68.5 61t102 23q92 0 147 -56.5z
M313 114q34 33 34 79v32h-80q-63 0 -94.5 -20.5t-31.5 -56.5q0 -30 21.5 -48.5t61.5 -18.5q55 0 89 33zM215 -181.5q-19 18.5 -19 46.5q0 27 19 45.5t46 18.5t45.5 -18t18.5 -46t-18.5 -46.5t-45.5 -18.5t-46 18.5zM304 718l110 -152h-97l-61 89l-61 -89h-94l110 152h93z
" />
    <glyph glyph-name="uni1EAE" unicode="&#x1eae;" horiz-adv-x="633" 
d="M635 0h-122l-57 157h-283l-57 -157h-118l263 700h112zM418 264l-103 287l-104 -287h207zM356 889h-81l66 129h107zM210 786q-42 39 -47 98h83q3 -27 21 -45.5t50 -18.5t49.5 18t21.5 46h83q-5 -59 -47.5 -98t-106.5 -39q-65 0 -107 39z" />
    <glyph glyph-name="uni1EAF" unicode="&#x1eaf;" horiz-adv-x="515" 
d="M401 461.5q55 -56.5 55 -149.5v-312h-82l-20 57h-5q-21 -27 -57.5 -48t-90.5 -21q-48 0 -87 20.5t-61 55t-22 75.5q0 50 29.5 87.5t83 57.5t122.5 20h81v17q0 45 -25.5 71.5t-68.5 26.5q-38 0 -61 -19.5t-28 -47.5h-110q5 44 29.5 82t68.5 61t102 23q92 0 147 -56.5z
M313 114q34 33 34 79v32h-80q-63 0 -94.5 -20.5t-31.5 -56.5q0 -30 21.5 -48.5t61.5 -18.5q55 0 89 33zM295 700h-79l66 139h107zM153 596q-41 39 -46 99h80q4 -29 21.5 -48t49.5 -19t49.5 19t21.5 48h80q-5 -60 -46 -99t-105 -39t-105 39z" />
    <glyph glyph-name="uni1EB0" unicode="&#x1eb0;" horiz-adv-x="633" 
d="M635 0h-122l-57 157h-283l-57 -157h-118l263 700h112zM418 264l-103 287l-104 -287h207zM358 889h-80l-92 129h107zM210 786q-42 39 -47 98h83q3 -27 21 -45.5t50 -18.5t49.5 18t21.5 46h83q-5 -59 -47.5 -98t-106.5 -39q-65 0 -107 39z" />
    <glyph glyph-name="uni1EB1" unicode="&#x1eb1;" horiz-adv-x="515" 
d="M401 461.5q55 -56.5 55 -149.5v-312h-82l-20 57h-5q-21 -27 -57.5 -48t-90.5 -21q-48 0 -87 20.5t-61 55t-22 75.5q0 50 29.5 87.5t83 57.5t122.5 20h81v17q0 45 -25.5 71.5t-68.5 26.5q-38 0 -61 -19.5t-28 -47.5h-110q5 44 29.5 82t68.5 61t102 23q92 0 147 -56.5z
M313 114q34 33 34 79v32h-80q-63 0 -94.5 -20.5t-31.5 -56.5q0 -30 21.5 -48.5t61.5 -18.5q55 0 89 33zM300 700h-79l-94 139h108zM153 596q-41 39 -46 99h80q4 -29 21.5 -48t49.5 -19t49.5 19t21.5 48h80q-5 -60 -46 -99t-105 -39t-105 39z" />
    <glyph glyph-name="uni1EB2" unicode="&#x1eb2;" horiz-adv-x="633" 
d="M635 0h-122l-57 157h-283l-57 -157h-118l263 700h112zM418 264l-103 287l-104 -287h207zM283 889q21 27 21 51q0 18 -11.5 29t-31.5 11q-18 0 -30 -4v65q22 8 55 8q46 0 72 -22.5t26 -59.5q0 -22 -9 -42.5t-24 -35.5h-68zM210 786q-42 39 -47 98h83q3 -27 21 -45.5
t50 -18.5t49.5 18t21.5 46h83q-5 -59 -47.5 -98t-106.5 -39q-65 0 -107 39z" />
    <glyph glyph-name="uni1EB3" unicode="&#x1eb3;" horiz-adv-x="515" 
d="M401 461.5q55 -56.5 55 -149.5v-312h-82l-20 57h-5q-21 -27 -57.5 -48t-90.5 -21q-48 0 -87 20.5t-61 55t-22 75.5q0 50 29.5 87.5t83 57.5t122.5 20h81v17q0 45 -25.5 71.5t-68.5 26.5q-38 0 -61 -19.5t-28 -47.5h-110q5 44 29.5 82t68.5 61t102 23q92 0 147 -56.5z
M313 114q34 33 34 79v32h-80q-63 0 -94.5 -20.5t-31.5 -56.5q0 -30 21.5 -48.5t61.5 -18.5q55 0 89 33zM225 700q17 25 17 52q0 21 -12.5 34t-31.5 13q-9 0 -29 -4v63q21 8 51 8q45 0 72.5 -25t27.5 -64q0 -20 -8.5 -40.5t-20.5 -36.5h-66zM153 596q-41 39 -46 99h80
q4 -29 21.5 -48t49.5 -19q33 0 50.5 19t20.5 48h80q-5 -60 -46 -99t-105 -39t-105 39z" />
    <glyph glyph-name="uni1EB4" unicode="&#x1eb4;" horiz-adv-x="633" 
d="M635 0h-122l-57 157h-283l-57 -157h-118l263 700h112zM418 264l-103 287l-104 -287h207zM337 916.5q-16 8.5 -34 24.5q-12 10 -19 14.5t-16 4.5q-15 0 -25.5 -13t-10.5 -34h-71q0 57 27 88.5t67 31.5q25 0 41 -8.5t34 -24.5q12 -10 19 -14.5t16 -4.5q15 0 25.5 12.5
t10.5 34.5h71q0 -57 -27 -88.5t-67 -31.5q-25 0 -41 8.5zM210 786q-42 39 -47 98h83q3 -27 21 -45.5t50 -18.5t49.5 18t21.5 46h83q-5 -59 -47.5 -98t-106.5 -39q-65 0 -107 39z" />
    <glyph glyph-name="uni1EB5" unicode="&#x1eb5;" horiz-adv-x="515" 
d="M401 461.5q55 -56.5 55 -149.5v-312h-82l-20 57h-5q-21 -27 -57.5 -48t-90.5 -21q-48 0 -87 20.5t-61 55t-22 75.5q0 50 29.5 87.5t83 57.5t122.5 20h81v17q0 45 -25.5 71.5t-68.5 26.5q-38 0 -61 -19.5t-28 -47.5h-110q5 44 29.5 82t68.5 61t102 23q92 0 147 -56.5z
M313 114q34 33 34 79v32h-80q-63 0 -94.5 -20.5t-31.5 -56.5q0 -30 21.5 -48.5t61.5 -18.5q55 0 89 33zM280 728.5q-16 8.5 -33 23.5q-11 10 -19 15t-18 5q-14 0 -24.5 -12.5t-10.5 -34.5h-71q0 55 27.5 87.5t66.5 32.5q25 0 41 -8.5t33 -23.5q11 -10 19 -15t18 -5
q14 0 24.5 12.5t10.5 34.5h71q0 -56 -27.5 -88t-66.5 -32q-25 0 -41 8.5zM151.5 596q-41.5 39 -46.5 99h81q3 -29 20.5 -48t49.5 -19q33 0 50.5 19t21.5 48h80q-5 -60 -46.5 -99t-105.5 -39q-63 0 -104.5 39z" />
    <glyph glyph-name="uni1EB6" unicode="&#x1eb6;" horiz-adv-x="633" 
d="M635 0h-122l-57 157h-283l-57 -157h-118l263 700h112zM418 264l-103 287l-104 -287h207zM272 -181.5q-19 18.5 -19 46.5q0 27 19 45.5t46 18.5t45.5 -18t18.5 -46t-18.5 -46.5t-45.5 -18.5t-46 18.5zM210 799q-42 39 -47 98h83q3 -27 21 -45.5t50 -18.5t49.5 18t21.5 46
h83q-5 -59 -47.5 -98t-106.5 -39q-65 0 -107 39z" />
    <glyph glyph-name="uni1EB7" unicode="&#x1eb7;" horiz-adv-x="515" 
d="M401 461.5q55 -56.5 55 -149.5v-312h-82l-20 57h-5q-21 -27 -57.5 -48t-90.5 -21q-48 0 -87 20.5t-61 55t-22 75.5q0 50 29.5 87.5t83 57.5t122.5 20h81v17q0 45 -25.5 71.5t-68.5 26.5q-38 0 -61 -19.5t-28 -47.5h-110q5 44 29.5 82t68.5 61t102 23q92 0 147 -56.5z
M313 114q34 33 34 79v32h-80q-63 0 -94.5 -20.5t-31.5 -56.5q0 -30 21.5 -48.5t61.5 -18.5q55 0 89 33zM215 -181.5q-19 18.5 -19 46.5q0 27 19 45.5t46 18.5t45.5 -18t18.5 -46t-18.5 -46.5t-45.5 -18.5t-46 18.5zM152 612.5q-41 39.5 -46 98.5h80q4 -29 21.5 -47.5
t49.5 -18.5t49.5 18.5t21.5 47.5h80q-5 -59 -46 -98.5t-105 -39.5t-105 39.5z" />
    <glyph glyph-name="uni1EB8" unicode="&#x1eb8;" horiz-adv-x="589" 
d="M193 305v-195h356v-110h-472v700h462v-110h-346v-178h308v-107h-308zM268 -181.5q-19 18.5 -19 46.5q0 27 19 45.5t46 18.5t45.5 -18t18.5 -46t-18.5 -46.5t-45.5 -18.5t-46 18.5z" />
    <glyph glyph-name="uni1EB9" unicode="&#x1eb9;" horiz-adv-x="560" 
d="M520 210h-375q10 -57 48 -90t92 -33q39 0 66 15t43 38h114q-15 -38 -46.5 -73t-77 -57t-98.5 -22q-69 0 -126.5 35t-91 95.5t-33.5 134.5q0 73 34 133.5t91.5 96t124.5 35.5t122 -33.5t87 -91.5t32 -129q0 -32 -6 -54zM194 384.5q-39 -34.5 -49 -91.5h274q-9 56 -46 91
t-88 35q-52 0 -91 -34.5zM239 -181.5q-19 18.5 -19 46.5q0 27 19 45.5t46 18.5t45.5 -18t18.5 -46t-18.5 -46.5t-45.5 -18.5t-46 18.5z" />
    <glyph glyph-name="uni1EBA" unicode="&#x1eba;" horiz-adv-x="589" 
d="M193 305v-195h356v-110h-472v700h462v-110h-346v-178h308v-107h-308zM283 751q20 30 20 58q0 22 -14.5 35.5t-38.5 13.5q-10 0 -30 -4v67q25 9 54 9q49 0 79 -26.5t30 -68.5q0 -23 -9.5 -45.5t-23.5 -38.5h-67z" />
    <glyph glyph-name="uni1EBB" unicode="&#x1ebb;" horiz-adv-x="560" 
d="M520 210h-375q10 -57 48 -90t92 -33q39 0 66 15t43 38h114q-15 -38 -46.5 -73t-77 -57t-98.5 -22q-69 0 -126.5 35t-91 95.5t-33.5 134.5q0 73 34 133.5t91.5 96t124.5 35.5t122 -33.5t87 -91.5t32 -129q0 -32 -6 -54zM194 384.5q-39 -34.5 -49 -91.5h274q-9 56 -46 91
t-88 35q-52 0 -91 -34.5zM251 563q21 29 21 60q0 26 -14 40t-39 14q-9 0 -29 -4v65q26 8 52 8q50 0 78.5 -26.5t28.5 -69.5q0 -48 -31 -87h-67z" />
    <glyph glyph-name="uni1EBC" unicode="&#x1ebc;" horiz-adv-x="589" 
d="M193 305v-195h356v-110h-472v700h462v-110h-346v-178h308v-107h-308zM331 770.5q-18 9.5 -37 26.5q-14 12 -22.5 17t-19.5 5q-16 0 -27 -14.5t-11 -38.5h-72q0 62 28 95.5t71 33.5q28 0 46 -9.5t36 -26.5q12 -11 21 -16.5t20 -5.5q16 0 27.5 14.5t11.5 38.5h72
q0 -63 -28 -96t-71 -33q-27 0 -45 9.5z" />
    <glyph glyph-name="uni1EBD" unicode="&#x1ebd;" horiz-adv-x="560" 
d="M520 210h-375q10 -57 48 -90t92 -33q39 0 66 15t43 38h114q-15 -38 -46.5 -73t-77 -57t-98.5 -22q-69 0 -126.5 35t-91 95.5t-33.5 134.5q0 73 34 133.5t91.5 96t124.5 35.5t122 -33.5t87 -91.5t32 -129q0 -32 -6 -54zM194 384.5q-39 -34.5 -49 -91.5h274q-9 56 -46 91
t-88 35q-52 0 -91 -34.5zM308 583.5q-16 9.5 -37 28.5q-12 12 -21.5 18.5t-19.5 6.5q-16 0 -27 -15.5t-11 -42.5h-71q0 65 27 99.5t70 34.5q24 0 40 -9.5t37 -28.5q12 -12 21.5 -18.5t19.5 -6.5q16 0 27 15.5t11 42.5h71q0 -65 -27 -99.5t-70 -34.5q-24 0 -40 9.5z" />
    <glyph glyph-name="uni1EBE" unicode="&#x1ebe;" horiz-adv-x="589" 
d="M193 305v-195h356v-110h-472v700h462v-110h-346v-178h308v-107h-308zM433 830l65 129h107l-92 -129h-80zM146 747l116 147h94l116 -147h-99l-65 84l-65 -84h-97z" />
    <glyph glyph-name="uni1EBF" unicode="&#x1ebf;" horiz-adv-x="560" 
d="M520 210h-375q10 -57 48 -90t92 -33q39 0 66 15t43 38h114q-15 -38 -46.5 -73t-77 -57t-98.5 -22q-69 0 -126.5 35t-91 95.5t-33.5 134.5q0 73 34 133.5t91.5 96t124.5 35.5t122 -33.5t87 -91.5t32 -129q0 -32 -6 -54zM194 384.5q-39 -34.5 -49 -91.5h274q-9 56 -46 91
t-88 35q-52 0 -91 -34.5zM406 635l65 139h108l-94 -139h-79zM127 553l110 152h93l110 -152h-97l-61 89l-61 -89h-94z" />
    <glyph glyph-name="uni1EC0" unicode="&#x1ec0;" horiz-adv-x="589" 
d="M193 305v-195h356v-110h-472v700h462v-110h-346v-178h308v-107h-308zM477 959l65 -129h-80l-92 129h107zM146 747l116 147h94l116 -147h-99l-65 84l-65 -84h-97z" />
    <glyph glyph-name="uni1EC1" unicode="&#x1ec1;" horiz-adv-x="560" 
d="M520 210h-375q10 -57 48 -90t92 -33q39 0 66 15t43 38h114q-15 -38 -46.5 -73t-77 -57t-98.5 -22q-69 0 -126.5 35t-91 95.5t-33.5 134.5q0 73 34 133.5t91.5 96t124.5 35.5t122 -33.5t87 -91.5t32 -129q0 -32 -6 -54zM194 384.5q-39 -34.5 -49 -91.5h274q-9 56 -46 91
t-88 35q-52 0 -91 -34.5zM444 774l66 -139h-79l-95 139h108zM127 553l110 152h93l110 -152h-97l-61 89l-61 -89h-94z" />
    <glyph glyph-name="uni1EC2" unicode="&#x1ec2;" horiz-adv-x="589" 
d="M193 305v-195h356v-110h-472v700h462v-110h-346v-178h308v-107h-308zM515 967q26 -23 26 -59q0 -22 -9 -42.5t-24 -35.5h-68q21 25 21 51q0 18 -11 29t-32 11q-10 0 -30 -4v65q28 8 55 8q46 0 72 -23zM146 747l116 147h94l116 -147h-99l-65 84l-65 -84h-97z" />
    <glyph glyph-name="uni1EC3" unicode="&#x1ec3;" horiz-adv-x="560" 
d="M520 210h-375q10 -57 48 -90t92 -33q39 0 66 15t43 38h114q-15 -38 -46.5 -73t-77 -57t-98.5 -22q-69 0 -126.5 35t-91 95.5t-33.5 134.5q0 73 34 133.5t91.5 96t124.5 35.5t122 -33.5t87 -91.5t32 -129q0 -32 -6 -54zM194 384.5q-39 -34.5 -49 -91.5h274q-9 56 -46 91
t-88 35q-52 0 -91 -34.5zM476 779.5q27 -24.5 27 -62.5q0 -21 -8 -41.5t-20 -36.5h-67q18 26 18 52q0 20 -12.5 32.5t-31.5 12.5q-9 0 -29 -4v64q24 8 51 8q45 0 72 -24.5zM127 553l110 152h93l110 -152h-97l-61 89l-61 -89h-94z" />
    <glyph glyph-name="uni1EC4" unicode="&#x1ec4;" horiz-adv-x="589" 
d="M193 305v-195h356v-110h-472v700h462v-110h-346v-178h308v-107h-308zM234.5 948.5q-10.5 -12.5 -10.5 -34.5h-71q0 57 27 88.5t67 31.5q25 0 41 -8.5t34 -24.5q12 -10 19 -14.5t16 -4.5q15 0 25 12.5t10 34.5h72q0 -57 -27 -88.5t-67 -31.5q-25 0 -41 8.5t-34 24.5
q-12 10 -19 14.5t-16 4.5q-15 0 -25.5 -12.5zM356 894l116 -147h-99l-65 84l-65 -84h-97l116 147h94z" />
    <glyph glyph-name="uni1EC5" unicode="&#x1ec5;" horiz-adv-x="560" 
d="M520 210h-375q10 -57 48 -90t92 -33q39 0 66 15t43 38h114q-15 -38 -46.5 -73t-77 -57t-98.5 -22q-69 0 -126.5 35t-91 95.5t-33.5 134.5q0 73 34 133.5t91.5 96t124.5 35.5t122 -33.5t87 -91.5t32 -129q0 -32 -6 -54zM194 384.5q-39 -34.5 -49 -91.5h274q-9 56 -46 91
t-88 35q-52 0 -91 -34.5zM206.5 761.5q-10.5 -12.5 -10.5 -34.5h-71q0 55 27.5 87.5t66.5 32.5q25 0 41 -8.5t33 -23.5q11 -10 19 -15t18 -5q14 0 24.5 12.5t10.5 34.5h71q0 -56 -27.5 -88t-66.5 -32q-25 0 -41 8.5t-33 23.5q-11 10 -19 15t-18 5q-14 0 -24.5 -12.5z
M330 705l110 -152h-97l-60 89l-61 -89h-95l110 152h93z" />
    <glyph glyph-name="uni1EC6" unicode="&#x1ec6;" horiz-adv-x="589" 
d="M193 305v-195h356v-110h-472v700h462v-110h-346v-178h308v-107h-308zM268 -181.5q-19 18.5 -19 46.5q0 27 19 45.5t46 18.5t45.5 -18t18.5 -46t-18.5 -46.5t-45.5 -18.5t-46 18.5zM356 902l116 -147h-99l-65 84l-65 -84h-97l116 147h94z" />
    <glyph glyph-name="uni1EC7" unicode="&#x1ec7;" horiz-adv-x="560" 
d="M520 210h-375q10 -57 48 -90t92 -33q39 0 66 15t43 38h114q-15 -38 -46.5 -73t-77 -57t-98.5 -22q-69 0 -126.5 35t-91 95.5t-33.5 134.5q0 73 34 133.5t91.5 96t124.5 35.5t122 -33.5t87 -91.5t32 -129q0 -32 -6 -54zM194 384.5q-39 -34.5 -49 -91.5h274q-9 56 -46 91
t-88 35q-52 0 -91 -34.5zM239 -181.5q-19 18.5 -19 46.5q0 27 19 45.5t46 18.5t45.5 -18t18.5 -46t-18.5 -46.5t-45.5 -18.5t-46 18.5zM330 718l110 -152h-97l-61 89l-61 -89h-94l110 152h93z" />
    <glyph glyph-name="uni1EC8" unicode="&#x1ec8;" horiz-adv-x="270" 
d="M193 0h-116v700h116v-700zM110 751q20 30 20 58q0 22 -14.5 35.5t-38.5 13.5q-10 0 -30 -4v67q25 9 54 9q49 0 79 -26.5t30 -68.5q0 -23 -9.5 -45.5t-23.5 -38.5h-67z" />
    <glyph glyph-name="uni1EC9" unicode="&#x1ec9;" horiz-adv-x="237" 
d="M174 0h-110v506h110v-506zM86 563q21 29 21 60q0 26 -14 40t-39 14q-9 0 -29 -4v65q26 8 52 8q50 0 78.5 -26.5t28.5 -69.5q0 -48 -31 -87h-67z" />
    <glyph glyph-name="uni1ECA" unicode="&#x1eca;" horiz-adv-x="270" 
d="M193 0h-116v700h116v-700zM90 -181.5q-19 18.5 -19 46.5q0 27 19 45.5t46 18.5t45.5 -18t18.5 -46t-18.5 -46.5t-45.5 -18.5t-46 18.5z" />
    <glyph glyph-name="uni1ECB" unicode="&#x1ecb;" horiz-adv-x="237" 
d="M174 0h-110v506h110v-506zM73 595.5q-19 18.5 -19 45.5q0 28 19 46.5t46 18.5t45.5 -18.5t18.5 -46.5q0 -27 -18.5 -45.5t-45.5 -18.5t-46 18.5zM73 -181.5q-19 18.5 -19 46.5q0 27 19 45.5t46 18.5t45.5 -18t18.5 -46t-18.5 -46.5t-45.5 -18.5t-46 18.5z" />
    <glyph glyph-name="uni1ECC" unicode="&#x1ecc;" horiz-adv-x="748" 
d="M206.5 36q-77.5 48 -123.5 131t-46 183t46 183t123.5 131t167.5 48t167.5 -48t123.5 -131t46 -183t-46 -183t-123.5 -131t-167.5 -48t-167.5 48zM483.5 131.5q50.5 32.5 81 89.5t30.5 129t-30.5 129t-81 89.5t-109.5 32.5t-109.5 -32.5t-81 -89.5t-30.5 -129t30.5 -129
t81 -89.5t109.5 -32.5t109.5 32.5zM328 -181.5q-19 18.5 -19 46.5q0 27 19 45.5t46 18.5t45.5 -18t18.5 -46t-18.5 -46.5t-45.5 -18.5t-46 18.5z" />
    <glyph glyph-name="uni1ECD" unicode="&#x1ecd;" horiz-adv-x="572" 
d="M160.5 23.5q-57.5 35.5 -91.5 96.5t-34 133q0 73 34 133.5t91.5 96t125.5 35.5t125.5 -35.5t91.5 -96t34 -133.5q0 -72 -34 -133t-91.5 -96.5t-125.5 -35.5t-125.5 35.5zM357.5 111q32.5 21 51.5 58t19 84t-19 84t-51.5 58t-71.5 21t-71.5 -21t-51.5 -58t-19 -84t19 -84
t51.5 -58t71.5 -21t71.5 21zM240 -181.5q-19 18.5 -19 46.5q0 27 19 45.5t46 18.5t45.5 -18t18.5 -46t-18.5 -46.5t-45.5 -18.5t-46 18.5z" />
    </font>
</defs>
</svg>
