<?xml version="1.0" standalone="no"?>
<!DOCTYPE svg PUBLIC "-//W3C//DTD SVG 1.1//EN" "http://www.w3.org/Graphics/SVG/1.1/DTD/svg11.dtd" >
<svg xmlns="http://www.w3.org/2000/svg" xmlns:xlink="http://www.w3.org/1999/xlink" version="1.1">
<metadata>
Created by FontForge 20201107 at Mon Mar  6 10:17:17 2023
 By 
Copyright (c) 2018-2021 by TypeType. All rights reserved.
</metadata>
<defs>
<font id="TTCommonsProTrial-Md" horiz-adv-x="0" >
  <font-face 
    font-family="TT Commons Pro Trial Medium"
    font-weight="500"
    font-stretch="normal"
    units-per-em="1000"
    panose-1="2 11 1 3 3 1 2 2 2 4"
    ascent="800"
    descent="-200"
    x-height="503"
    cap-height="700"
    bbox="-439 -368 1438 1072"
    underline-thickness="56"
    underline-position="-239"
    unicode-range="U+0020-FB06"
  />
<missing-glyph horiz-adv-x="900" 
d="M100 284h45v-139h33v139h50v31h-128v126l19 -61h23l34 106l33 -106h23l54 170h-32l-34 -110l-35 110h-19l-35 -110l-31 103v157h700v-150h-110v-170h110v-91q-6 13 -19.5 20t-30.5 7q-27 0 -43.5 -14.5t-16.5 -34.5q0 -22 14.5 -32.5t39.5 -17.5q17 -5 25.5 -9.5
t8.5 -13.5q0 -21 -28 -21q-14 0 -21 7t-7 18h-33q0 -24 17 -39.5t44 -15.5q17 0 30.5 6.5t19.5 13.5v-163h-700v284zM344 380v62h24l35 -62h37l-40 67q36 17 36 50q0 22 -16 37.5t-41 15.5h-68v-170h33zM469 380h33v170h-33v-170zM580 380h32v139h50v31h-132v-31h50v-139z
M379 519q10 0 17 -6.5t7 -16.5q0 -12 -7.5 -17.5t-16.5 -5.5h-35v46h35zM722 483v36h78v-36h-78zM722 411v41h78v-41h-78zM387.5 167.5q22.5 24.5 22.5 61.5t-23 62t-59 25t-59 -25t-23 -62t22.5 -61.5t59.5 -24.5t59.5 24.5zM549 315h-32v-106q0 -28 19.5 -47t48.5 -19
t48 19t19 47v106h-32v-106q0 -15 -9.5 -25t-25.5 -10q-17 0 -26.5 10.5t-9.5 24.5v106zM800 224q-15 14 -46 22q-16 5 -23 9t-7 12q0 9 7.5 14.5t18.5 5.5q10 0 18 -7t8 -18h24v-38zM291.5 190q-14.5 16 -14.5 39q0 25 14 40.5t37 15.5q24 0 37.5 -15.5t13.5 -40.5
q0 -23 -14.5 -39t-36.5 -16t-36.5 16z" />
    <glyph glyph-name="f_f.liga" unicode="ff" horiz-adv-x="580" 
d="M473 610.5q-21 -22.5 -21 -67.5v-40h115v-78h-113v-425h-87v425h-184v-425h-86v425h-70v78h70v21q0 78 41.5 122.5t106.5 44.5q25 0 52 -9v-75q-16 6 -35 6q-38 0 -59 -22.5t-21 -68.5v-19h185v41q0 78 41.5 122.5t107.5 44.5q24 0 51 -9v-75q-16 6 -35 6
q-38 0 -59 -22.5z" />
    <glyph glyph-name="fi.liga" unicode="fi" horiz-adv-x="517" 
d="M182 503h272v-503h-87v425h-184v-425h-86v425h-70v78h70v9q0 94 57.5 147.5t157.5 53.5q56 0 98 -19v-75q-21 8 -47 12t-48 4q-63 0 -98 -32t-35 -92v-8z" />
    <glyph glyph-name="fl.liga" unicode="fl" horiz-adv-x="527" 
d="M454 687v-687h-87v629q-28 6 -58 6q-59 0 -93 -32t-34 -92v-8h113v-78h-112v-425h-86v425h-70v78h70v9q0 94 56.5 147.5t153.5 53.5q85 0 147 -26z" />
    <glyph glyph-name="f_f_i.liga" unicode="ffi" horiz-adv-x="787" 
d="M452 503h272v-503h-86v425h-184v-425h-87v425h-184v-425h-86v425h-70v78h70v21q0 78 41.5 122.5t106.5 44.5q25 0 52 -9v-75q-16 6 -35 6q-38 0 -59 -22.5t-21 -68.5v-19h185v9q0 94 57.5 147.5t157.5 53.5q55 0 99 -19v-75q-45 16 -96 16q-62 0 -97.5 -32t-35.5 -92v-8z
" />
    <glyph glyph-name="f_f_l.liga" unicode="ffl" horiz-adv-x="797" 
d="M724 687v-687h-86v628q-27 7 -59 7q-58 0 -92.5 -32t-34.5 -92v-8h114v-78h-112v-425h-87v425h-184v-425h-86v425h-70v78h70v21q0 78 41.5 122.5t106.5 44.5q25 0 52 -9v-75q-16 6 -35 6q-38 0 -59 -22.5t-21 -68.5v-19h185v9q0 94 57 147.5t154 53.5q84 0 146 -26z" />
    <glyph glyph-name="f_f_j.liga" unicode="ffj" horiz-adv-x="787" 
d="M452 503h272v-521q0 -78 -41 -122.5t-107 -44.5q-23 0 -52 9v78q18 -6 35 -6q38 0 58.5 22.5t20.5 67.5v439h-184v-425h-87v425h-184v-425h-86v425h-70v78h70v21q0 78 41.5 122.5t106.5 44.5q25 0 52 -9v-75q-16 6 -35 6q-38 0 -59 -22.5t-21 -68.5v-19h185v9
q0 94 57.5 147.5t157.5 53.5q55 0 99 -19v-75q-45 16 -96 16q-62 0 -97.5 -32t-35.5 -92v-8z" />
    <glyph glyph-name="f_j.liga" unicode="fj" horiz-adv-x="517" 
d="M182 503h272v-521q0 -78 -41.5 -122.5t-106.5 -44.5q-25 0 -52 9v78q17 -6 35 -6q37 0 57.5 22.5t20.5 67.5v439h-184v-425h-86v425h-70v78h70v9q0 94 57.5 147.5t157.5 53.5q56 0 98 -19v-75q-21 8 -47 12t-48 4q-63 0 -98 -32t-35 -92v-8z" />
    <glyph glyph-name=".notdef" horiz-adv-x="900" 
d="M100 284h45v-139h33v139h50v31h-128v126l19 -61h23l34 106l33 -106h23l54 170h-32l-34 -110l-35 110h-19l-35 -110l-31 103v157h700v-150h-110v-170h110v-91q-6 13 -19.5 20t-30.5 7q-27 0 -43.5 -14.5t-16.5 -34.5q0 -22 14.5 -32.5t39.5 -17.5q17 -5 25.5 -9.5
t8.5 -13.5q0 -21 -28 -21q-14 0 -21 7t-7 18h-33q0 -24 17 -39.5t44 -15.5q17 0 30.5 6.5t19.5 13.5v-163h-700v284zM344 380v62h24l35 -62h37l-40 67q36 17 36 50q0 22 -16 37.5t-41 15.5h-68v-170h33zM469 380h33v170h-33v-170zM580 380h32v139h50v31h-132v-31h50v-139z
M379 519q10 0 17 -6.5t7 -16.5q0 -12 -7.5 -17.5t-16.5 -5.5h-35v46h35zM722 483v36h78v-36h-78zM722 411v41h78v-41h-78zM387.5 167.5q22.5 24.5 22.5 61.5t-23 62t-59 25t-59 -25t-23 -62t22.5 -61.5t59.5 -24.5t59.5 24.5zM549 315h-32v-106q0 -28 19.5 -47t48.5 -19
t48 19t19 47v106h-32v-106q0 -15 -9.5 -25t-25.5 -10q-17 0 -26.5 10.5t-9.5 24.5v106zM800 224q-15 14 -46 22q-16 5 -23 9t-7 12q0 9 7.5 14.5t18.5 5.5q10 0 18 -7t8 -18h24v-38zM291.5 190q-14.5 16 -14.5 39q0 25 14 40.5t37 15.5q24 0 37.5 -15.5t13.5 -40.5
q0 -23 -14.5 -39t-36.5 -16t-36.5 16z" />
    <glyph glyph-name=".null" 
 />
    <glyph glyph-name="nonmarkingreturn" 
 />
    <glyph glyph-name="space" unicode=" " horiz-adv-x="242" 
 />
    <glyph glyph-name="exclam" unicode="!" horiz-adv-x="287" 
d="M180 184h-72l-17 516h105zM101 7q-18 18 -18 43t18 42.5t43 17.5t42.5 -17.5t17.5 -42.5q0 -26 -17.5 -43.5t-42.5 -17.5t-43 18z" />
    <glyph glyph-name="quotedbl" unicode="&#x22;" horiz-adv-x="333" 
d="M127 475h-77v225h77v-225zM283 475h-77v225h77v-225z" />
    <glyph glyph-name="numbersign" unicode="#" horiz-adv-x="682" 
d="M660 505l-18 -75h-125l-32 -160h130l-19 -75h-127l-40 -195h-80l40 195h-159l-40 -195h-80l40 195h-128l19 75h125l32 160h-130l18 75h128l40 195h80l-40 -195h159l40 195h80l-40 -195h127zM246 270h159l32 160h-159z" />
    <glyph glyph-name="dollar" unicode="$" horiz-adv-x="564" 
d="M468.5 53.5q-50.5 -52.5 -142.5 -62.5v-96h-88v97q-89 13 -141 71.5t-57 145.5h92q5 -63 45 -99.5t109 -36.5q68 0 104.5 30.5t36.5 78.5q0 37 -21.5 61.5t-53 39.5t-87.5 34q-67 22 -108.5 42.5t-70.5 59.5t-29 101q0 75 48 126.5t133 62.5v96h88v-98q81 -14 129.5 -72
t52.5 -139h-92q-3 59 -40.5 95t-97.5 36q-61 0 -95 -30t-34 -77q0 -36 20.5 -59t52 -37t84.5 -31q69 -23 111 -43.5t72 -60.5t30 -105q0 -78 -50.5 -130.5z" />
    <glyph glyph-name="percent" unicode="%" horiz-adv-x="698" 
d="M107 428.5q-34 19.5 -54.5 54t-20.5 77.5t20.5 77.5t54.5 54t74 19.5t74 -19.5t54.5 -54t20.5 -77.5t-20.5 -77.5t-54.5 -54t-74 -19.5t-74 19.5zM174 0h-78l427 700h78zM240.5 494q24.5 25 24.5 66t-24.5 65.5t-59.5 24.5t-59.5 -24.5t-24.5 -65.5t24.5 -66t59.5 -25
t59.5 25zM442.5 8.5q-34.5 19.5 -55 54t-20.5 77.5t20.5 77.5t55 54t73.5 19.5q40 0 74 -19.5t54.5 -54t20.5 -77.5t-20.5 -77.5t-54.5 -54t-74 -19.5q-39 0 -73.5 19.5zM576 74.5q25 24.5 25 65.5t-25 66t-60 25t-59.5 -25t-24.5 -66t24.5 -65.5t59.5 -24.5t60 24.5z" />
    <glyph glyph-name="ampersand" unicode="&#x26;" horiz-adv-x="589" 
d="M618 0h-111l-80 89q-88 -100 -197 -100q-55 0 -97.5 21.5t-66.5 59t-24 84.5q0 59 30.5 107.5t86.5 94.5l17 13l-10 12q-44 49 -63 87.5t-19 79.5q0 46 21 83t58.5 58.5t84.5 21.5q46 0 83.5 -22t59.5 -59.5t22 -81.5q0 -81 -88 -160l-31 -28l131 -146l77 111h95
l-117 -171zM191.5 607q-21.5 -23 -21.5 -60q0 -28 16 -56.5t56 -73.5l23 21q62 55 62 109q0 37 -22 60t-57 23t-56.5 -23zM305 91q34 20 68 58l-145 162l-15 -12q-42 -33 -63 -64.5t-21 -72.5q0 -42 28 -66.5t74 -24.5q40 0 74 20z" />
    <glyph glyph-name="quotesingle" unicode="'" horiz-adv-x="177" 
d="M127 475h-77v225h77v-225z" />
    <glyph glyph-name="parenleft" unicode="(" horiz-adv-x="312" 
d="M220 -219q-51 66 -104 189t-53 280t53 280t104 189l64 -43q-42 -62 -86.5 -176t-44.5 -250q0 -96 24.5 -184t54.5 -149t52 -93z" />
    <glyph glyph-name="parenright" unicode=")" horiz-adv-x="312" 
d="M28 -176q22 32 52 93t54.5 149t24.5 184q0 136 -44.5 250t-86.5 176l64 43q28 -36 63 -100.5t64 -161.5t29 -207t-29 -207t-64 -161.5t-63 -100.5z" />
    <glyph glyph-name="asterisk" unicode="*" horiz-adv-x="369" 
d="M319 616l22 -64l-115 -29l80 -100l-54 -39l-67 109l-68 -109l-54 39l80 100l-115 29l22 64l108 -44l-7 128h67l-7 -128z" />
    <glyph glyph-name="plus" unicode="+" horiz-adv-x="570" 
d="M326 138h-82v183h-173v78h173v184h82v-184h174v-78h-174v-183z" />
    <glyph glyph-name="comma" unicode="," horiz-adv-x="196" 
d="M141.5 91q17.5 -19 17.5 -50q0 -56 -29.5 -103.5t-62.5 -77.5l-19 26q39 51 45 103q-24 2 -39.5 19.5t-15.5 41.5q0 25 17.5 42.5t42.5 17.5q26 0 43.5 -19z" />
    <glyph glyph-name="hyphen" unicode="-" horiz-adv-x="399" 
d="M359 227h-319v80h319v-80z" />
    <glyph glyph-name="period" unicode="." horiz-adv-x="196" 
d="M55.5 6.5q-17.5 17.5 -17.5 43.5q0 25 17.5 42.5t42.5 17.5t43 -17.5t18 -42.5t-17.5 -43t-43.5 -18q-25 0 -42.5 17.5z" />
    <glyph glyph-name="slash" unicode="/" horiz-adv-x="371" 
d="M83 -200h-83l288 900h83z" />
    <glyph glyph-name="zero" unicode="0" horiz-adv-x="605" 
d="M170.5 30.5q-59.5 41.5 -94.5 123t-35 196.5t35 196.5t94.5 123t131.5 41.5t131.5 -41.5t95 -123t35.5 -196.5t-35.5 -196.5t-95 -123t-131.5 -41.5t-131.5 41.5zM387.5 105q38.5 29 61.5 91t23 154t-23 154t-61.5 91t-85.5 29t-85 -29.5t-61 -91t-23 -153.5t23 -153.5
t61 -91t85 -29.5t85.5 29z" />
    <glyph glyph-name="one" unicode="1" horiz-adv-x="345" 
d="M21 578l172 122h68v-700h-92v584l-105 -75z" />
    <glyph glyph-name="two" unicode="2" horiz-adv-x="534" 
d="M170 87h317v-87h-449v73l258 263q51 52 75 89t24 83q0 52 -36.5 85t-97.5 33q-62 0 -100.5 -36.5t-40.5 -94.5h-90q1 60 31 109.5t82 78t118 28.5q67 0 118.5 -26.5t79.5 -72.5t28 -102q0 -61 -32.5 -114t-93.5 -115z" />
    <glyph glyph-name="three" unicode="3" horiz-adv-x="539" 
d="M462.5 299q35.5 -42 35.5 -110q0 -53 -29.5 -99t-83 -73.5t-120.5 -27.5q-69 0 -121 27t-82 72t-37 97h92q4 -27 23 -52.5t51 -42t74 -16.5q64 0 102.5 33.5t38.5 86.5q0 54 -39 88t-106 34h-44v80h39q61 0 97.5 31t36.5 81q0 52 -35.5 85t-93.5 33q-54 0 -90.5 -32.5
t-40.5 -75.5h-92q4 51 33.5 95.5t78.5 71t110 26.5q64 0 115 -27t79 -72.5t28 -98.5t-31 -90.5t-76 -60.5q52 -21 87.5 -63z" />
    <glyph glyph-name="four" unicode="4" horiz-adv-x="545" 
d="M431 232h77v-85h-77v-147h-90v147h-320v78l301 475h109v-468zM341 232v343l-217 -343h217z" />
    <glyph glyph-name="five" unicode="5" horiz-adv-x="558" 
d="M407 433.5q52 -30.5 82 -84.5t30 -122t-31 -122t-86.5 -85t-124.5 -31q-64 0 -114.5 27t-80.5 72t-37 96h92q4 -26 22 -51.5t49 -42t69 -16.5q42 0 76.5 19.5t54 54.5t19.5 79q0 45 -19.5 80t-54 54.5t-76.5 19.5q-55 0 -87 -27t-47 -60h-83l45 406h364v-85h-288
l-23 -200q22 21 56.5 35t76.5 14q64 0 116 -30.5z" />
    <glyph glyph-name="six" unicode="6" horiz-adv-x="560" 
d="M406.5 439.5q54.5 -31.5 86 -87t31.5 -123.5q0 -66 -32 -121t-87.5 -87t-122.5 -32q-68 0 -123.5 31.5t-87 86.5t-31.5 122q0 55 19 99t48 86l191 286h99l-161 -236q23 7 51 7q65 0 119.5 -31.5zM357.5 94q34.5 20 54.5 55.5t20 81.5t-20 81.5t-54.5 55t-75.5 19.5
q-65 0 -107.5 -43t-42.5 -113t42.5 -113.5t107.5 -43.5q41 0 75.5 20z" />
    <glyph glyph-name="seven" unicode="7" horiz-adv-x="498" 
d="M24 613v87h442v-70l-267 -630h-99l261 613h-337z" />
    <glyph glyph-name="eight" unicode="8" horiz-adv-x="566" 
d="M490 309.5q35 -44.5 35 -110.5q0 -57 -30 -105t-85 -76.5t-127 -28.5q-73 0 -128 28.5t-84.5 76.5t-29.5 105q0 67 35 111t80 65q-36 23 -61.5 59.5t-25.5 88.5q0 51 27 94t76 68.5t111 25.5t111 -25.5t76 -68.5t27 -94q0 -52 -25.5 -88.5t-61.5 -59.5q45 -21 80 -65.5z
M193.5 597q-34.5 -31 -34.5 -78t34 -77.5t90 -30.5q55 0 89 30.5t34 77.5t-34 78t-89 31t-89.5 -31zM393.5 108.5q40.5 36.5 40.5 92.5q0 55 -40.5 91.5t-110.5 36.5t-111 -36.5t-41 -91.5q0 -56 41 -92.5t111 -36.5t110.5 36.5z" />
    <glyph glyph-name="nine" unicode="9" horiz-adv-x="560" 
d="M401.5 679q55.5 -32 87.5 -86.5t32 -121.5q0 -55 -19 -99t-48 -86l-192 -286h-99l161 236q-23 -7 -50 -7q-66 0 -120 31.5t-85.5 87t-31.5 123.5q0 67 32 121.5t87.5 86.5t122.5 32t122.5 -32zM386.5 356q42.5 43 42.5 113t-42.5 113.5t-107.5 43.5q-42 0 -76 -20
t-54 -55.5t-20 -81.5t20 -81.5t54 -55t76 -19.5q65 0 107.5 43z" />
    <glyph glyph-name="colon" unicode=":" horiz-adv-x="196" 
d="M55.5 399.5q-17.5 17.5 -17.5 43.5q0 25 17.5 42.5t42.5 17.5t43 -17.5t18 -42.5t-17.5 -43t-43.5 -18q-25 0 -42.5 17.5zM55.5 6.5q-17.5 17.5 -17.5 43.5q0 25 17.5 42.5t42.5 17.5t43 -17.5t18 -42.5t-17.5 -43t-43.5 -18q-25 0 -42.5 17.5z" />
    <glyph glyph-name="semicolon" unicode=";" horiz-adv-x="196" 
d="M55.5 399.5q-17.5 17.5 -17.5 43.5q0 25 17.5 42.5t42.5 17.5t43 -17.5t18 -42.5t-17.5 -43t-43.5 -18q-25 0 -42.5 17.5zM141.5 91q17.5 -19 17.5 -50q0 -56 -29.5 -103.5t-62.5 -77.5l-19 26q39 51 45 103q-24 2 -39.5 19.5t-15.5 41.5q0 25 17.5 42.5t42.5 17.5
q26 0 43.5 -19z" />
    <glyph glyph-name="less" unicode="&#x3c;" horiz-adv-x="570" 
d="M83 391l391 194v-85l-290 -140l290 -140v-86l-391 196v61z" />
    <glyph glyph-name="equal" unicode="=" horiz-adv-x="570" 
d="M500 427h-429v78h429v-78zM500 215h-429v78h429v-78z" />
    <glyph glyph-name="greater" unicode="&#x3e;" horiz-adv-x="570" 
d="M96 500v85l391 -195v-61l-391 -195v86l290 140z" />
    <glyph glyph-name="question" unicode="?" horiz-adv-x="485" 
d="M189 196q0 50 13 86t31.5 59.5t48.5 51.5q35 33 52 59t17 65q0 49 -30 79t-79 30q-53 0 -86 -37.5t-33 -96.5v-11h-91v11q0 61 27 111t75 79t108 29q58 0 104 -25t71.5 -68t25.5 -97q0 -41 -11.5 -70.5t-28 -49.5t-44.5 -47q-27 -26 -43 -45t-27 -47t-11 -66v-12h-89v12z
M191.5 6.5q-17.5 17.5 -17.5 43.5q0 25 17.5 42.5t42.5 17.5q26 0 43 -17.5t17 -42.5q0 -26 -17.5 -43.5t-42.5 -17.5t-42.5 17.5z" />
    <glyph glyph-name="at" unicode="@" horiz-adv-x="824" 
d="M226 -73.5q-86 48.5 -135.5 133.5t-49.5 190q0 104 49.5 189t135 134t188.5 49q104 0 190 -48.5t136 -131t50 -181.5q0 -64 -20.5 -109.5t-55.5 -69t-77 -23.5q-46 0 -74.5 24t-38.5 46h-5q-14 -23 -46.5 -46.5t-82.5 -23.5q-44 0 -82 23.5t-61 67t-23 99.5t23 99.5
t61 67t81 23.5q44 0 73 -21.5t41 -41.5h5l17 56h49v-215q0 -91 63 -91q35 0 58.5 33.5t23.5 101.5q0 81 -41 148.5t-111 107t-153 39.5t-152 -40t-109.5 -110t-40.5 -156q0 -87 40.5 -157t109.5 -109.5t153 -39.5q56 0 99 14.5t64 30.5l33 -55q-26 -19 -78 -37.5t-118 -18.5
q-103 0 -189 48.5zM473.5 160.5q29.5 33.5 29.5 88.5t-29.5 88.5t-73.5 33.5q-45 0 -74.5 -33.5t-29.5 -88.5t29.5 -88.5t74.5 -33.5q44 0 73.5 33.5z" />
    <glyph glyph-name="A" unicode="A" horiz-adv-x="620" 
d="M618 0h-98l-61 168h-302l-61 -168h-94l264 700h88zM427 253l-119 323l-119 -323h238z" />
    <glyph glyph-name="B" unicode="B" horiz-adv-x="622" 
d="M541.5 315.5q39.5 -43.5 39.5 -114.5q0 -57 -28 -102.5t-79 -72t-116 -26.5h-275v700h264q60 0 107 -24.5t73 -66t26 -92.5q0 -57 -29 -92.5t-68 -50.5q46 -15 85.5 -58.5zM175 618v-210h167q54 0 86.5 29.5t32.5 76.5q0 46 -32.5 75t-86.5 29h-167zM353 82q60 0 98 35
t38 89q0 53 -38 88t-98 35h-178v-247h178z" />
    <glyph glyph-name="C" unicode="C" horiz-adv-x="711" 
d="M207 36.5q-76 47.5 -121 130t-45 183.5t45 183.5t121 130t164 47.5q74 0 136.5 -33.5t104.5 -90.5t58 -126h-94q-22 70 -75 116.5t-130 46.5q-63 0 -117.5 -35t-87.5 -97.5t-33 -141.5t33 -141.5t87.5 -97.5t117.5 -35q79 0 133 46t77 116h94q-17 -68 -59.5 -125
t-105.5 -90.5t-139 -33.5q-88 0 -164 47.5z" />
    <glyph glyph-name="D" unicode="D" horiz-adv-x="662" 
d="M83 0v700h195q95 0 173.5 -46t124 -126t45.5 -178q0 -99 -46 -179t-124.5 -125.5t-172.5 -45.5h-195zM278 87q68 0 125.5 34t91.5 94.5t34 134.5t-34 134.5t-91.5 94.5t-125.5 34h-103v-526h103z" />
    <glyph glyph-name="E" unicode="E" horiz-adv-x="583" 
d="M175 317v-231h365v-86h-457v700h447v-86h-355v-212h317v-85h-317z" />
    <glyph glyph-name="F" unicode="F" horiz-adv-x="559" 
d="M523 700v-87h-348v-227h302v-85h-302v-301h-92v700h440z" />
    <glyph glyph-name="G" unicode="G" horiz-adv-x="750" 
d="M389 350h292v-350h-60l-18 106q-35 -49 -96 -83t-136 -34q-88 0 -164 47.5t-121 130t-45 183.5t45 183.5t121 130t164 47.5q74 0 137 -31.5t105.5 -84t56.5 -114.5h-94q-22 61 -75 102t-130 41q-63 0 -117.5 -35t-87.5 -97.5t-33 -141.5t33 -141.5t87.5 -97.5t117.5 -35
q60 0 107.5 26.5t75.5 70.5t32 96h-197v81z" />
    <glyph glyph-name="H" unicode="H" horiz-adv-x="690" 
d="M514 401v299h92v-700h-92v314h-339v-314h-92v700h92v-299h339z" />
    <glyph glyph-name="I" unicode="I" horiz-adv-x="259" 
d="M175 0h-92v700h92v-700z" />
    <glyph glyph-name="J" unicode="J" horiz-adv-x="531" 
d="M119 17q-50 28 -77.5 75.5t-27.5 104.5h91q1 -31 17 -59t45.5 -45t66.5 -17q58 0 92.5 36t34.5 94v494h92v-494q0 -63 -27 -112.5t-77 -77t-115 -27.5t-115 28z" />
    <glyph glyph-name="K" unicode="K" horiz-adv-x="568" 
d="M276 359l301 -359h-117l-285 344v-344h-92v700h92v-334l275 334h110z" />
    <glyph glyph-name="L" unicode="L" horiz-adv-x="524" 
d="M514 0h-431v700h92v-613h339v-87z" />
    <glyph glyph-name="M" unicode="M" horiz-adv-x="839" 
d="M421 137l252 563h83v-700h-90v490l-220 -490h-54l-218 486v-486h-91v700h87z" />
    <glyph glyph-name="N" unicode="N" horiz-adv-x="699" 
d="M525 163v537h91v-700h-86l-356 537v-537h-91v700h86z" />
    <glyph glyph-name="O" unicode="O" horiz-adv-x="742" 
d="M207 36.5q-76 47.5 -121 130t-45 183.5t45 183.5t121 130t164 47.5t164 -47.5t121 -130t45 -183.5t-45 -183.5t-121 -130t-164 -47.5t-164 47.5zM489 111q55 35 87.5 97.5t32.5 141.5t-32.5 141.5t-87.5 97.5t-118 35t-117.5 -35t-87.5 -97.5t-33 -141.5t33 -141.5
t87.5 -97.5t117.5 -35t118 35z" />
    <glyph glyph-name="P" unicode="P" horiz-adv-x="591" 
d="M319 700q63 0 116 -29.5t83.5 -80.5t30.5 -112q0 -62 -30.5 -113t-83 -80.5t-116.5 -29.5h-144v-255h-92v700h236zM318 342q60 0 99.5 38.5t39.5 97.5q0 58 -40 96.5t-99 38.5h-143v-271h143z" />
    <glyph glyph-name="Q" unicode="Q" horiz-adv-x="742" 
d="M678.5 219q-22.5 -62 -62.5 -111l67 -66l-56 -59l-70 69q-40 -30 -88 -46.5t-98 -16.5q-88 0 -164 47.5t-121 130t-45 183.5t45 183.5t121 130t164 47.5t164 -47.5t121 -130t45 -183.5q0 -69 -22.5 -131zM495 113l-100 99l56 58l103 -101q57 77 57 181q0 79 -33 142
t-88 98t-119 35t-119 -35t-88 -98t-33 -142t33 -142t88 -98t119 -35q65 0 124 38z" />
    <glyph glyph-name="R" unicode="R" horiz-adv-x="616" 
d="M470 0l-158 282h-137v-282h-92v700h256q63 0 114.5 -28t80.5 -76t29 -107q0 -70 -43 -123t-114 -73l171 -293h-107zM175 614v-247h163q58 0 95.5 34.5t37.5 86.5q0 55 -37.5 90.5t-95.5 35.5h-163z" />
    <glyph glyph-name="S" unicode="S" horiz-adv-x="564" 
d="M158.5 17q-54.5 28 -84.5 78t-34 114h92q5 -63 45 -99.5t109 -36.5q68 0 104.5 30.5t36.5 78.5q0 37 -21.5 61.5t-53 39.5t-87.5 34q-67 22 -108.5 42.5t-70.5 59.5t-29 101q0 55 26.5 98.5t76.5 68t118 24.5t119 -28t79.5 -77t31.5 -110h-92q-3 59 -40.5 95t-97.5 36
q-61 0 -95 -30t-34 -77q0 -36 20.5 -59t52 -37t84.5 -31q69 -23 111 -43.5t72 -60.5t30 -105q0 -87 -61.5 -141t-172.5 -54q-72 0 -126.5 28z" />
    <glyph glyph-name="T" unicode="T" horiz-adv-x="548" 
d="M320 0h-92v613h-212v87h516v-87h-212v-613z" />
    <glyph glyph-name="U" unicode="U" horiz-adv-x="676" 
d="M202 23.5q-59 34.5 -91.5 95t-32.5 137.5v444h92v-444q0 -82 46 -131t122 -49t122 49t46 131v444h92v-444q0 -77 -32.5 -137.5t-91.5 -95t-136 -34.5t-136 34.5z" />
    <glyph glyph-name="V" unicode="V" horiz-adv-x="623" 
d="M314 119l205 581h94l-254 -700h-96l-253 700h98z" />
    <glyph glyph-name="W" unicode="W" horiz-adv-x="884" 
d="M628 174l154 526h92l-213 -700h-70l-149 513l-148 -513h-71l-213 700h95l154 -526l150 526h67z" />
    <glyph glyph-name="X" unicode="X" horiz-adv-x="589" 
d="M348 355l229 -355h-107l-177 283l-179 -283h-102l229 355l-218 345h105l168 -273l167 273h103z" />
    <glyph glyph-name="Y" unicode="Y" horiz-adv-x="551" 
d="M277 364l176 336h98l-230 -430v-270h-92v270l-229 430h101z" />
    <glyph glyph-name="Z" unicode="Z" horiz-adv-x="554" 
d="M504 636l-352 -550h365v-86h-480v64l351 550h-340v86h456v-64z" />
    <glyph glyph-name="bracketleft" unicode="[" horiz-adv-x="317" 
d="M294 -200h-211v900h211v-80h-126v-740h126v-80z" />
    <glyph glyph-name="backslash" unicode="\" horiz-adv-x="371" 
d="M371 -200h-83l-288 900h83z" />
    <glyph glyph-name="bracketright" unicode="]" horiz-adv-x="317" 
d="M234 -200h-211v80h126v740h-126v80h211v-900z" />
    <glyph glyph-name="asciicircum" unicode="^" horiz-adv-x="415" 
d="M232 700l151 -318h-79l-97 211l-98 -211h-77l152 318h48z" />
    <glyph glyph-name="underscore" unicode="_" horiz-adv-x="305" 
d="M325 -186h-345v78h345v-78z" />
    <glyph glyph-name="grave" unicode="`" horiz-adv-x="223" 
d="M193 563h-66l-97 142h94z" />
    <glyph glyph-name="a" unicode="a" horiz-adv-x="506" 
d="M350 489.5q44 -24.5 68.5 -69t24.5 -101.5v-319h-65l-18 63h-5q-20 -28 -58 -51t-93 -23q-50 0 -88 20t-59 54.5t-21 76.5q0 47 28.5 83.5t80 56.5t117.5 20h94v23q0 51 -29.5 81.5t-77.5 30.5q-45 0 -71 -23t-33 -59h-87q5 43 29.5 80t66.5 59t95 22q57 0 101 -24.5z
M318 101.5q38 36.5 38 91.5v38h-88q-70 0 -108 -23t-38 -64q0 -36 25 -57.5t71 -21.5q62 0 100 36.5z" />
    <glyph glyph-name="b" unicode="b" horiz-adv-x="585" 
d="M220.5 14q-41.5 25 -59.5 49h-5l-19 -63h-64v700h86v-258h5q16 23 58 47.5t94 24.5q63 0 116 -33.5t84.5 -93.5t31.5 -135t-31.5 -135t-84.5 -94t-116 -34q-54 0 -95.5 25zM386.5 93q34.5 23 55 64.5t20.5 94.5t-20.5 94t-55 64t-75.5 23t-76 -23t-55.5 -64t-20.5 -94
t20.5 -94.5t55.5 -64.5t76 -23t75.5 23z" />
    <glyph glyph-name="c" unicode="c" horiz-adv-x="537" 
d="M158.5 23.5q-55.5 34.5 -88.5 95t-33 133.5t33 133t88.5 94.5t121.5 34.5q58 0 105.5 -27t78.5 -71t41 -95h-86q-14 49 -49.5 80.5t-89.5 31.5q-42 0 -78 -23t-57.5 -64t-21.5 -94t21.5 -94.5t57 -64.5t78.5 -23q54 0 89.5 31.5t49.5 80.5h86q-10 -51 -41 -95t-78.5 -71
t-105.5 -27q-66 0 -121.5 34.5z" />
    <glyph glyph-name="d" unicode="d" horiz-adv-x="585" 
d="M153 23q-53 34 -84.5 94t-31.5 135t31.5 135t84.5 93.5t116 33.5q52 0 94 -24.5t58 -47.5h5v258h86v-700h-64l-19 63h-5q-18 -24 -59.5 -49t-95.5 -25q-63 0 -116 34zM350 93q35 23 55.5 64.5t20.5 94.5t-20.5 94t-55.5 64t-76 23t-75.5 -23t-55 -64t-20.5 -94
t20.5 -94.5t55 -64.5t75.5 -23t76 23z" />
    <glyph glyph-name="e" unicode="e" horiz-adv-x="548" 
d="M507 214h-382q10 -68 52 -107t104 -39q82 0 124 67h89q-24 -61 -82 -103.5t-132 -42.5q-67 0 -123 34t-88 94t-32 135q0 73 33 133t88.5 94.5t120.5 34.5t118 -33t83.5 -90t30.5 -127q0 -34 -4 -50zM177.5 393.5q-43.5 -41.5 -53.5 -108.5h303q-8 66 -48.5 108t-99.5 42
q-58 0 -101.5 -41.5z" />
    <glyph glyph-name="f" unicode="f" horiz-adv-x="309" 
d="M203 607.5q-21 -22.5 -21 -67.5v-37h115v-79h-114v-424h-86v424h-70v79h70v41q0 78 41.5 122.5t106.5 44.5q25 0 52 -9v-78q-16 6 -35 6q-38 0 -59 -22.5z" />
    <glyph glyph-name="g" unicode="g" horiz-adv-x="569" 
d="M171 -168q-46 22 -74 57.5t-38 75.5h87q12 -35 46.5 -55.5t84.5 -20.5q63 0 100.5 36t37.5 98v67h-5q-15 -23 -55 -47.5t-91 -24.5q-61 0 -113.5 32.5t-83 89t-30.5 125.5q0 70 30.5 127t82.5 89.5t113 32.5q53 0 94 -25t56 -49h5l19 63h64v-480q0 -97 -60.5 -155
t-162.5 -58q-61 0 -107 22zM341.5 119q33.5 22 53.5 60.5t20 85.5q0 48 -20 87t-53.5 61t-72.5 22t-72.5 -22t-53.5 -61t-20 -87q0 -47 20 -85.5t53.5 -60.5t72.5 -22t72.5 22z" />
    <glyph glyph-name="h" unicode="h" horiz-adv-x="570" 
d="M73 0v700h86v-260h5q18 27 56.5 50.5t88.5 23.5q56 0 101 -27.5t71 -77.5t26 -116v-293h-87v290q0 65 -36 104t-92 39q-59 0 -96 -39t-37 -104v-290h-86z" />
    <glyph glyph-name="i" unicode="i" horiz-adv-x="223" 
d="M154 0h-86v503h86v-503zM72.5 594q-15.5 16 -15.5 39q0 24 15.5 39t38.5 15q24 0 39.5 -15t15.5 -39q0 -23 -16 -39t-39 -16t-38.5 16z" />
    <glyph glyph-name="j" unicode="j" horiz-adv-x="223" 
d="M-45 -176v78q17 -6 34 -6q38 0 58.5 22.5t20.5 67.5v517h86v-521q0 -78 -41 -122.5t-106 -44.5q-25 0 -52 9zM72.5 594q-15.5 16 -15.5 39q0 24 15.5 39t38.5 15q24 0 39.5 -15t15.5 -39q0 -23 -16 -39t-39 -16t-38.5 16z" />
    <glyph glyph-name="k" unicode="k" horiz-adv-x="474" 
d="M254 262l229 -262h-110l-214 250v-250h-86v700h86v-434l199 237h103z" />
    <glyph glyph-name="l" unicode="l" horiz-adv-x="233" 
d="M159 0h-86v700h86v-700z" />
    <glyph glyph-name="m" unicode="m" horiz-adv-x="806" 
d="M659 489q39 -25 61 -72.5t22 -110.5v-306h-86v304q0 61 -28.5 95t-73.5 34t-75.5 -35.5t-30.5 -93.5v-304h-86v304q0 61 -28.5 95t-73.5 34t-75.5 -35t-30.5 -94v-304h-86v503h64l19 -63h5q16 27 47.5 50.5t75.5 23.5q55 0 91 -28t52 -62q20 35 58 62.5t92 27.5
q48 0 87 -25z" />
    <glyph glyph-name="n" unicode="n" horiz-adv-x="565" 
d="M68 0v503h64l19 -63h5q18 28 56 51t88 23q58 0 104 -27.5t72 -77.5t26 -116v-293h-87v290q0 65 -36 104t-92 39q-59 0 -96 -39t-37 -104v-290h-86z" />
    <glyph glyph-name="o" unicode="o" horiz-adv-x="559" 
d="M158.5 23.5q-55.5 34.5 -88.5 95t-33 133.5t33 133t88.5 94.5t121.5 34.5q65 0 121 -34.5t89 -94.5t33 -133t-33 -133.5t-89 -95t-121 -34.5q-66 0 -121.5 34.5zM358 93q36 23 57 64.5t21 94.5t-21 94t-57 64t-78 23t-78 -23t-57.5 -64t-21.5 -94t21.5 -94.5t57 -64.5
t78.5 -23q42 0 78 23z" />
    <glyph glyph-name="p" unicode="p" horiz-adv-x="580" 
d="M68 -180v683h64l19 -63h5q18 24 59.5 49t95.5 25q63 0 116 -33.5t84.5 -93.5t31.5 -135t-31.5 -135t-84.5 -94t-116 -34q-52 0 -94 24.5t-58 47.5h-5v-241h-86zM381.5 93q34.5 23 55 64.5t20.5 94.5t-20.5 94t-55 64t-75.5 23t-76 -23t-55.5 -64t-20.5 -94t20.5 -94.5
t55.5 -64.5t76 -23t75.5 23z" />
    <glyph glyph-name="q" unicode="q" horiz-adv-x="580" 
d="M426 -180v241h-5q-16 -23 -58 -47.5t-94 -24.5q-63 0 -116 34t-84.5 94t-31.5 135t31.5 135t84.5 93.5t116 33.5q54 0 95.5 -25t59.5 -49h5l19 63h64v-683h-86zM350 93q35 23 55.5 64.5t20.5 94.5t-20.5 94t-55.5 64t-76 23t-75.5 -23t-55 -64t-20.5 -94t20.5 -94.5
t55 -64.5t75.5 -23t76 23z" />
    <glyph glyph-name="r" unicode="r" horiz-adv-x="334" 
d="M68 0v503h64l19 -63h5q18 27 53 50.5t77 23.5q24 0 39 -4v-87q-16 5 -39 5q-59 0 -95.5 -39t-36.5 -106v-283h-86z" />
    <glyph glyph-name="s" unicode="s" horiz-adv-x="446" 
d="M130.5 11q-42.5 22 -67.5 59t-28 80h86q4 -38 32 -61.5t75 -23.5q45 0 69.5 19.5t24.5 50.5q0 33 -27.5 50t-86.5 36q-52 17 -83.5 32t-54 43.5t-22.5 73.5q0 40 21 72.5t60.5 52t91.5 19.5q51 0 91 -21t63 -56.5t26 -78.5h-85q-5 38 -28.5 59t-66.5 21q-41 0 -64 -18.5
t-23 -46.5q0 -32 27 -48.5t84 -34.5q52 -16 84.5 -31.5t55.5 -45t23 -75.5q0 -65 -48 -107t-132 -42q-55 0 -97.5 22z" />
    <glyph glyph-name="t" unicode="t" horiz-adv-x="335" 
d="M142.5 34q-41.5 45 -41.5 123v267h-86v76h38q29 0 45 15.5t16 44.5v75h73v-132h114v-79h-114v-264q0 -45 21 -67.5t58 -22.5q20 0 35 7v-79q-27 -9 -52 -9q-65 0 -106.5 45z" />
    <glyph glyph-name="u" unicode="u" horiz-adv-x="565" 
d="M160.5 16.5q-45.5 27.5 -71.5 77.5t-26 116v293h86v-290q0 -65 36.5 -104t92.5 -39q59 0 95.5 39t36.5 104v290h87v-503h-65l-18 63h-5q-18 -27 -56.5 -50.5t-88.5 -23.5q-58 0 -103.5 27.5z" />
    <glyph glyph-name="v" unicode="v" horiz-adv-x="490" 
d="M247 110l149 393h89l-199 -503h-81l-200 503h92z" />
    <glyph glyph-name="w" unicode="w" horiz-adv-x="701" 
d="M494 138l115 365h87l-167 -503h-68l-111 354l-110 -354h-68l-167 503h91l114 -363l113 363h57z" />
    <glyph glyph-name="x" unicode="x" horiz-adv-x="470" 
d="M289 257l174 -257h-101l-129 196l-129 -196h-96l173 257l-162 246h98l120 -187l119 187h95z" />
    <glyph glyph-name="y" unicode="y" horiz-adv-x="487" 
d="M393 503h89l-216 -542q-33 -83 -67 -114.5t-79 -31.5q-20 0 -47 9v78q17 -6 33 -6q27 0 45.5 15t32.5 50l20 51l-199 491h93l149 -384z" />
    <glyph glyph-name="z" unicode="z" horiz-adv-x="428" 
d="M389 431l-256 -352h264v-79h-366v72l257 352h-252v79h353v-72z" />
    <glyph glyph-name="braceleft" unicode="{" horiz-adv-x="345" 
d="M202 351q0 -44 -19 -68t-47 -33q28 -9 47 -33t19 -68v-194q0 -36 19.5 -55.5t53.5 -19.5h46v-80h-50q-74 0 -114 39t-40 111v195q0 36 -17.5 52t-57.5 16v74q40 0 57.5 16t17.5 52v195q0 72 40 111t114 39h50v-80h-46q-34 0 -53.5 -19.5t-19.5 -55.5v-194z" />
    <glyph glyph-name="bar" unicode="|" horiz-adv-x="343" 
d="M213 -180h-83v880h83v-880z" />
    <glyph glyph-name="braceright" unicode="}" horiz-adv-x="345" 
d="M227 355q0 -36 18 -52t58 -16v-74q-40 0 -58 -16t-18 -52v-195q0 -72 -40 -111t-113 -39h-51v80h47q34 0 53.5 19.5t19.5 55.5v194q0 44 19 68t47 33q-28 9 -47 33t-19 68v194q0 36 -19.5 55.5t-53.5 19.5h-46v80h50q73 0 113 -39t40 -111v-195z" />
    <glyph glyph-name="asciitilde" unicode="~" horiz-adv-x="570" 
d="M329.5 292.5q-24.5 11.5 -58.5 33.5q-27 18 -44 26.5t-35 8.5q-25 0 -40.5 -19t-15.5 -56h-72q0 73 35 112.5t87 39.5q30 0 54.5 -11.5t58.5 -33.5q27 -18 44 -26.5t35 -8.5q25 0 40.5 19t15.5 56h72q0 -73 -35 -112.5t-87 -39.5q-30 0 -54.5 11.5z" />
    <glyph glyph-name="uni00A0" unicode="&#xa0;" horiz-adv-x="242" 
 />
    <glyph glyph-name="exclamdown" unicode="&#xa1;" horiz-adv-x="287" 
d="M101 400q-18 18 -18 43t18 42.5t43 17.5t42.5 -17.5t17.5 -42.5q0 -26 -17.5 -43.5t-42.5 -17.5t-43 18zM196 -180h-105l17 488h72z" />
    <glyph glyph-name="cent" unicode="&#xa2;" horiz-adv-x="537" 
d="M369.5 101q35.5 32 49.5 81h86q-13 -68 -62.5 -121.5t-120.5 -67.5v-98h-84v98q-56 10 -102 46.5t-72.5 91.5t-26.5 121q0 65 26.5 120t72.5 91.5t102 46.5v98h84v-98q71 -14 120.5 -67.5t62.5 -121.5h-86q-14 49 -49.5 81t-89.5 32q-43 0 -78.5 -23t-57 -64.5
t-21.5 -94.5q0 -54 21.5 -95.5t57 -64.5t78.5 -23q54 0 89.5 32z" />
    <glyph glyph-name="sterling" unicode="&#xa3;" horiz-adv-x="575" 
d="M204 165q0 -26 -10 -46t-26 -32h362v-87h-488v87q31 2 50.5 22.5t19.5 55.5v123h-70v83h70v127q0 60 28.5 108.5t77.5 76.5t109 28q59 0 106.5 -27.5t75 -73.5t30.5 -102h-92q-5 53 -37 85t-83 32q-53 0 -88 -36t-35 -91v-127h188v-83h-188v-123z" />
    <glyph glyph-name="currency" unicode="&#xa4;" horiz-adv-x="493" 
d="M389 262l61 -61l-49 -49l-58 58q-42 -31 -96 -31t-97 30l-57 -57l-50 49l61 61q-21 40 -21 87q0 49 22 87l-62 62l50 48l58 -57q43 30 96 30t96 -30l58 57l49 -48l-61 -61q21 -40 21 -88q0 -47 -21 -87zM312 277q26 29 26 72q0 44 -26 73t-65 29t-65.5 -29t-26.5 -73
q0 -43 26.5 -72t65.5 -29t65 29z" />
    <glyph glyph-name="yen" unicode="&#xa5;" horiz-adv-x="568" 
d="M462 700h97l-192 -361h116v-77h-153v-72h153v-77h-153v-113h-92v113h-154v77h154v72h-154v77h117l-193 361h101l177 -335z" />
    <glyph glyph-name="brokenbar" unicode="&#xa6;" horiz-adv-x="343" 
d="M213 355h-83v345h83v-345zM213 -180h-83v345h83v-345z" />
    <glyph glyph-name="section" unicode="&#xa7;" horiz-adv-x="499" 
d="M399.5 82.5q15.5 -28.5 15.5 -68.5q0 -41 -21 -75t-59 -54t-88 -20q-77 0 -125 45.5t-52 113.5h81q5 -37 29.5 -60.5t67.5 -23.5q38 0 61.5 20.5t23.5 53.5q0 38 -30.5 61.5t-92.5 50.5q-53 24 -85 43.5t-54.5 51t-22.5 77.5q0 49 27.5 84.5t69.5 59.5q-29 23 -45 51.5
t-16 68.5q0 41 21 75t59.5 54t88.5 20q76 0 124 -45.5t53 -113.5h-81q-5 37 -30 60.5t-67 23.5q-39 0 -62.5 -20.5t-23.5 -53.5q0 -38 30.5 -61.5t92.5 -50.5q53 -24 85 -43t55 -51t23 -78q0 -49 -27.5 -84.5t-69.5 -59.5q29 -23 44.5 -51.5zM146 254.5q16 -19.5 39.5 -32.5
t67.5 -33l31 -14q37 15 61.5 39.5t24.5 60.5q0 27 -16 46.5t-39.5 32.5t-66.5 33q-6 2 -32 14q-37 -15 -61.5 -39.5t-24.5 -59.5q0 -28 16 -47.5z" />
    <glyph glyph-name="dieresis" unicode="&#xa8;" horiz-adv-x="330" 
d="M45 597q-15 15 -15 36t15 36t36 15t36 -14.5t15 -36.5t-15 -36.5t-36 -14.5t-36 15zM213 596.5q-15 14.5 -15 36.5t15 36.5t36 14.5t36 -15t15 -36t-15 -36t-36 -15t-36 14.5z" />
    <glyph glyph-name="copyright" unicode="&#xa9;" horiz-adv-x="787" 
d="M216.5 36.5q-80.5 47.5 -127.5 130t-47 183.5t47 183.5t127.5 130t176.5 47.5q97 0 177.5 -47.5t127.5 -130t47 -183.5t-47 -183.5t-127.5 -130t-177.5 -47.5q-96 0 -176.5 47.5zM536.5 92q64.5 38 101.5 105.5t37 152.5t-37 152.5t-101.5 105.5t-143.5 38
q-78 0 -142.5 -38t-101.5 -105.5t-37 -152.5t37 -152.5t101.5 -105.5t142.5 -38q79 0 143.5 38zM309.5 189q-39.5 24 -63 66.5t-23.5 94.5t23.5 94.5t63 66.5t83.5 24q64 0 109 -38.5t55 -92.5h-66q-10 31 -34 50.5t-64 19.5q-27 0 -51 -15.5t-38.5 -44t-14.5 -64.5
t14.5 -64.5t38.5 -44t51 -15.5q40 0 64 19.5t34 50.5h66q-10 -54 -55 -92.5t-109 -38.5q-44 0 -83.5 24z" />
    <glyph glyph-name="ordfeminine" unicode="&#xaa;" horiz-adv-x="307" 
d="M238.5 678.5q32.5 -32.5 32.5 -86.5v-188h-47l-13 34h-5q-34 -40 -83 -40q-41 0 -70 25t-29 64q0 41 34 70t95 29h56v5q0 32 -15 49.5t-42 17.5q-23 0 -37 -12.5t-17 -30.5h-61q6 40 36.5 68t79.5 28q53 0 85.5 -32.5zM189.5 470q19.5 19 19.5 54v13h-51q-38 0 -55 -12.5
t-17 -33.5q0 -19 14 -29.5t38 -10.5q32 0 51.5 19z" />
    <glyph glyph-name="guillemotleft" unicode="&#xab;" horiz-adv-x="468" 
d="M245 84h-86l-121 181l121 181h86l-121 -181zM429 84h-86l-120 181l120 181h86l-121 -181z" />
    <glyph glyph-name="logicalnot" unicode="&#xac;" horiz-adv-x="570" 
d="M505 251h-81v101h-358v79h439v-180z" />
    <glyph glyph-name="uni00AD" unicode="&#xad;" horiz-adv-x="399" 
d="M359 227h-319v80h319v-80z" />
    <glyph glyph-name="registered" unicode="&#xae;" horiz-adv-x="411" 
d="M291.5 688.5q39.5 -22.5 63.5 -62t24 -87.5t-24 -87t-63.5 -61.5t-85.5 -22.5t-86 22.5t-64 61.5t-24 87t24 87.5t64 62t86 22.5t85.5 -22.5zM289 454q34 33 34 85q0 53 -34 86t-83 33q-50 0 -84 -33t-34 -86q0 -52 34 -85t84 -33q49 0 83 33zM271 537.5
q-9 -13.5 -25 -20.5l39 -59h-55l-34 53h-8v-53h-49v168h78q28 0 45.5 -16.5t17.5 -40.5q0 -18 -9 -31.5zM188 585v-33h21q22 0 22 17q0 16 -22 16h-21z" />
    <glyph glyph-name="macron" unicode="&#xaf;" horiz-adv-x="324" 
d="M294 601h-264v66h264v-66z" />
    <glyph glyph-name="degree" unicode="&#xb0;" horiz-adv-x="358" 
d="M105.5 433q-33.5 19 -53.5 53t-20 76q0 43 20 77t53.5 53t73.5 19t73.5 -19t53.5 -53t20 -77q0 -42 -20 -76t-53.5 -53t-73.5 -19t-73.5 19zM234.5 500q23.5 23 23.5 62t-23.5 62.5t-55.5 23.5t-55.5 -23.5t-23.5 -62.5t23.5 -62t55.5 -23t55.5 23z" />
    <glyph glyph-name="plusminus" unicode="&#xb1;" horiz-adv-x="570" 
d="M500 408v-78h-174v-174h174v-78h-429v78h173v174h-173v78h173v181h82v-181h174z" />
    <glyph glyph-name="uni00B2" unicode="&#xb2;" horiz-adv-x="305" 
d="M133 521h139v-62h-236v51l129 131q19 19 30 35.5t11 33.5q0 20 -14 32t-37 12q-26 0 -42 -15.5t-16 -39.5h-67q2 51 37 84t88 33q52 0 85 -30t33 -73q0 -50 -50 -100z" />
    <glyph glyph-name="uni00B3" unicode="&#xb3;" horiz-adv-x="318" 
d="M269 611.5q17 -21.5 17 -52.5q0 -46 -33.5 -75.5t-91.5 -29.5q-57 0 -92.5 33t-38.5 84h66q2 -24 18.5 -40.5t45.5 -16.5q27 0 43.5 13.5t16.5 35.5t-16 35.5t-45 13.5h-33v55h32q23 0 36.5 12t13.5 31q0 21 -14 33.5t-36 12.5q-25 0 -40.5 -14.5t-15.5 -36.5h-66
q1 46 35 78.5t87 32.5q51 0 83.5 -29.5t32.5 -71.5q0 -25 -13 -43t-33 -28q24 -11 41 -32.5z" />
    <glyph glyph-name="acute" unicode="&#xb4;" horiz-adv-x="223" 
d="M97 563h-67l69 142h94z" />
    <glyph glyph-name="uni00B5" unicode="&#xb5;" horiz-adv-x="565" 
d="M68 -180v683h86v-289q0 -65 36.5 -104t92.5 -39q59 0 95.5 39t36.5 104v289h87v-503h-65l-18 63h-5q-17 -27 -54 -50t-83 -23q-72 0 -118 48h-5v-218h-86z" />
    <glyph glyph-name="paragraph" unicode="&#xb6;" horiz-adv-x="558" 
d="M475 700v-800h-78v728h-113v-728h-78v460q-76 4 -123.5 51.5t-47.5 118.5q0 49 23.5 87.5t65 60.5t94.5 22h257z" />
    <glyph glyph-name="periodcentered" unicode="&#xb7;" horiz-adv-x="242" 
d="M78.5 223.5q-17.5 17.5 -17.5 43.5q0 25 17.5 42.5t42.5 17.5t43 -17.5t18 -42.5t-17.5 -43t-43.5 -18q-25 0 -42.5 17.5z" />
    <glyph glyph-name="cedilla" unicode="&#xb8;" horiz-adv-x="236" 
d="M114 -41q43 -3 67.5 -25.5t24.5 -55.5q0 -40 -28.5 -63t-87.5 -23q-32 0 -60 10v49q23 -7 49 -7q67 0 67 36q0 16 -15 25.5t-47 9.5q-21 0 -38 -5l43 106h52z" />
    <glyph glyph-name="uni00B9" unicode="&#xb9;" horiz-adv-x="242" 
d="M24 743l102 68h52v-352h-69v266l-50 -34z" />
    <glyph glyph-name="ordmasculine" unicode="&#xba;" horiz-adv-x="363" 
d="M107.5 418.5q-34.5 20.5 -55.5 56t-21 79.5t21 80t55.5 56.5t74.5 20.5q39 0 73.5 -20.5t55.5 -56.5t21 -80t-21 -79.5t-55.5 -56t-73.5 -20.5q-40 0 -74.5 20.5zM239 487q24 26 24 67q0 42 -23.5 68t-57.5 26t-58 -26t-24 -68t24 -67.5t58 -25.5q33 0 57 26z" />
    <glyph glyph-name="guillemotright" unicode="&#xbb;" horiz-adv-x="468" 
d="M125 84h-87l122 181l-122 181h87l120 -181zM309 84h-86l121 181l-121 181h86l120 -181z" />
    <glyph glyph-name="onequarter.dlig" unicode="&#xbc;" horiz-adv-x="631" 
d="M24 632l102 68h52v-352h-69v266l-50 -34zM130 0h-78l427 700h79zM560 127h40v-60h-40v-67h-68v67h-160v52l148 233h80v-225zM494 127v137l-87 -137h87z" />
    <glyph glyph-name="onehalf.dlig" unicode="&#xbd;" horiz-adv-x="672" 
d="M24 632l102 68h52v-352h-69v266l-50 -34zM130 0h-78l427 700h79zM500 62h139v-62h-236v51l129 131q19 19 30 35.5t11 33.5q0 20 -14 32t-37 12q-26 0 -42 -15.5t-16 -39.5h-67q2 51 37 84t88 33q52 0 85 -30t33 -73q0 -50 -50 -100z" />
    <glyph glyph-name="threequarters.dlig" unicode="&#xbe;" horiz-adv-x="707" 
d="M269 500.5q17 -21.5 17 -52.5q0 -46 -33.5 -75.5t-91.5 -29.5q-57 0 -92.5 33t-38.5 84h66q2 -24 18.5 -40.5t45.5 -16.5q27 0 43.5 13.5t16.5 35.5t-16 35.5t-45 13.5h-33v55h32q23 0 36.5 12t13.5 31q0 21 -14 33.5t-36 12.5q-25 0 -40.5 -14.5t-15.5 -36.5h-66
q1 46 35 78.5t87 32.5q51 0 83.5 -29.5t32.5 -71.5q0 -25 -13 -43t-33 -28q24 -11 41 -32.5zM206 0h-78l427 700h79zM636 127h40v-60h-40v-67h-68v67h-160v52l148 233h80v-225zM570 127v137l-87 -137h87z" />
    <glyph glyph-name="questiondown" unicode="&#xbf;" horiz-adv-x="485" 
d="M208.5 399.5q-17.5 17.5 -17.5 43.5q0 25 17.5 42.5t42.5 17.5t42.5 -17.5t17.5 -42.5q0 -26 -17.5 -43.5t-42.5 -17.5t-42.5 17.5zM139 -160.5q-46 24.5 -71.5 66t-25.5 90.5q0 38 12 66.5t28.5 47.5t45.5 46q40 36 59.5 65t19.5 75v12h89v-12q0 -44 -13 -76.5t-31 -54
t-48 -48.5q-36 -32 -53 -56.5t-17 -60.5q0 -43 30 -71.5t79 -28.5q53 0 86 37t33 95v11h91v-11q0 -60 -27 -109.5t-75 -78.5t-108 -29q-58 0 -104 24.5z" />
    <glyph glyph-name="Agrave" unicode="&#xc0;" horiz-adv-x="620" 
d="M618 0h-98l-61 168h-302l-61 -168h-94l264 700h88zM427 253l-119 323l-119 -323h238zM358 755h-70l-102 137h97z" />
    <glyph glyph-name="Aacute" unicode="&#xc1;" horiz-adv-x="620" 
d="M618 0h-98l-61 168h-302l-61 -168h-94l264 700h88zM427 253l-119 323l-119 -323h238zM333 755h-70l74 137h97z" />
    <glyph glyph-name="Acircumflex" unicode="&#xc2;" horiz-adv-x="620" 
d="M618 0h-98l-61 168h-302l-61 -168h-94l264 700h88zM427 253l-119 323l-119 -323h238zM350 892l110 -137h-83l-67 85l-67 -85h-81l110 137h78z" />
    <glyph glyph-name="Atilde" unicode="&#xc3;" horiz-adv-x="620" 
d="M618 0h-98l-61 168h-302l-61 -168h-94l264 700h88zM427 253l-119 323l-119 -323h238zM331.5 770.5q-16.5 9.5 -35.5 27.5q-13 12 -22 18t-20 6q-16 0 -27 -15t-11 -40h-61q0 58 26.5 88.5t66.5 30.5q25 0 42 -10t35 -27q14 -12 22.5 -17.5t18.5 -5.5q17 0 28 14.5
t11 39.5h60q0 -57 -26.5 -88t-65.5 -31q-25 0 -41.5 9.5z" />
    <glyph glyph-name="Adieresis" unicode="&#xc4;" horiz-adv-x="620" 
d="M618 0h-98l-61 168h-302l-61 -168h-94l264 700h88zM427 253l-119 323l-119 -323h238zM184 787q-15 15 -15 36q0 22 15 37t36 15q22 0 37 -15t15 -37t-15 -36.5t-37 -14.5q-21 0 -36 15zM364.5 787q-15.5 15 -15.5 36q0 22 15.5 37t36.5 15q20 0 35.5 -15t15.5 -37
q0 -21 -15 -36t-36 -15t-36.5 15z" />
    <glyph glyph-name="Aring" unicode="&#xc5;" horiz-adv-x="620" 
d="M618 0h-98l-61 168h-302l-61 -168h-94l264 700h88zM427 253l-119 323l-119 -323h238zM239.5 783.5q-28.5 27.5 -28.5 67.5t28.5 68t70.5 28t70.5 -28t28.5 -68t-28.5 -67.5t-70.5 -27.5t-70.5 27.5zM342 819q13 12 13 32t-13 32.5t-32 12.5t-32 -12.5t-13 -32.5t13 -32
t32 -12t32 12z" />
    <glyph glyph-name="AE" unicode="&#xc6;" horiz-adv-x="891" 
d="M513 317v-231h335v-86h-425v168h-259l-94 -168h-101l397 700h472v-86h-325v-212h287v-85h-287zM413 614l-202 -361h212v361h-10z" />
    <glyph glyph-name="Ccedilla" unicode="&#xc7;" horiz-adv-x="711" 
d="M675 238q-16 -66 -56 -121t-99.5 -89.5t-131.5 -38.5l-15 -30q43 -3 67.5 -25.5t24.5 -55.5q0 -40 -28.5 -63t-87.5 -23q-32 0 -60 10v49q23 -7 49 -7q67 0 67 36q0 16 -15 25.5t-47 9.5q-21 0 -38 -5l33 81q-81 9 -149 58t-108 128t-40 173q0 101 45 183.5t121 130
t164 47.5q74 0 136.5 -33.5t104.5 -90.5t58 -126h-94q-22 70 -75 116.5t-130 46.5q-63 0 -117.5 -35t-87.5 -97.5t-33 -141.5t33 -141.5t87.5 -97.5t117.5 -35q79 0 133 46t77 116h94z" />
    <glyph glyph-name="Egrave" unicode="&#xc8;" horiz-adv-x="583" 
d="M175 317v-231h365v-86h-457v700h447v-86h-355v-212h317v-85h-317zM355 755h-70l-102 137h97z" />
    <glyph glyph-name="Eacute" unicode="&#xc9;" horiz-adv-x="583" 
d="M175 317v-231h365v-86h-457v700h447v-86h-355v-212h317v-85h-317zM330 755h-70l74 137h97z" />
    <glyph glyph-name="Ecircumflex" unicode="&#xca;" horiz-adv-x="583" 
d="M175 317v-231h365v-86h-457v700h447v-86h-355v-212h317v-85h-317zM347 892l110 -137h-83l-67 85l-67 -85h-81l110 137h78z" />
    <glyph glyph-name="Edieresis" unicode="&#xcb;" horiz-adv-x="583" 
d="M175 317v-231h365v-86h-457v700h447v-86h-355v-212h317v-85h-317zM181 787q-15 15 -15 36q0 22 15 37t36 15q22 0 37 -15t15 -37t-15 -36.5t-37 -14.5q-21 0 -36 15zM361.5 787q-15.5 15 -15.5 36q0 22 15.5 37t36.5 15q20 0 35.5 -15t15.5 -37q0 -21 -15 -36t-36 -15
t-36.5 15z" />
    <glyph glyph-name="Igrave" unicode="&#xcc;" horiz-adv-x="259" 
d="M175 0h-92v700h92v-700zM177 755h-70l-102 137h97z" />
    <glyph glyph-name="Iacute" unicode="&#xcd;" horiz-adv-x="259" 
d="M175 0h-92v700h92v-700zM152 755h-70l74 137h97z" />
    <glyph glyph-name="Icircumflex" unicode="&#xce;" horiz-adv-x="259" 
d="M175 0h-92v700h92v-700zM169 892l110 -137h-83l-67 85l-67 -85h-81l110 137h78z" />
    <glyph glyph-name="Idieresis" unicode="&#xcf;" horiz-adv-x="259" 
d="M175 0h-92v700h92v-700zM19 787q-15 15 -15 36q0 22 15 37t36 15q22 0 37 -15t15 -37t-15 -36.5t-37 -14.5q-21 0 -36 15zM167 787q-15 15 -15 36q0 22 15 37t36 15q22 0 37 -15t15 -37t-15 -36.5t-37 -14.5q-21 0 -36 15z" />
    <glyph glyph-name="Eth" unicode="&#xd0;" horiz-adv-x="690" 
d="M306 700q95 0 173.5 -46t124.5 -126t46 -178q0 -99 -46 -179t-125 -125.5t-173 -45.5h-195v310h-93v80h93v310h195zM306 87q68 0 125.5 34t92 94.5t34.5 134.5t-34.5 134.5t-92 94.5t-125.5 34h-103v-223h145v-80h-145v-223h103z" />
    <glyph glyph-name="Ntilde" unicode="&#xd1;" horiz-adv-x="699" 
d="M525 163v537h91v-700h-86l-356 537v-537h-91v700h86zM376.5 770.5q-16.5 9.5 -35.5 27.5q-13 12 -22 18t-20 6q-16 0 -27 -15t-11 -40h-61q0 58 26.5 88.5t66.5 30.5q25 0 42 -10t35 -27q14 -12 22.5 -17.5t18.5 -5.5q17 0 28 14.5t11 39.5h60q0 -57 -26.5 -88t-65.5 -31
q-25 0 -41.5 9.5z" />
    <glyph glyph-name="Ograve" unicode="&#xd2;" horiz-adv-x="742" 
d="M207 36.5q-76 47.5 -121 130t-45 183.5t45 183.5t121 130t164 47.5t164 -47.5t121 -130t45 -183.5t-45 -183.5t-121 -130t-164 -47.5t-164 47.5zM489 111q55 35 87.5 97.5t32.5 141.5t-32.5 141.5t-87.5 97.5t-118 35t-117.5 -35t-87.5 -97.5t-33 -141.5t33 -141.5
t87.5 -97.5t117.5 -35t118 35zM418 755h-70l-102 137h97z" />
    <glyph glyph-name="Oacute" unicode="&#xd3;" horiz-adv-x="742" 
d="M207 36.5q-76 47.5 -121 130t-45 183.5t45 183.5t121 130t164 47.5t164 -47.5t121 -130t45 -183.5t-45 -183.5t-121 -130t-164 -47.5t-164 47.5zM489 111q55 35 87.5 97.5t32.5 141.5t-32.5 141.5t-87.5 97.5t-118 35t-117.5 -35t-87.5 -97.5t-33 -141.5t33 -141.5
t87.5 -97.5t117.5 -35t118 35zM393 755h-70l74 137h97z" />
    <glyph glyph-name="Ocircumflex" unicode="&#xd4;" horiz-adv-x="742" 
d="M207 36.5q-76 47.5 -121 130t-45 183.5t45 183.5t121 130t164 47.5t164 -47.5t121 -130t45 -183.5t-45 -183.5t-121 -130t-164 -47.5t-164 47.5zM489 111q55 35 87.5 97.5t32.5 141.5t-32.5 141.5t-87.5 97.5t-118 35t-117.5 -35t-87.5 -97.5t-33 -141.5t33 -141.5
t87.5 -97.5t117.5 -35t118 35zM410 892l110 -137h-83l-67 85l-67 -85h-81l110 137h78z" />
    <glyph glyph-name="Otilde" unicode="&#xd5;" horiz-adv-x="742" 
d="M207 36.5q-76 47.5 -121 130t-45 183.5t45 183.5t121 130t164 47.5t164 -47.5t121 -130t45 -183.5t-45 -183.5t-121 -130t-164 -47.5t-164 47.5zM489 111q55 35 87.5 97.5t32.5 141.5t-32.5 141.5t-87.5 97.5t-118 35t-117.5 -35t-87.5 -97.5t-33 -141.5t33 -141.5
t87.5 -97.5t117.5 -35t118 35zM391.5 770.5q-16.5 9.5 -35.5 27.5q-13 12 -22 18t-20 6q-16 0 -27 -15t-11 -40h-61q0 58 26.5 88.5t66.5 30.5q25 0 42 -10t35 -27q14 -12 22.5 -17.5t18.5 -5.5q17 0 28 14.5t11 39.5h60q0 -57 -26.5 -88t-65.5 -31q-25 0 -41.5 9.5z" />
    <glyph glyph-name="Odieresis" unicode="&#xd6;" horiz-adv-x="742" 
d="M207 36.5q-76 47.5 -121 130t-45 183.5t45 183.5t121 130t164 47.5t164 -47.5t121 -130t45 -183.5t-45 -183.5t-121 -130t-164 -47.5t-164 47.5zM489 111q55 35 87.5 97.5t32.5 141.5t-32.5 141.5t-87.5 97.5t-118 35t-117.5 -35t-87.5 -97.5t-33 -141.5t33 -141.5
t87.5 -97.5t117.5 -35t118 35zM244 787q-15 15 -15 36q0 22 15 37t36 15q22 0 37 -15t15 -37t-15 -36.5t-37 -14.5q-21 0 -36 15zM424.5 787q-15.5 15 -15.5 36q0 22 15.5 37t36.5 15q20 0 35.5 -15t15.5 -37q0 -21 -15 -36t-36 -15t-36.5 15z" />
    <glyph glyph-name="multiply" unicode="&#xd7;" horiz-adv-x="570" 
d="M285 306l-133 -134l-54 54l134 134l-134 134l54 54l133 -134l133 134l54 -54l-134 -134l134 -134l-54 -54z" />
    <glyph glyph-name="Oslash" unicode="&#xd8;" horiz-adv-x="742" 
d="M702 651l-72 -77q34 -47 52.5 -104t18.5 -120q0 -101 -45 -183.5t-121 -130t-164 -47.5q-57 0 -110 20.5t-96 58.5l-69 -74l-55 55l71 77q-34 46 -52.5 103.5t-18.5 120.5q0 101 45 183.5t121 130t164 47.5q57 0 110 -20.5t97 -58.5l69 74zM252 590q-55 -35 -88 -98
t-33 -142q0 -90 43 -160l346 377q-32 28 -70 43t-79 15q-64 0 -119 -35zM490 110q55 35 88 98t33 142q0 91 -43 159l-346 -376q32 -28 70 -43t79 -15q64 0 119 35z" />
    <glyph glyph-name="Ugrave" unicode="&#xd9;" horiz-adv-x="676" 
d="M202 23.5q-59 34.5 -91.5 95t-32.5 137.5v444h92v-444q0 -82 46 -131t122 -49t122 49t46 131v444h92v-444q0 -77 -32.5 -137.5t-91.5 -95t-136 -34.5t-136 34.5zM386 755h-70l-102 137h97z" />
    <glyph glyph-name="Uacute" unicode="&#xda;" horiz-adv-x="676" 
d="M202 23.5q-59 34.5 -91.5 95t-32.5 137.5v444h92v-444q0 -82 46 -131t122 -49t122 49t46 131v444h92v-444q0 -77 -32.5 -137.5t-91.5 -95t-136 -34.5t-136 34.5zM361 755h-70l74 137h97z" />
    <glyph glyph-name="Ucircumflex" unicode="&#xdb;" horiz-adv-x="676" 
d="M202 23.5q-59 34.5 -91.5 95t-32.5 137.5v444h92v-444q0 -82 46 -131t122 -49t122 49t46 131v444h92v-444q0 -77 -32.5 -137.5t-91.5 -95t-136 -34.5t-136 34.5zM377 892l110 -137h-83l-67 85l-67 -85h-81l110 137h78z" />
    <glyph glyph-name="Udieresis" unicode="&#xdc;" horiz-adv-x="676" 
d="M202 23.5q-59 34.5 -91.5 95t-32.5 137.5v444h92v-444q0 -82 46 -131t122 -49t122 49t46 131v444h92v-444q0 -77 -32.5 -137.5t-91.5 -95t-136 -34.5t-136 34.5zM211 787q-15 15 -15 36q0 22 15 37t36 15q22 0 37 -15t15 -37t-15 -36.5t-37 -14.5q-21 0 -36 15z
M391.5 787q-15.5 15 -15.5 36q0 22 15.5 37t36.5 15q20 0 35.5 -15t15.5 -37q0 -21 -15 -36t-36 -15t-36.5 15z" />
    <glyph glyph-name="Yacute" unicode="&#xdd;" horiz-adv-x="551" 
d="M277 364l176 336h98l-230 -430v-270h-92v270l-229 430h101zM300 755h-70l74 137h97z" />
    <glyph glyph-name="Thorn" unicode="&#xde;" horiz-adv-x="633" 
d="M368 583q64 0 117 -29.5t83.5 -79.5t30.5 -109q0 -60 -30.5 -110t-83.5 -79t-117 -29h-193v-147h-92v700h92v-117h193zM368 234q60 0 99.5 37.5t39.5 93.5t-39.5 93.5t-99.5 37.5h-193v-262h193z" />
    <glyph glyph-name="germandbls" unicode="&#xdf;" horiz-adv-x="571" 
d="M495.5 311q38.5 -45 38.5 -119q0 -54 -25.5 -98t-71 -69t-102.5 -25h-73v81h71q51 0 83 31.5t32 82.5q0 53 -32.5 86t-82.5 33h-66v78h29q41 0 71.5 33.5t30.5 85.5q0 53 -32.5 86t-85.5 33q-54 0 -87.5 -35.5t-33.5 -97.5v-497h-86v496q0 62 27 111t74.5 76.5
t105.5 27.5q59 0 105.5 -25.5t72.5 -70t26 -99.5q0 -50 -23 -88t-52 -57q48 -15 86.5 -60z" />
    <glyph glyph-name="agrave" unicode="&#xe0;" horiz-adv-x="506" 
d="M350 489.5q44 -24.5 68.5 -69t24.5 -101.5v-319h-65l-18 63h-5q-20 -28 -58 -51t-93 -23q-50 0 -88 20t-59 54.5t-21 76.5q0 47 28.5 83.5t80 56.5t117.5 20h94v23q0 51 -29.5 81.5t-77.5 30.5q-45 0 -71 -23t-33 -59h-87q5 43 29.5 80t66.5 59t95 22q57 0 101 -24.5z
M318 101.5q38 36.5 38 91.5v38h-88q-70 0 -108 -23t-38 -64q0 -36 25 -57.5t71 -21.5q62 0 100 36.5zM296 563h-66l-97 142h94z" />
    <glyph glyph-name="aacute" unicode="&#xe1;" horiz-adv-x="506" 
d="M350 489.5q44 -24.5 68.5 -69t24.5 -101.5v-319h-65l-18 63h-5q-20 -28 -58 -51t-93 -23q-50 0 -88 20t-59 54.5t-21 76.5q0 47 28.5 83.5t80 56.5t117.5 20h94v23q0 51 -29.5 81.5t-77.5 30.5q-45 0 -71 -23t-33 -59h-87q5 43 29.5 80t66.5 59t95 22q57 0 101 -24.5z
M318 101.5q38 36.5 38 91.5v38h-88q-70 0 -108 -23t-38 -64q0 -36 25 -57.5t71 -21.5q62 0 100 36.5zM274 563h-67l69 142h94z" />
    <glyph glyph-name="acircumflex" unicode="&#xe2;" horiz-adv-x="506" 
d="M350 489.5q44 -24.5 68.5 -69t24.5 -101.5v-319h-65l-18 63h-5q-20 -28 -58 -51t-93 -23q-50 0 -88 20t-59 54.5t-21 76.5q0 47 28.5 83.5t80 56.5t117.5 20h94v23q0 51 -29.5 81.5t-77.5 30.5q-45 0 -71 -23t-33 -59h-87q5 43 29.5 80t66.5 59t95 22q57 0 101 -24.5z
M318 101.5q38 36.5 38 91.5v38h-88q-70 0 -108 -23t-38 -64q0 -36 25 -57.5t71 -21.5q62 0 100 36.5zM290 705l105 -142h-81l-63 91l-63 -91h-80l106 142h76z" />
    <glyph glyph-name="atilde" unicode="&#xe3;" horiz-adv-x="506" 
d="M350 489.5q44 -24.5 68.5 -69t24.5 -101.5v-319h-65l-18 63h-5q-20 -28 -58 -51t-93 -23q-50 0 -88 20t-59 54.5t-21 76.5q0 47 28.5 83.5t80 56.5t117.5 20h94v23q0 51 -29.5 81.5t-77.5 30.5q-45 0 -71 -23t-33 -59h-87q5 43 29.5 80t66.5 59t95 22q57 0 101 -24.5z
M318 101.5q38 36.5 38 91.5v38h-88q-70 0 -108 -23t-38 -64q0 -36 25 -57.5t71 -21.5q62 0 100 36.5zM273 580.5q-16 10.5 -35 29.5q-13 13 -22 19.5t-18 6.5q-16 0 -27 -15.5t-11 -45.5h-60q0 62 26 93.5t65 31.5q23 0 39.5 -10.5t34.5 -29.5q14 -14 22.5 -20t18.5 -6
q15 0 26 16t11 44h60q0 -61 -25.5 -92.5t-64.5 -31.5q-24 0 -40 10.5z" />
    <glyph glyph-name="adieresis" unicode="&#xe4;" horiz-adv-x="506" 
d="M350 489.5q44 -24.5 68.5 -69t24.5 -101.5v-319h-65l-18 63h-5q-20 -28 -58 -51t-93 -23q-50 0 -88 20t-59 54.5t-21 76.5q0 47 28.5 83.5t80 56.5t117.5 20h94v23q0 51 -29.5 81.5t-77.5 30.5q-45 0 -71 -23t-33 -59h-87q5 43 29.5 80t66.5 59t95 22q57 0 101 -24.5z
M318 101.5q38 36.5 38 91.5v38h-88q-70 0 -108 -23t-38 -64q0 -36 25 -57.5t71 -21.5q62 0 100 36.5zM132 597q-15 15 -15 36t15 36t36 15t36 -14.5t15 -36.5t-15 -36.5t-36 -14.5t-36 15zM300 596.5q-15 14.5 -15 36.5t15 36.5t36 14.5t36 -15t15 -36t-15 -36t-36 -15
t-36 14.5z" />
    <glyph glyph-name="aring" unicode="&#xe5;" horiz-adv-x="506" 
d="M350 489.5q44 -24.5 68.5 -69t24.5 -101.5v-319h-65l-18 63h-5q-20 -28 -58 -51t-93 -23q-50 0 -88 20t-59 54.5t-21 76.5q0 47 28.5 83.5t80 56.5t117.5 20h94v23q0 51 -29.5 81.5t-77.5 30.5q-45 0 -71 -23t-33 -59h-87q5 43 29.5 80t66.5 59t95 22q57 0 101 -24.5z
M318 101.5q38 36.5 38 91.5v38h-88q-70 0 -108 -23t-38 -64q0 -36 25 -57.5t71 -21.5q62 0 100 36.5zM182 579q-28 27 -28 67t28 67.5t69 27.5q42 0 70 -27.5t28 -67.5t-28 -67t-70 -27q-41 0 -69 27zM284 613q13 13 13 33t-13 33t-33 13t-32.5 -13t-12.5 -33t12.5 -33
t32.5 -13t33 13z" />
    <glyph glyph-name="ae" unicode="&#xe6;" horiz-adv-x="833" 
d="M791 221h-353q7 -71 46 -112t96 -41q76 0 110 67h89q-23 -64 -74.5 -105t-122.5 -41q-62 0 -109.5 29.5t-72.5 76.5q-22 -48 -69.5 -77t-122.5 -29q-53 0 -92 20t-59.5 53t-20.5 73q0 71 61 113.5t167 42.5h94v34q0 50 -29.5 80t-77.5 30q-47 0 -73 -22.5t-33 -59.5h-87
q5 43 30 80t67 59t97 22q57 0 98 -28t59 -67q24 41 68 68t104 27q62 0 111 -31t76.5 -87.5t27.5 -129.5q0 -32 -5 -45zM487 395.5q-39 -39.5 -48 -105.5h273q-5 62 -40 103.5t-93 41.5q-53 0 -92 -39.5zM320 102q38 37 38 94v26h-89q-147 0 -147 -84q0 -32 25 -52.5
t71 -20.5q64 0 102 37z" />
    <glyph glyph-name="ccedilla" unicode="&#xe7;" horiz-adv-x="537" 
d="M369.5 101.5q35.5 31.5 49.5 80.5h86q-9 -48 -38 -91t-73.5 -70.5t-98.5 -31.5l-15 -30q43 -3 67.5 -25.5t24.5 -55.5q0 -40 -28.5 -63t-87.5 -23q-32 0 -60 10v49q23 -7 49 -7q67 0 67 36q0 16 -15 25.5t-47 9.5q-21 0 -38 -5l33 82q-58 8 -105.5 44t-75 92.5
t-27.5 123.5q0 73 33 133t88.5 94.5t121.5 34.5q58 0 105.5 -27t78.5 -71t41 -95h-86q-14 49 -49.5 80.5t-89.5 31.5q-42 0 -78 -23t-57.5 -64t-21.5 -94t21.5 -94.5t57 -64.5t78.5 -23q54 0 89.5 31.5z" />
    <glyph glyph-name="egrave" unicode="&#xe8;" horiz-adv-x="548" 
d="M507 214h-382q10 -68 52 -107t104 -39q82 0 124 67h89q-24 -61 -82 -103.5t-132 -42.5q-67 0 -123 34t-88 94t-32 135q0 73 33 133t88.5 94.5t120.5 34.5t118 -33t83.5 -90t30.5 -127q0 -34 -4 -50zM177.5 393.5q-43.5 -41.5 -53.5 -108.5h303q-8 66 -48.5 108t-99.5 42
q-58 0 -101.5 -41.5zM321 563h-66l-97 142h94z" />
    <glyph glyph-name="eacute" unicode="&#xe9;" horiz-adv-x="548" 
d="M507 214h-382q10 -68 52 -107t104 -39q82 0 124 67h89q-24 -61 -82 -103.5t-132 -42.5q-67 0 -123 34t-88 94t-32 135q0 73 33 133t88.5 94.5t120.5 34.5t118 -33t83.5 -90t30.5 -127q0 -34 -4 -50zM177.5 393.5q-43.5 -41.5 -53.5 -108.5h303q-8 66 -48.5 108t-99.5 42
q-58 0 -101.5 -41.5zM300 563h-67l69 142h94z" />
    <glyph glyph-name="ecircumflex" unicode="&#xea;" horiz-adv-x="548" 
d="M507 214h-382q10 -68 52 -107t104 -39q82 0 124 67h89q-24 -61 -82 -103.5t-132 -42.5q-67 0 -123 34t-88 94t-32 135q0 73 33 133t88.5 94.5t120.5 34.5t118 -33t83.5 -90t30.5 -127q0 -34 -4 -50zM177.5 393.5q-43.5 -41.5 -53.5 -108.5h303q-8 66 -48.5 108t-99.5 42
q-58 0 -101.5 -41.5zM316 705l105 -142h-81l-63 91l-63 -91h-80l106 142h76z" />
    <glyph glyph-name="edieresis" unicode="&#xeb;" horiz-adv-x="548" 
d="M507 214h-382q10 -68 52 -107t104 -39q82 0 124 67h89q-24 -61 -82 -103.5t-132 -42.5q-67 0 -123 34t-88 94t-32 135q0 73 33 133t88.5 94.5t120.5 34.5t118 -33t83.5 -90t30.5 -127q0 -34 -4 -50zM177.5 393.5q-43.5 -41.5 -53.5 -108.5h303q-8 66 -48.5 108t-99.5 42
q-58 0 -101.5 -41.5zM157 597q-15 15 -15 36t15 36t36 15t36 -14.5t15 -36.5t-15 -36.5t-36 -14.5t-36 15zM325 596.5q-15 14.5 -15 36.5t15 36.5t36 14.5t36 -15t15 -36t-15 -36t-36 -15t-36 14.5z" />
    <glyph glyph-name="igrave" unicode="&#xec;" horiz-adv-x="223" 
d="M154 0h-86v503h86v-503zM156 563h-66l-97 142h94z" />
    <glyph glyph-name="iacute" unicode="&#xed;" horiz-adv-x="223" 
d="M154 0h-86v503h86v-503zM134 563h-67l69 142h94z" />
    <glyph glyph-name="icircumflex" unicode="&#xee;" horiz-adv-x="223" 
d="M154 0h-86v503h86v-503zM150 705l105 -142h-81l-63 91l-63 -91h-80l106 142h76z" />
    <glyph glyph-name="idieresis" unicode="&#xef;" horiz-adv-x="223" 
d="M154 0h-86v503h86v-503zM7 597q-15 15 -15 36t15 36t36 15t36 -14.5t15 -36.5t-15 -36.5t-36 -14.5t-36 15zM143 597q-15 15 -15 36t15 36t36 15t36 -14.5t15 -36.5t-15 -36.5t-36 -14.5t-36 15z" />
    <glyph glyph-name="eth" unicode="&#xf0;" horiz-adv-x="569" 
d="M376 624q70 -63 108 -152t38 -194q0 -90 -32 -155.5t-87 -99.5t-124 -34q-67 0 -122.5 32t-87.5 88t-32 126q0 69 32 126t85 89.5t115 32.5q57 0 95.5 -23t55.5 -47h5q-30 100 -110 168l-89 -63l-40 53l71 50q-49 29 -115 46l25 69q83 -20 155 -69l97 69l40 -53z
M356.5 89q35.5 21 56.5 59.5t21 87.5q0 48 -21 86.5t-57 60t-77 21.5q-42 0 -78 -21.5t-57 -59.5t-21 -87t21 -87.5t57 -59.5t78 -21t77.5 21z" />
    <glyph glyph-name="ntilde" unicode="&#xf1;" horiz-adv-x="565" 
d="M68 0v503h64l19 -63h5q18 28 56 51t88 23q58 0 104 -27.5t72 -77.5t26 -116v-293h-87v290q0 65 -36 104t-92 39q-59 0 -96 -39t-37 -104v-290h-86zM312 580.5q-16 10.5 -35 29.5q-13 13 -22 19.5t-18 6.5q-16 0 -27 -15.5t-11 -45.5h-60q0 62 26 93.5t65 31.5
q23 0 39.5 -10.5t34.5 -29.5q14 -14 22.5 -20t18.5 -6q15 0 26 16t11 44h60q0 -61 -25.5 -92.5t-64.5 -31.5q-24 0 -40 10.5z" />
    <glyph glyph-name="ograve" unicode="&#xf2;" horiz-adv-x="559" 
d="M158.5 23.5q-55.5 34.5 -88.5 95t-33 133.5t33 133t88.5 94.5t121.5 34.5q65 0 121 -34.5t89 -94.5t33 -133t-33 -133.5t-89 -95t-121 -34.5q-66 0 -121.5 34.5zM358 93q36 23 57 64.5t21 94.5t-21 94t-57 64t-78 23t-78 -23t-57.5 -64t-21.5 -94t21.5 -94.5t57 -64.5
t78.5 -23q42 0 78 23zM324 563h-66l-97 142h94z" />
    <glyph glyph-name="oacute" unicode="&#xf3;" horiz-adv-x="559" 
d="M158.5 23.5q-55.5 34.5 -88.5 95t-33 133.5t33 133t88.5 94.5t121.5 34.5q65 0 121 -34.5t89 -94.5t33 -133t-33 -133.5t-89 -95t-121 -34.5q-66 0 -121.5 34.5zM358 93q36 23 57 64.5t21 94.5t-21 94t-57 64t-78 23t-78 -23t-57.5 -64t-21.5 -94t21.5 -94.5t57 -64.5
t78.5 -23q42 0 78 23zM302 563h-67l69 142h94z" />
    <glyph glyph-name="ocircumflex" unicode="&#xf4;" horiz-adv-x="559" 
d="M158.5 23.5q-55.5 34.5 -88.5 95t-33 133.5t33 133t88.5 94.5t121.5 34.5q65 0 121 -34.5t89 -94.5t33 -133t-33 -133.5t-89 -95t-121 -34.5q-66 0 -121.5 34.5zM358 93q36 23 57 64.5t21 94.5t-21 94t-57 64t-78 23t-78 -23t-57.5 -64t-21.5 -94t21.5 -94.5t57 -64.5
t78.5 -23q42 0 78 23zM318 705l105 -142h-81l-63 91l-63 -91h-80l106 142h76z" />
    <glyph glyph-name="otilde" unicode="&#xf5;" horiz-adv-x="559" 
d="M158.5 23.5q-55.5 34.5 -88.5 95t-33 133.5t33 133t88.5 94.5t121.5 34.5q65 0 121 -34.5t89 -94.5t33 -133t-33 -133.5t-89 -95t-121 -34.5q-66 0 -121.5 34.5zM358 93q36 23 57 64.5t21 94.5t-21 94t-57 64t-78 23t-78 -23t-57.5 -64t-21.5 -94t21.5 -94.5t57 -64.5
t78.5 -23q42 0 78 23zM301 580.5q-16 10.5 -35 29.5q-13 13 -22 19.5t-18 6.5q-16 0 -27 -15.5t-11 -45.5h-60q0 62 26 93.5t65 31.5q23 0 39.5 -10.5t34.5 -29.5q14 -14 22.5 -20t18.5 -6q15 0 26 16t11 44h60q0 -61 -25.5 -92.5t-64.5 -31.5q-24 0 -40 10.5z" />
    <glyph glyph-name="odieresis" unicode="&#xf6;" horiz-adv-x="559" 
d="M158.5 23.5q-55.5 34.5 -88.5 95t-33 133.5t33 133t88.5 94.5t121.5 34.5q65 0 121 -34.5t89 -94.5t33 -133t-33 -133.5t-89 -95t-121 -34.5q-66 0 -121.5 34.5zM358 93q36 23 57 64.5t21 94.5t-21 94t-57 64t-78 23t-78 -23t-57.5 -64t-21.5 -94t21.5 -94.5t57 -64.5
t78.5 -23q42 0 78 23zM160 597q-15 15 -15 36t15 36t36 15t36 -14.5t15 -36.5t-15 -36.5t-36 -14.5t-36 15zM328 596.5q-15 14.5 -15 36.5t15 36.5t36 14.5t36 -15t15 -36t-15 -36t-36 -15t-36 14.5z" />
    <glyph glyph-name="divide" unicode="&#xf7;" horiz-adv-x="570" 
d="M243 495q-17 17 -17 42t17 42t42 17t42 -17t17 -42t-17 -42t-42 -17t-42 17zM495 322h-420v76h420v-76zM243 142q-17 17 -17 41q0 25 17 42t42 17t42 -17t17 -42q0 -24 -17 -41t-42 -17t-42 17z" />
    <glyph glyph-name="oslash" unicode="&#xf8;" horiz-adv-x="559" 
d="M523 462l-49 -51q49 -70 49 -159q0 -73 -33 -133.5t-89 -95t-121 -34.5q-84 0 -150 55l-46 -50l-47 47l48 52q-48 69 -48 159q0 73 33 133t88.5 94.5t121.5 34.5q41 0 79.5 -14t69.5 -40l47 49zM200 412q-36 -23 -57.5 -64.5t-21.5 -95.5t23 -100l232 248q-43 35 -96 35
q-44 0 -80 -23zM360 91q36 23 57 65t21 96q0 56 -23 99l-232 -247q42 -36 97 -36q44 0 80 23z" />
    <glyph glyph-name="ugrave" unicode="&#xf9;" horiz-adv-x="565" 
d="M160.5 16.5q-45.5 27.5 -71.5 77.5t-26 116v293h86v-290q0 -65 36.5 -104t92.5 -39q59 0 95.5 39t36.5 104v290h87v-503h-65l-18 63h-5q-18 -27 -56.5 -50.5t-88.5 -23.5q-58 0 -103.5 27.5zM324 563h-66l-97 142h94z" />
    <glyph glyph-name="uacute" unicode="&#xfa;" horiz-adv-x="565" 
d="M160.5 16.5q-45.5 27.5 -71.5 77.5t-26 116v293h86v-290q0 -65 36.5 -104t92.5 -39q59 0 95.5 39t36.5 104v290h87v-503h-65l-18 63h-5q-18 -27 -56.5 -50.5t-88.5 -23.5q-58 0 -103.5 27.5zM302 563h-67l69 142h94z" />
    <glyph glyph-name="ucircumflex" unicode="&#xfb;" horiz-adv-x="565" 
d="M160.5 16.5q-45.5 27.5 -71.5 77.5t-26 116v293h86v-290q0 -65 36.5 -104t92.5 -39q59 0 95.5 39t36.5 104v290h87v-503h-65l-18 63h-5q-18 -27 -56.5 -50.5t-88.5 -23.5q-58 0 -103.5 27.5zM318 705l105 -142h-81l-63 91l-63 -91h-80l106 142h76z" />
    <glyph glyph-name="udieresis" unicode="&#xfc;" horiz-adv-x="565" 
d="M160.5 16.5q-45.5 27.5 -71.5 77.5t-26 116v293h86v-290q0 -65 36.5 -104t92.5 -39q59 0 95.5 39t36.5 104v290h87v-503h-65l-18 63h-5q-18 -27 -56.5 -50.5t-88.5 -23.5q-58 0 -103.5 27.5zM160 597q-15 15 -15 36t15 36t36 15t36 -14.5t15 -36.5t-15 -36.5t-36 -14.5
t-36 15zM328 596.5q-15 14.5 -15 36.5t15 36.5t36 14.5t36 -15t15 -36t-15 -36t-36 -15t-36 14.5z" />
    <glyph glyph-name="yacute" unicode="&#xfd;" horiz-adv-x="487" 
d="M393 503h89l-216 -542q-33 -83 -67 -114.5t-79 -31.5q-20 0 -47 9v78q17 -6 33 -6q27 0 45.5 15t32.5 50l20 51l-199 491h93l149 -384zM268 563h-67l69 142h94z" />
    <glyph glyph-name="thorn" unicode="&#xfe;" horiz-adv-x="585" 
d="M73 -180v880h86v-257h5q16 22 58 46.5t94 24.5q63 0 116 -33.5t84.5 -93.5t31.5 -135t-31.5 -135t-84.5 -94t-116 -34q-52 0 -94 24.5t-58 47.5h-5v-241h-86zM386.5 93q34.5 23 55 64.5t20.5 94.5t-20.5 94t-55 64t-75.5 23t-76 -23t-55.5 -64t-20.5 -94t20.5 -94.5
t55.5 -64.5t76 -23t75.5 23z" />
    <glyph glyph-name="ydieresis" unicode="&#xff;" horiz-adv-x="487" 
d="M393 503h89l-216 -542q-33 -83 -67 -114.5t-79 -31.5q-20 0 -47 9v78q17 -6 33 -6q27 0 45.5 15t32.5 50l20 51l-199 491h93l149 -384zM125 597q-15 15 -15 36t15 36t36 15t36 -14.5t15 -36.5t-15 -36.5t-36 -14.5t-36 15zM293 596.5q-15 14.5 -15 36.5t15 36.5t36 14.5
t36 -15t15 -36t-15 -36t-36 -15t-36 14.5z" />
    <glyph glyph-name="Amacron" unicode="&#x100;" horiz-adv-x="620" 
d="M618 0h-98l-61 168h-302l-61 -168h-94l264 700h88zM427 253l-119 323l-119 -323h238zM446 789h-271v69h271v-69z" />
    <glyph glyph-name="amacron" unicode="&#x101;" horiz-adv-x="506" 
d="M350 489.5q44 -24.5 68.5 -69t24.5 -101.5v-319h-65l-18 63h-5q-20 -28 -58 -51t-93 -23q-50 0 -88 20t-59 54.5t-21 76.5q0 47 28.5 83.5t80 56.5t117.5 20h94v23q0 51 -29.5 81.5t-77.5 30.5q-45 0 -71 -23t-33 -59h-87q5 43 29.5 80t66.5 59t95 22q57 0 101 -24.5z
M318 101.5q38 36.5 38 91.5v38h-88q-70 0 -108 -23t-38 -64q0 -36 25 -57.5t71 -21.5q62 0 100 36.5zM384 601h-264v66h264v-66z" />
    <glyph glyph-name="Abreve" unicode="&#x102;" horiz-adv-x="620" 
d="M618 0h-98l-61 168h-302l-61 -168h-94l264 700h88zM427 253l-119 323l-119 -323h238zM209.5 797q-38.5 37 -42.5 91h68q4 -31 22.5 -49.5t52.5 -18.5t52.5 18.5t22.5 49.5h68q-4 -54 -42.5 -91t-100.5 -37t-100.5 37z" />
    <glyph glyph-name="abreve" unicode="&#x103;" horiz-adv-x="506" 
d="M350 489.5q44 -24.5 68.5 -69t24.5 -101.5v-319h-65l-18 63h-5q-20 -28 -58 -51t-93 -23q-50 0 -88 20t-59 54.5t-21 76.5q0 47 28.5 83.5t80 56.5t117.5 20h94v23q0 51 -29.5 81.5t-77.5 30.5q-45 0 -71 -23t-33 -59h-87q5 43 29.5 80t66.5 59t95 22q57 0 101 -24.5z
M318 101.5q38 36.5 38 91.5v38h-88q-70 0 -108 -23t-38 -64q0 -36 25 -57.5t71 -21.5q62 0 100 36.5zM153 606.5q-38 37.5 -42 92.5h67q3 -32 21.5 -51t52.5 -19q33 0 51.5 19t22.5 51h66q-3 -55 -41.5 -92.5t-98.5 -37.5q-61 0 -99 37.5z" />
    <glyph glyph-name="Aogonek" unicode="&#x104;" horiz-adv-x="620" 
d="M546.5 -140.5q14.5 -13.5 38.5 -13.5q18 0 33 5v-53q-22 -6 -45 -6q-46 0 -74 25t-28 67q0 35 20.5 65.5t53.5 50.5h-25l-61 168h-302l-61 -168h-94l264 700h88l264 -700q-86 -50 -86 -105q0 -22 14.5 -35.5zM427 253l-119 323l-119 -323h238z" />
    <glyph glyph-name="aogonek" unicode="&#x105;" horiz-adv-x="506" 
d="M443 0q-86 -50 -86 -105q0 -22 14.5 -35.5t38.5 -13.5q18 0 33 5v-53q-22 -6 -45 -6q-46 0 -74 25t-28 67q0 37 22.5 68.5t58.5 51.5l-17 59h-5q-20 -28 -58 -51t-93 -23q-50 0 -88 20t-59 54.5t-21 76.5q0 47 28.5 83.5t80 56.5t117.5 20h94v23q0 51 -29.5 81.5
t-77.5 30.5q-45 0 -71 -23t-33 -59h-87q5 43 29.5 80t66.5 59t95 22q57 0 101 -24.5t68.5 -69t24.5 -101.5v-319zM318 101.5q38 36.5 38 91.5v38h-88q-70 0 -108 -23t-38 -64q0 -36 25 -57.5t71 -21.5q62 0 100 36.5z" />
    <glyph glyph-name="Cacute" unicode="&#x106;" horiz-adv-x="711" 
d="M207 36.5q-76 47.5 -121 130t-45 183.5t45 183.5t121 130t164 47.5q74 0 136.5 -33.5t104.5 -90.5t58 -126h-94q-22 70 -75 116.5t-130 46.5q-63 0 -117.5 -35t-87.5 -97.5t-33 -141.5t33 -141.5t87.5 -97.5t117.5 -35q79 0 133 46t77 116h94q-17 -68 -59.5 -125
t-105.5 -90.5t-139 -33.5q-88 0 -164 47.5zM392 755h-70l74 137h97z" />
    <glyph glyph-name="cacute" unicode="&#x107;" horiz-adv-x="537" 
d="M158.5 23.5q-55.5 34.5 -88.5 95t-33 133.5t33 133t88.5 94.5t121.5 34.5q58 0 105.5 -27t78.5 -71t41 -95h-86q-14 49 -49.5 80.5t-89.5 31.5q-42 0 -78 -23t-57.5 -64t-21.5 -94t21.5 -94.5t57 -64.5t78.5 -23q54 0 89.5 31.5t49.5 80.5h86q-10 -51 -41 -95t-78.5 -71
t-105.5 -27q-66 0 -121.5 34.5zM301 563h-67l69 142h94z" />
    <glyph glyph-name="Ccircumflex" unicode="&#x108;" horiz-adv-x="711" 
d="M207 36.5q-76 47.5 -121 130t-45 183.5t45 183.5t121 130t164 47.5q74 0 136.5 -33.5t104.5 -90.5t58 -126h-94q-22 70 -75 116.5t-130 46.5q-63 0 -117.5 -35t-87.5 -97.5t-33 -141.5t33 -141.5t87.5 -97.5t117.5 -35q79 0 133 46t77 116h94q-17 -68 -59.5 -125
t-105.5 -90.5t-139 -33.5q-88 0 -164 47.5zM408 892l110 -137h-83l-67 85l-67 -85h-81l110 137h78z" />
    <glyph glyph-name="ccircumflex" unicode="&#x109;" horiz-adv-x="537" 
d="M158.5 23.5q-55.5 34.5 -88.5 95t-33 133.5t33 133t88.5 94.5t121.5 34.5q58 0 105.5 -27t78.5 -71t41 -95h-86q-14 49 -49.5 80.5t-89.5 31.5q-42 0 -78 -23t-57.5 -64t-21.5 -94t21.5 -94.5t57 -64.5t78.5 -23q54 0 89.5 31.5t49.5 80.5h86q-10 -51 -41 -95t-78.5 -71
t-105.5 -27q-66 0 -121.5 34.5zM318 705l105 -142h-81l-63 91l-63 -91h-80l106 142h76z" />
    <glyph glyph-name="Cdotaccent" unicode="&#x10a;" horiz-adv-x="711" 
d="M207 36.5q-76 47.5 -121 130t-45 183.5t45 183.5t121 130t164 47.5q74 0 136.5 -33.5t104.5 -90.5t58 -126h-94q-22 70 -75 116.5t-130 46.5q-63 0 -117.5 -35t-87.5 -97.5t-33 -141.5t33 -141.5t87.5 -97.5t117.5 -35q79 0 133 46t77 116h94q-17 -68 -59.5 -125
t-105.5 -90.5t-139 -33.5q-88 0 -164 47.5zM330.5 784.5q-15.5 15.5 -15.5 38.5q0 24 15.5 39.5t38.5 15.5t39 -15.5t16 -39.5q0 -23 -16 -38.5t-39 -15.5t-38.5 15.5z" />
    <glyph glyph-name="cdotaccent" unicode="&#x10b;" horiz-adv-x="537" 
d="M158.5 23.5q-55.5 34.5 -88.5 95t-33 133.5t33 133t88.5 94.5t121.5 34.5q58 0 105.5 -27t78.5 -71t41 -95h-86q-14 49 -49.5 80.5t-89.5 31.5q-42 0 -78 -23t-57.5 -64t-21.5 -94t21.5 -94.5t57 -64.5t78.5 -23q54 0 89.5 31.5t49.5 80.5h86q-10 -51 -41 -95t-78.5 -71
t-105.5 -27q-66 0 -121.5 34.5zM240.5 594q-15.5 16 -15.5 39q0 24 15.5 39t38.5 15q24 0 39.5 -15t15.5 -39q0 -23 -16 -39t-39 -16t-38.5 16z" />
    <glyph glyph-name="Ccaron" unicode="&#x10c;" horiz-adv-x="711" 
d="M207 36.5q-76 47.5 -121 130t-45 183.5t45 183.5t121 130t164 47.5q74 0 136.5 -33.5t104.5 -90.5t58 -126h-94q-22 70 -75 116.5t-130 46.5q-63 0 -117.5 -35t-87.5 -97.5t-33 -141.5t33 -141.5t87.5 -97.5t117.5 -35q79 0 133 46t77 116h94q-17 -68 -59.5 -125
t-105.5 -90.5t-139 -33.5q-88 0 -164 47.5zM369 807l66 85h83l-110 -137h-78l-110 137h82z" />
    <glyph glyph-name="ccaron" unicode="&#x10d;" horiz-adv-x="537" 
d="M158.5 23.5q-55.5 34.5 -88.5 95t-33 133.5t33 133t88.5 94.5t121.5 34.5q58 0 105.5 -27t78.5 -71t41 -95h-86q-14 49 -49.5 80.5t-89.5 31.5q-42 0 -78 -23t-57.5 -64t-21.5 -94t21.5 -94.5t57 -64.5t78.5 -23q54 0 89.5 31.5t49.5 80.5h86q-10 -51 -41 -95t-78.5 -71
t-105.5 -27q-66 0 -121.5 34.5zM278 616l63 89h81l-105 -142h-76l-106 142h80z" />
    <glyph glyph-name="Dcaron" unicode="&#x10e;" horiz-adv-x="662" 
d="M83 0v700h195q95 0 173.5 -46t124 -126t45.5 -178q0 -99 -46 -179t-124.5 -125.5t-172.5 -45.5h-195zM278 87q68 0 125.5 34t91.5 94.5t34 134.5t-34 134.5t-91.5 94.5t-125.5 34h-103v-526h103zM328 807l66 85h83l-110 -137h-78l-110 137h82z" />
    <glyph glyph-name="dcaron" unicode="&#x10f;" horiz-adv-x="585" 
d="M153 23q-53 34 -84.5 94t-31.5 135t31.5 135t84.5 93.5t116 33.5q52 0 94 -24.5t58 -47.5h5v258h86v-700h-64l-19 63h-5q-18 -24 -59.5 -49t-95.5 -25q-63 0 -116 34zM350 93q35 23 55.5 64.5t20.5 94.5t-20.5 94t-55.5 64t-76 23t-75.5 -23t-55 -64t-20.5 -94
t20.5 -94.5t55 -64.5t75.5 -23t76 23zM607 555h-54l32 145h86z" />
    <glyph glyph-name="Dcroat" unicode="&#x110;" horiz-adv-x="690" 
d="M306 700q95 0 173.5 -46t124.5 -126t46 -178q0 -99 -46 -179t-125 -125.5t-173 -45.5h-195v310h-93v80h93v310h195zM306 87q68 0 125.5 34t92 94.5t34.5 134.5t-34.5 134.5t-92 94.5t-125.5 34h-103v-223h145v-80h-145v-223h103z" />
    <glyph glyph-name="dcroat" unicode="&#x111;" horiz-adv-x="599" 
d="M590 624v-71h-78v-553h-64l-19 63h-5q-19 -25 -58.5 -49.5t-96.5 -24.5q-65 0 -118 33t-83.5 90.5t-30.5 128.5t30.5 128.5t83.5 90.5t118 33q56 0 95.5 -24t56.5 -48h5v132h-172v71h172v76h86v-76h78zM351.5 92q34.5 22 54.5 61t20 88q0 50 -20 89.5t-54.5 61.5
t-77.5 22t-77.5 -22t-54 -61.5t-19.5 -89.5q0 -49 19.5 -88t54 -61t77.5 -22t77.5 22z" />
    <glyph glyph-name="Emacron" unicode="&#x112;" horiz-adv-x="583" 
d="M175 317v-231h365v-86h-457v700h447v-86h-355v-212h317v-85h-317zM442 789h-271v69h271v-69z" />
    <glyph glyph-name="emacron" unicode="&#x113;" horiz-adv-x="548" 
d="M507 214h-382q10 -68 52 -107t104 -39q82 0 124 67h89q-24 -61 -82 -103.5t-132 -42.5q-67 0 -123 34t-88 94t-32 135q0 73 33 133t88.5 94.5t120.5 34.5t118 -33t83.5 -90t30.5 -127q0 -34 -4 -50zM177.5 393.5q-43.5 -41.5 -53.5 -108.5h303q-8 66 -48.5 108t-99.5 42
q-58 0 -101.5 -41.5zM410 601h-264v66h264v-66z" />
    <glyph glyph-name="Ebreve" unicode="&#x114;" horiz-adv-x="583" 
d="M175 317v-231h365v-86h-457v700h447v-86h-355v-212h317v-85h-317zM206.5 797q-38.5 37 -42.5 91h68q4 -31 22.5 -49.5t52.5 -18.5t52.5 18.5t22.5 49.5h68q-4 -54 -42.5 -91t-100.5 -37t-100.5 37z" />
    <glyph glyph-name="ebreve" unicode="&#x115;" horiz-adv-x="548" 
d="M507 214h-382q10 -68 52 -107t104 -39q82 0 124 67h89q-24 -61 -82 -103.5t-132 -42.5q-67 0 -123 34t-88 94t-32 135q0 73 33 133t88.5 94.5t120.5 34.5t118 -33t83.5 -90t30.5 -127q0 -34 -4 -50zM177.5 393.5q-43.5 -41.5 -53.5 -108.5h303q-8 66 -48.5 108t-99.5 42
q-58 0 -101.5 -41.5zM179 606.5q-38 37.5 -42 92.5h67q3 -32 21.5 -51t52.5 -19q33 0 51.5 19t22.5 51h66q-3 -55 -41.5 -92.5t-98.5 -37.5q-61 0 -99 37.5z" />
    <glyph glyph-name="Edotaccent" unicode="&#x116;" horiz-adv-x="583" 
d="M175 317v-231h365v-86h-457v700h447v-86h-355v-212h317v-85h-317zM268.5 784.5q-15.5 15.5 -15.5 38.5q0 24 15.5 39.5t38.5 15.5t39 -15.5t16 -39.5q0 -23 -16 -38.5t-39 -15.5t-38.5 15.5z" />
    <glyph glyph-name="edotaccent" unicode="&#x117;" horiz-adv-x="548" 
d="M507 214h-382q10 -68 52 -107t104 -39q82 0 124 67h89q-24 -61 -82 -103.5t-132 -42.5q-67 0 -123 34t-88 94t-32 135q0 73 33 133t88.5 94.5t120.5 34.5t118 -33t83.5 -90t30.5 -127q0 -34 -4 -50zM177.5 393.5q-43.5 -41.5 -53.5 -108.5h303q-8 66 -48.5 108t-99.5 42
q-58 0 -101.5 -41.5zM238.5 594q-15.5 16 -15.5 39q0 24 15.5 39t38.5 15q24 0 39.5 -15t15.5 -39q0 -23 -16 -39t-39 -16t-38.5 16z" />
    <glyph glyph-name="Eogonek" unicode="&#x118;" horiz-adv-x="583" 
d="M540 0q-86 -50 -86 -105q0 -22 14.5 -35.5t38.5 -13.5q18 0 33 5v-53q-22 -6 -45 -6q-46 0 -74 25t-28 67q0 35 20.5 65.5t53.5 50.5h-384v700h447v-86h-355v-212h317v-85h-317v-231h365v-86z" />
    <glyph glyph-name="eogonek" unicode="&#x119;" horiz-adv-x="548" 
d="M507 214h-382q10 -68 52 -107t104 -39q82 0 124 67h89q-20 -50 -74 -101q-88 -80 -88 -139q0 -23 14 -36t39 -13q16 0 33 5v-52q-19 -7 -45 -7q-46 0 -74 25t-28 67q0 60 51 109q-19 -4 -42 -4q-67 0 -123 34t-88 94t-32 135q0 73 33 133t88.5 94.5t120.5 34.5t118 -33
t83.5 -90t30.5 -127q0 -34 -4 -50zM177.5 393.5q-43.5 -41.5 -53.5 -108.5h303q-8 66 -48.5 108t-99.5 42q-58 0 -101.5 -41.5z" />
    <glyph glyph-name="Ecaron" unicode="&#x11a;" horiz-adv-x="583" 
d="M175 317v-231h365v-86h-457v700h447v-86h-355v-212h317v-85h-317zM307 807l66 85h83l-110 -137h-78l-110 137h82z" />
    <glyph glyph-name="ecaron" unicode="&#x11b;" horiz-adv-x="548" 
d="M507 214h-382q10 -68 52 -107t104 -39q82 0 124 67h89q-24 -61 -82 -103.5t-132 -42.5q-67 0 -123 34t-88 94t-32 135q0 73 33 133t88.5 94.5t120.5 34.5t118 -33t83.5 -90t30.5 -127q0 -34 -4 -50zM177.5 393.5q-43.5 -41.5 -53.5 -108.5h303q-8 66 -48.5 108t-99.5 42
q-58 0 -101.5 -41.5zM277 616l63 89h81l-105 -142h-76l-106 142h80z" />
    <glyph glyph-name="Gcircumflex" unicode="&#x11c;" horiz-adv-x="750" 
d="M389 350h292v-350h-60l-18 106q-35 -49 -96 -83t-136 -34q-88 0 -164 47.5t-121 130t-45 183.5t45 183.5t121 130t164 47.5q74 0 137 -31.5t105.5 -84t56.5 -114.5h-94q-22 61 -75 102t-130 41q-63 0 -117.5 -35t-87.5 -97.5t-33 -141.5t33 -141.5t87.5 -97.5t117.5 -35
q60 0 107.5 26.5t75.5 70.5t32 96h-197v81zM409 892l110 -137h-83l-67 85l-67 -85h-81l110 137h78z" />
    <glyph glyph-name="gcircumflex" unicode="&#x11d;" horiz-adv-x="569" 
d="M171 -168q-46 22 -74 57.5t-38 75.5h87q12 -35 46.5 -55.5t84.5 -20.5q63 0 100.5 36t37.5 98v67h-5q-15 -23 -55 -47.5t-91 -24.5q-61 0 -113.5 32.5t-83 89t-30.5 125.5q0 70 30.5 127t82.5 89.5t113 32.5q53 0 94 -25t56 -49h5l19 63h64v-480q0 -97 -60.5 -155
t-162.5 -58q-61 0 -107 22zM341.5 119q33.5 22 53.5 60.5t20 85.5q0 48 -20 87t-53.5 61t-72.5 22t-72.5 -22t-53.5 -61t-20 -87q0 -47 20 -85.5t53.5 -60.5t72.5 -22t72.5 22zM323 705l105 -142h-81l-63 91l-63 -91h-80l106 142h76z" />
    <glyph glyph-name="Gbreve" unicode="&#x11e;" horiz-adv-x="750" 
d="M389 350h292v-350h-60l-18 106q-35 -49 -96 -83t-136 -34q-88 0 -164 47.5t-121 130t-45 183.5t45 183.5t121 130t164 47.5q74 0 137 -31.5t105.5 -84t56.5 -114.5h-94q-22 61 -75 102t-130 41q-63 0 -117.5 -35t-87.5 -97.5t-33 -141.5t33 -141.5t87.5 -97.5t117.5 -35
q60 0 107.5 26.5t75.5 70.5t32 96h-197v81zM269.5 797q-38.5 37 -42.5 91h68q4 -31 22.5 -49.5t52.5 -18.5t52.5 18.5t22.5 49.5h68q-4 -54 -42.5 -91t-100.5 -37t-100.5 37z" />
    <glyph glyph-name="gbreve" unicode="&#x11f;" horiz-adv-x="569" 
d="M171 -168q-46 22 -74 57.5t-38 75.5h87q12 -35 46.5 -55.5t84.5 -20.5q63 0 100.5 36t37.5 98v67h-5q-15 -23 -55 -47.5t-91 -24.5q-61 0 -113.5 32.5t-83 89t-30.5 125.5q0 70 30.5 127t82.5 89.5t113 32.5q53 0 94 -25t56 -49h5l19 63h64v-480q0 -97 -60.5 -155
t-162.5 -58q-61 0 -107 22zM341.5 119q33.5 22 53.5 60.5t20 85.5q0 48 -20 87t-53.5 61t-72.5 22t-72.5 -22t-53.5 -61t-20 -87q0 -47 20 -85.5t53.5 -60.5t72.5 -22t72.5 22zM185 606.5q-38 37.5 -42 92.5h67q3 -32 21.5 -51t52.5 -19q33 0 51.5 19t22.5 51h66
q-3 -55 -41.5 -92.5t-98.5 -37.5q-61 0 -99 37.5z" />
    <glyph glyph-name="Gdotaccent" unicode="&#x120;" horiz-adv-x="750" 
d="M389 350h292v-350h-60l-18 106q-35 -49 -96 -83t-136 -34q-88 0 -164 47.5t-121 130t-45 183.5t45 183.5t121 130t164 47.5q74 0 137 -31.5t105.5 -84t56.5 -114.5h-94q-22 61 -75 102t-130 41q-63 0 -117.5 -35t-87.5 -97.5t-33 -141.5t33 -141.5t87.5 -97.5t117.5 -35
q60 0 107.5 26.5t75.5 70.5t32 96h-197v81zM330.5 784.5q-15.5 15.5 -15.5 38.5q0 24 15.5 39.5t38.5 15.5t39 -15.5t16 -39.5q0 -23 -16 -38.5t-39 -15.5t-38.5 15.5z" />
    <glyph glyph-name="gdotaccent" unicode="&#x121;" horiz-adv-x="569" 
d="M171 -168q-46 22 -74 57.5t-38 75.5h87q12 -35 46.5 -55.5t84.5 -20.5q63 0 100.5 36t37.5 98v67h-5q-15 -23 -55 -47.5t-91 -24.5q-61 0 -113.5 32.5t-83 89t-30.5 125.5q0 70 30.5 127t82.5 89.5t113 32.5q53 0 94 -25t56 -49h5l19 63h64v-480q0 -97 -60.5 -155
t-162.5 -58q-61 0 -107 22zM341.5 119q33.5 22 53.5 60.5t20 85.5q0 48 -20 87t-53.5 61t-72.5 22t-72.5 -22t-53.5 -61t-20 -87q0 -47 20 -85.5t53.5 -60.5t72.5 -22t72.5 22zM245.5 594q-15.5 16 -15.5 39q0 24 15.5 39t38.5 15q24 0 39.5 -15t15.5 -39q0 -23 -16 -39
t-39 -16t-38.5 16z" />
    <glyph glyph-name="uni0122" unicode="&#x122;" horiz-adv-x="750" 
d="M389 350h292v-350h-60l-18 106q-35 -49 -96 -83t-136 -34q-88 0 -164 47.5t-121 130t-45 183.5t45 183.5t121 130t164 47.5q74 0 137 -31.5t105.5 -84t56.5 -114.5h-94q-22 61 -75 102t-130 41q-63 0 -117.5 -35t-87.5 -97.5t-33 -141.5t33 -141.5t87.5 -97.5t117.5 -35
q60 0 107.5 26.5t75.5 70.5t32 96h-197v81zM412.5 -93q16.5 -18 16.5 -49q0 -46 -25 -82.5t-54 -59.5l-17 22q12 12 23 31.5t14 44.5q-22 1 -38.5 16.5t-16.5 38.5q0 24 16.5 40t38.5 16q26 0 42.5 -18z" />
    <glyph glyph-name="uni0123" unicode="&#x123;" horiz-adv-x="569" 
d="M171 -168q-46 22 -74 57.5t-38 75.5h87q12 -35 46.5 -55.5t84.5 -20.5q63 0 100.5 36t37.5 98v67h-5q-15 -23 -55 -47.5t-91 -24.5q-61 0 -113.5 32.5t-83 89t-30.5 125.5q0 70 30.5 127t82.5 89.5t113 32.5q53 0 94 -25t56 -49h5l19 63h64v-480q0 -97 -60.5 -155
t-162.5 -58q-61 0 -107 22zM341.5 119q33.5 22 53.5 60.5t20 85.5q0 48 -20 87t-53.5 61t-72.5 22t-72.5 -22t-53.5 -61t-20 -87q0 -47 20 -85.5t53.5 -60.5t72.5 -22t72.5 22zM325 656.5q16 -15.5 16 -38.5t-16.5 -39t-38.5 -16q-26 0 -42.5 17.5t-16.5 48.5q0 47 26.5 83
t56.5 57l16 -21q-13 -11 -24.5 -30.5t-14.5 -44.5q22 -1 38 -16.5z" />
    <glyph glyph-name="Hcircumflex" unicode="&#x124;" horiz-adv-x="690" 
d="M514 401v299h92v-700h-92v314h-339v-314h-92v700h92v-299h339zM384 892l110 -137h-83l-67 85l-67 -85h-81l110 137h78z" />
    <glyph glyph-name="hcircumflex" unicode="&#x125;" horiz-adv-x="570" 
d="M73 0v700h86v-260h5q18 27 56.5 50.5t88.5 23.5q56 0 101 -27.5t71 -77.5t26 -116v-293h-87v290q0 65 -36 104t-92 39q-59 0 -96 -39t-37 -104v-290h-86zM330 892l110 -137h-83l-67 85l-67 -85h-81l110 137h78z" />
    <glyph glyph-name="Hbar" unicode="&#x126;" horiz-adv-x="746" 
d="M634 593h94v-80h-94v-513h-92v314h-339v-314h-92v513h-93v80h93v107h92v-108h339v108h92v-107zM203 514v-113h339v113h-339z" />
    <glyph glyph-name="hbar" unicode="&#x127;" horiz-adv-x="583" 
d="M423.5 465.5q45.5 -27.5 71 -77.5t25.5 -116v-272h-86v269q0 65 -36 104t-92 39q-59 0 -96 -39t-37 -104v-269h-86v553h-79v71h79v76h86v-76h172v-71h-172v-134h5q18 28 56 51t88 23q56 0 101.5 -27.5z" />
    <glyph glyph-name="Itilde" unicode="&#x128;" horiz-adv-x="259" 
d="M175 0h-92v700h92v-700zM150.5 770.5q-16.5 9.5 -35.5 27.5q-13 12 -22 18t-20 6q-16 0 -27 -15t-11 -40h-61q0 58 26.5 88.5t66.5 30.5q25 0 42 -10t35 -27q14 -12 22.5 -17.5t18.5 -5.5q17 0 28 14.5t11 39.5h60q0 -57 -26.5 -88t-65.5 -31q-25 0 -41.5 9.5z" />
    <glyph glyph-name="itilde" unicode="&#x129;" horiz-adv-x="223" 
d="M154 0h-86v503h86v-503zM133 580.5q-16 10.5 -35 29.5q-13 13 -22 19.5t-18 6.5q-16 0 -27 -15.5t-11 -45.5h-60q0 62 26 93.5t65 31.5q23 0 39.5 -10.5t34.5 -29.5q14 -14 22.5 -20t18.5 -6q15 0 26 16t11 44h60q0 -61 -25.5 -92.5t-64.5 -31.5q-24 0 -40 10.5z" />
    <glyph glyph-name="Imacron" unicode="&#x12a;" horiz-adv-x="259" 
d="M175 0h-92v700h92v-700zM265 789h-271v69h271v-69z" />
    <glyph glyph-name="imacron" unicode="&#x12b;" horiz-adv-x="223" 
d="M154 0h-86v503h86v-503zM244 601h-264v66h264v-66z" />
    <glyph glyph-name="Ibreve" unicode="&#x12c;" horiz-adv-x="259" 
d="M175 0h-92v700h92v-700zM28.5 797q-38.5 37 -42.5 91h68q4 -31 22.5 -49.5t52.5 -18.5t52.5 18.5t22.5 49.5h68q-4 -54 -42.5 -91t-100.5 -37t-100.5 37z" />
    <glyph glyph-name="ibreve" unicode="&#x12d;" horiz-adv-x="223" 
d="M154 0h-86v503h86v-503zM13 606.5q-38 37.5 -42 92.5h67q3 -32 21.5 -51t52.5 -19q33 0 51.5 19t22.5 51h66q-3 -55 -41.5 -92.5t-98.5 -37.5q-61 0 -99 37.5z" />
    <glyph glyph-name="Iogonek" unicode="&#x12e;" horiz-adv-x="259" 
d="M175 0q-74 -47 -74 -105q0 -23 12.5 -36t33.5 -13q17 0 28 5v-53q-22 -6 -40 -6q-41 0 -68 25t-27 67q0 37 20 67.5t49 48.5h-26v700h92v-700z" />
    <glyph glyph-name="iogonek" unicode="&#x12f;" horiz-adv-x="223" 
d="M72.5 594q-15.5 16 -15.5 39q0 24 15.5 39t38.5 15q24 0 39.5 -15t15.5 -39q0 -23 -16 -39t-39 -16t-38.5 16zM68 0v503h86v-503h-9q-74 -47 -74 -105q0 -23 12.5 -36t33.5 -13q17 0 28 5v-53q-22 -6 -40 -6q-41 0 -68 25t-27 67q0 37 20 67.5t49 48.5h-11z" />
    <glyph glyph-name="Idotaccent" unicode="&#x130;" horiz-adv-x="259" 
d="M175 0h-92v700h92v-700zM90.5 784.5q-15.5 15.5 -15.5 38.5q0 24 15.5 39.5t38.5 15.5t39 -15.5t16 -39.5q0 -23 -16 -38.5t-39 -15.5t-38.5 15.5z" />
    <glyph glyph-name="dotlessi" unicode="&#x131;" horiz-adv-x="223" 
d="M154 0h-86v503h86v-503z" />
    <glyph glyph-name="IJ" unicode="&#x132;" horiz-adv-x="790" 
d="M175 0h-92v700h92v-700zM378 17q-50 28 -77.5 75.5t-27.5 104.5h91q1 -31 17 -59t45.5 -45t66.5 -17q58 0 92.5 36t34.5 94v494h92v-494q0 -63 -27 -112.5t-77 -77t-115 -27.5t-115 28z" />
    <glyph glyph-name="ij" unicode="&#x133;" horiz-adv-x="445" 
d="M154 0h-86v503h86v-503zM72.5 594q-15.5 16 -15.5 39q0 24 15.5 39t38.5 15q24 0 39.5 -15t15.5 -39q0 -23 -16 -39t-39 -16t-38.5 16zM178 -176v78q17 -6 34 -6q38 0 58.5 22.5t20.5 67.5v517h86v-521q0 -78 -41 -122.5t-106 -44.5q-25 0 -52 9zM295.5 594
q-15.5 16 -15.5 39q0 24 15.5 39t38.5 15q24 0 39.5 -15t15.5 -39q0 -23 -16 -39t-39 -16t-38.5 16z" />
    <glyph glyph-name="Jcircumflex" unicode="&#x134;" horiz-adv-x="531" 
d="M119 17q-50 28 -77.5 75.5t-27.5 104.5h91q1 -31 17 -59t45.5 -45t66.5 -17q58 0 92.5 36t34.5 94v494h92v-494q0 -63 -27 -112.5t-77 -77t-115 -27.5t-115 28zM446 892l110 -137h-83l-67 85l-67 -85h-81l110 137h78z" />
    <glyph glyph-name="jcircumflex" unicode="&#x135;" horiz-adv-x="223" 
d="M-45 -176v78q17 -6 34 -6q38 0 58.5 22.5t20.5 67.5v517h86v-521q0 -78 -41 -122.5t-106 -44.5q-25 0 -52 9zM150 705l105 -142h-81l-63 91l-63 -91h-80l106 142h76z" />
    <glyph glyph-name="uni0136" unicode="&#x136;" horiz-adv-x="568" 
d="M276 359l301 -359h-117l-285 344v-344h-92v700h92v-334l275 334h110zM354.5 -93q16.5 -18 16.5 -49q0 -46 -25 -82.5t-54 -59.5l-17 22q12 12 23 31.5t14 44.5q-22 1 -38.5 16.5t-16.5 38.5q0 24 16.5 40t38.5 16q26 0 42.5 -18z" />
    <glyph glyph-name="uni0137" unicode="&#x137;" horiz-adv-x="474" 
d="M254 262l229 -262h-110l-214 250v-250h-86v700h86v-434l199 237h103zM305.5 -93q16.5 -18 16.5 -49q0 -46 -25 -82.5t-54 -59.5l-17 22q12 12 23 31.5t14 44.5q-22 1 -38.5 16.5t-16.5 38.5q0 24 16.5 40t38.5 16q26 0 42.5 -18z" />
    <glyph glyph-name="Lacute" unicode="&#x139;" horiz-adv-x="524" 
d="M514 0h-431v700h92v-613h339v-87zM152 755h-70l74 137h97z" />
    <glyph glyph-name="lacute" unicode="&#x13a;" horiz-adv-x="233" 
d="M159 0h-86v700h86v-700zM139 755h-70l74 137h97z" />
    <glyph glyph-name="uni013B" unicode="&#x13b;" horiz-adv-x="524" 
d="M514 0h-431v700h92v-613h339v-87zM338.5 -93q16.5 -18 16.5 -49q0 -46 -25 -82.5t-54 -59.5l-17 22q12 12 23 31.5t14 44.5q-22 1 -38.5 16.5t-16.5 38.5q0 24 16.5 40t38.5 16q26 0 42.5 -18z" />
    <glyph glyph-name="uni013C" unicode="&#x13c;" horiz-adv-x="233" 
d="M159 0h-86v700h86v-700zM156.5 -93q16.5 -18 16.5 -49q0 -46 -25 -82.5t-54 -59.5l-17 22q12 12 23 31.5t14 44.5q-22 1 -38.5 16.5t-16.5 38.5q0 24 16.5 40t38.5 16q26 0 42.5 -18z" />
    <glyph glyph-name="Lcaron" unicode="&#x13d;" horiz-adv-x="524" 
d="M514 0h-431v700h92v-613h339v-87zM271 555h-54l32 145h86z" />
    <glyph glyph-name="lcaron" unicode="&#x13e;" horiz-adv-x="233" 
d="M159 0h-86v700h86v-700zM256 555h-54l32 145h86z" />
    <glyph glyph-name="Ldot" unicode="&#x13f;" horiz-adv-x="524" 
d="M514 0h-431v700h92v-613h339v-87zM348.5 333.5q-17.5 17.5 -17.5 43.5q0 25 17.5 42.5t42.5 17.5t43 -17.5t18 -42.5t-17.5 -43t-43.5 -18q-25 0 -42.5 17.5z" />
    <glyph glyph-name="ldot" unicode="&#x140;" horiz-adv-x="355" 
d="M159 0h-86v700h86v-700zM251.5 307.5q-17.5 17.5 -17.5 43.5q0 25 17.5 42.5t42.5 17.5t43 -17.5t18 -42.5t-17.5 -43t-43.5 -18q-25 0 -42.5 17.5z" />
    <glyph glyph-name="Lslash" unicode="&#x141;" horiz-adv-x="552" 
d="M203 314v-227h339v-87h-431v257l-93 -57v92l93 57v351h92v-294l163 100v-91z" />
    <glyph glyph-name="lslash" unicode="&#x142;" horiz-adv-x="271" 
d="M179 420l84 56v-82l-84 -56v-338h-87v280l-84 -56v83l84 56v337h87v-280z" />
    <glyph glyph-name="Nacute" unicode="&#x143;" horiz-adv-x="699" 
d="M525 163v537h91v-700h-86l-356 537v-537h-91v700h86zM378 755h-70l74 137h97z" />
    <glyph glyph-name="nacute" unicode="&#x144;" horiz-adv-x="565" 
d="M68 0v503h64l19 -63h5q18 28 56 51t88 23q58 0 104 -27.5t72 -77.5t26 -116v-293h-87v290q0 65 -36 104t-92 39q-59 0 -96 -39t-37 -104v-290h-86zM313 563h-67l69 142h94z" />
    <glyph glyph-name="uni0145" unicode="&#x145;" horiz-adv-x="699" 
d="M525 163v537h91v-700h-86l-356 537v-537h-91v700h86zM394.5 -93q16.5 -18 16.5 -49q0 -46 -25 -82.5t-54 -59.5l-17 22q12 12 23 31.5t14 44.5q-22 1 -38.5 16.5t-16.5 38.5q0 24 16.5 40t38.5 16q26 0 42.5 -18z" />
    <glyph glyph-name="uni0146" unicode="&#x146;" horiz-adv-x="565" 
d="M68 0v503h64l19 -63h5q18 28 56 51t88 23q58 0 104 -27.5t72 -77.5t26 -116v-293h-87v290q0 65 -36 104t-92 39q-59 0 -96 -39t-37 -104v-290h-86zM326.5 -93q16.5 -18 16.5 -49q0 -46 -25 -82.5t-54 -59.5l-17 22q12 12 23 31.5t14 44.5q-22 1 -38.5 16.5t-16.5 38.5
q0 24 16.5 40t38.5 16q26 0 42.5 -18z" />
    <glyph glyph-name="Ncaron" unicode="&#x147;" horiz-adv-x="699" 
d="M525 163v537h91v-700h-86l-356 537v-537h-91v700h86zM355 807l66 85h83l-110 -137h-78l-110 137h82z" />
    <glyph glyph-name="ncaron" unicode="&#x148;" horiz-adv-x="565" 
d="M68 0v503h64l19 -63h5q18 28 56 51t88 23q58 0 104 -27.5t72 -77.5t26 -116v-293h-87v290q0 65 -36 104t-92 39q-59 0 -96 -39t-37 -104v-290h-86zM290 616l63 89h81l-105 -142h-76l-106 142h80z" />
    <glyph glyph-name="napostrophe" unicode="&#x149;" horiz-adv-x="595" 
d="M98 0v503h64l19 -63h5q18 28 56 51t88 23q58 0 104 -27.5t72 -77.5t26 -116v-293h-87v290q0 65 -36 104t-92 39q-59 0 -96 -39t-37 -104v-290h-86zM76.5 693.5q16.5 -17.5 16.5 -48.5q0 -50 -25.5 -89t-56.5 -67l-17 22q33 41 38 90q-22 2 -37.5 16.5t-15.5 38.5
q0 23 16.5 39t38.5 16q26 0 42.5 -17.5z" />
    <glyph glyph-name="Eng" unicode="&#x14a;" horiz-adv-x="699" 
d="M525 700h91v-723q0 -85 -44 -131.5t-121 -46.5q-36 0 -59 9v82q22 -7 43 -7q45 0 67.5 23t22.5 72v30l-351 529v-537h-91v700h86l356 -537v537z" />
    <glyph glyph-name="eng" unicode="&#x14b;" horiz-adv-x="565" 
d="M302 -176v75q13 -5 34 -5q37 0 58 22t21 65v309q0 65 -36 104t-92 39q-59 0 -96 -39t-37 -104v-290h-86v503h64l19 -63h5q18 28 56 51t88 23q58 0 104 -27.5t72 -77.5t26 -116v-313q0 -76 -40.5 -120.5t-103.5 -44.5q-32 0 -56 9z" />
    <glyph glyph-name="Omacron" unicode="&#x14c;" horiz-adv-x="742" 
d="M207 36.5q-76 47.5 -121 130t-45 183.5t45 183.5t121 130t164 47.5t164 -47.5t121 -130t45 -183.5t-45 -183.5t-121 -130t-164 -47.5t-164 47.5zM489 111q55 35 87.5 97.5t32.5 141.5t-32.5 141.5t-87.5 97.5t-118 35t-117.5 -35t-87.5 -97.5t-33 -141.5t33 -141.5
t87.5 -97.5t117.5 -35t118 35zM506 789h-271v69h271v-69z" />
    <glyph glyph-name="omacron" unicode="&#x14d;" horiz-adv-x="559" 
d="M158.5 23.5q-55.5 34.5 -88.5 95t-33 133.5t33 133t88.5 94.5t121.5 34.5q65 0 121 -34.5t89 -94.5t33 -133t-33 -133.5t-89 -95t-121 -34.5q-66 0 -121.5 34.5zM358 93q36 23 57 64.5t21 94.5t-21 94t-57 64t-78 23t-78 -23t-57.5 -64t-21.5 -94t21.5 -94.5t57 -64.5
t78.5 -23q42 0 78 23zM412 601h-264v66h264v-66z" />
    <glyph glyph-name="Obreve" unicode="&#x14e;" horiz-adv-x="742" 
d="M207 36.5q-76 47.5 -121 130t-45 183.5t45 183.5t121 130t164 47.5t164 -47.5t121 -130t45 -183.5t-45 -183.5t-121 -130t-164 -47.5t-164 47.5zM489 111q55 35 87.5 97.5t32.5 141.5t-32.5 141.5t-87.5 97.5t-118 35t-117.5 -35t-87.5 -97.5t-33 -141.5t33 -141.5
t87.5 -97.5t117.5 -35t118 35zM270.5 797q-38.5 37 -42.5 91h68q4 -31 22.5 -49.5t52.5 -18.5t52.5 18.5t22.5 49.5h68q-4 -54 -42.5 -91t-100.5 -37t-100.5 37z" />
    <glyph glyph-name="obreve" unicode="&#x14f;" horiz-adv-x="559" 
d="M158.5 23.5q-55.5 34.5 -88.5 95t-33 133.5t33 133t88.5 94.5t121.5 34.5q65 0 121 -34.5t89 -94.5t33 -133t-33 -133.5t-89 -95t-121 -34.5q-66 0 -121.5 34.5zM358 93q36 23 57 64.5t21 94.5t-21 94t-57 64t-78 23t-78 -23t-57.5 -64t-21.5 -94t21.5 -94.5t57 -64.5
t78.5 -23q42 0 78 23zM181 606.5q-38 37.5 -42 92.5h67q3 -32 21.5 -51t52.5 -19q33 0 51.5 19t22.5 51h66q-3 -55 -41.5 -92.5t-98.5 -37.5q-61 0 -99 37.5z" />
    <glyph glyph-name="Ohungarumlaut" unicode="&#x150;" horiz-adv-x="742" 
d="M207 36.5q-76 47.5 -121 130t-45 183.5t45 183.5t121 130t164 47.5t164 -47.5t121 -130t45 -183.5t-45 -183.5t-121 -130t-164 -47.5t-164 47.5zM489 111q55 35 87.5 97.5t32.5 141.5t-32.5 141.5t-87.5 97.5t-118 35t-117.5 -35t-87.5 -97.5t-33 -141.5t33 -141.5
t87.5 -97.5t117.5 -35t118 35zM332 755h-66l83 137h93zM476 755h-66l83 137h94z" />
    <glyph glyph-name="ohungarumlaut" unicode="&#x151;" horiz-adv-x="559" 
d="M158.5 23.5q-55.5 34.5 -88.5 95t-33 133.5t33 133t88.5 94.5t121.5 34.5q65 0 121 -34.5t89 -94.5t33 -133t-33 -133.5t-89 -95t-121 -34.5q-66 0 -121.5 34.5zM358 93q36 23 57 64.5t21 94.5t-21 94t-57 64t-78 23t-78 -23t-57.5 -64t-21.5 -94t21.5 -94.5t57 -64.5
t78.5 -23q42 0 78 23zM241 563h-64l78 142h91zM384 563h-65l78 142h92z" />
    <glyph glyph-name="OE" unicode="&#x152;" horiz-adv-x="927" 
d="M550 86h335v-86h-500q-95 0 -173.5 45.5t-124.5 125.5t-46 179t46 179t124.5 125.5t173.5 45.5h490v-86h-325v-212h287v-85h-287v-231zM460 86v528h-75q-68 0 -126 -34.5t-92 -95t-34 -134.5t34 -134.5t92 -95t126 -34.5h75z" />
    <glyph glyph-name="oe" unicode="&#x153;" horiz-adv-x="903" 
d="M860 216h-361q9 -69 49 -108.5t99 -39.5q38 0 66.5 17.5t46.5 49.5h89q-24 -63 -77 -104.5t-124 -41.5q-63 0 -114.5 32t-75.5 79q-26 -48 -76 -79.5t-113 -31.5q-62 0 -115.5 33.5t-85 93.5t-31.5 136q0 75 31.5 135t85 93.5t115.5 33.5q63 0 112.5 -31.5t76.5 -78.5
q25 46 75.5 78t110.5 32q64 0 114.5 -32.5t79 -90.5t28.5 -132q0 -19 -6 -43zM341 90.5q33 22.5 53 64t20 97.5q0 55 -20 96.5t-53.5 64t-71.5 22.5q-39 0 -72.5 -22.5t-53.5 -64t-20 -96.5q0 -56 20 -97.5t53.5 -64t72.5 -22.5t72 22.5zM549 394q-41 -41 -50 -109h283
q-5 64 -42 107t-97 43q-53 0 -94 -41z" />
    <glyph glyph-name="Racute" unicode="&#x154;" horiz-adv-x="616" 
d="M470 0l-158 282h-137v-282h-92v700h256q63 0 114.5 -28t80.5 -76t29 -107q0 -70 -43 -123t-114 -73l171 -293h-107zM175 614v-247h163q58 0 95.5 34.5t37.5 86.5q0 55 -37.5 90.5t-95.5 35.5h-163zM335 755h-70l74 137h97z" />
    <glyph glyph-name="racute" unicode="&#x155;" horiz-adv-x="334" 
d="M68 0v503h64l19 -63h5q18 27 53 50.5t77 23.5q24 0 39 -4v-87q-16 5 -39 5q-59 0 -95.5 -39t-36.5 -106v-283h-86zM217 563h-67l69 142h94z" />
    <glyph glyph-name="uni0156" unicode="&#x156;" horiz-adv-x="616" 
d="M470 0l-158 282h-137v-282h-92v700h256q63 0 114.5 -28t80.5 -76t29 -107q0 -70 -43 -123t-114 -73l171 -293h-107zM175 614v-247h163q58 0 95.5 34.5t37.5 86.5q0 55 -37.5 90.5t-95.5 35.5h-163zM359.5 -93q16.5 -18 16.5 -49q0 -46 -25 -82.5t-54 -59.5l-17 22
q12 12 23 31.5t14 44.5q-22 1 -38.5 16.5t-16.5 38.5q0 24 16.5 40t38.5 16q26 0 42.5 -18z" />
    <glyph glyph-name="uni0157" unicode="&#x157;" horiz-adv-x="334" 
d="M68 0v503h64l19 -63h5q18 27 53 50.5t77 23.5q24 0 39 -4v-87q-16 5 -39 5q-59 0 -95.5 -39t-36.5 -106v-283h-86zM151.5 -93q16.5 -18 16.5 -49q0 -46 -25 -82.5t-54 -59.5l-17 22q12 12 23 31.5t14 44.5q-22 1 -38.5 16.5t-16.5 38.5q0 24 16.5 40t38.5 16
q26 0 42.5 -18z" />
    <glyph glyph-name="Rcaron" unicode="&#x158;" horiz-adv-x="616" 
d="M470 0l-158 282h-137v-282h-92v700h256q63 0 114.5 -28t80.5 -76t29 -107q0 -70 -43 -123t-114 -73l171 -293h-107zM175 614v-247h163q58 0 95.5 34.5t37.5 86.5q0 55 -37.5 90.5t-95.5 35.5h-163zM313 807l66 85h83l-110 -137h-78l-110 137h82z" />
    <glyph glyph-name="rcaron" unicode="&#x159;" horiz-adv-x="334" 
d="M68 0v503h64l19 -63h5q18 27 53 50.5t77 23.5q24 0 39 -4v-87q-16 5 -39 5q-59 0 -95.5 -39t-36.5 -106v-283h-86zM194 616l63 89h81l-105 -142h-76l-106 142h80z" />
    <glyph glyph-name="Sacute" unicode="&#x15a;" horiz-adv-x="564" 
d="M158.5 17q-54.5 28 -84.5 78t-34 114h92q5 -63 45 -99.5t109 -36.5q68 0 104.5 30.5t36.5 78.5q0 37 -21.5 61.5t-53 39.5t-87.5 34q-67 22 -108.5 42.5t-70.5 59.5t-29 101q0 55 26.5 98.5t76.5 68t118 24.5t119 -28t79.5 -77t31.5 -110h-92q-3 59 -40.5 95t-97.5 36
q-61 0 -95 -30t-34 -77q0 -36 20.5 -59t52 -37t84.5 -31q69 -23 111 -43.5t72 -60.5t30 -105q0 -87 -61.5 -141t-172.5 -54q-72 0 -126.5 28zM304 755h-70l74 137h97z" />
    <glyph glyph-name="sacute" unicode="&#x15b;" horiz-adv-x="446" 
d="M130.5 11q-42.5 22 -67.5 59t-28 80h86q4 -38 32 -61.5t75 -23.5q45 0 69.5 19.5t24.5 50.5q0 33 -27.5 50t-86.5 36q-52 17 -83.5 32t-54 43.5t-22.5 73.5q0 40 21 72.5t60.5 52t91.5 19.5q51 0 91 -21t63 -56.5t26 -78.5h-85q-5 38 -28.5 59t-66.5 21q-41 0 -64 -18.5
t-23 -46.5q0 -32 27 -48.5t84 -34.5q52 -16 84.5 -31.5t55.5 -45t23 -75.5q0 -65 -48 -107t-132 -42q-55 0 -97.5 22zM243 563h-67l69 142h94z" />
    <glyph glyph-name="Scircumflex" unicode="&#x15c;" horiz-adv-x="564" 
d="M158.5 17q-54.5 28 -84.5 78t-34 114h92q5 -63 45 -99.5t109 -36.5q68 0 104.5 30.5t36.5 78.5q0 37 -21.5 61.5t-53 39.5t-87.5 34q-67 22 -108.5 42.5t-70.5 59.5t-29 101q0 55 26.5 98.5t76.5 68t118 24.5t119 -28t79.5 -77t31.5 -110h-92q-3 59 -40.5 95t-97.5 36
q-61 0 -95 -30t-34 -77q0 -36 20.5 -59t52 -37t84.5 -31q69 -23 111 -43.5t72 -60.5t30 -105q0 -87 -61.5 -141t-172.5 -54q-72 0 -126.5 28zM320 892l110 -137h-83l-67 85l-67 -85h-81l110 137h78z" />
    <glyph glyph-name="scircumflex" unicode="&#x15d;" horiz-adv-x="446" 
d="M130.5 11q-42.5 22 -67.5 59t-28 80h86q4 -38 32 -61.5t75 -23.5q45 0 69.5 19.5t24.5 50.5q0 33 -27.5 50t-86.5 36q-52 17 -83.5 32t-54 43.5t-22.5 73.5q0 40 21 72.5t60.5 52t91.5 19.5q51 0 91 -21t63 -56.5t26 -78.5h-85q-5 38 -28.5 59t-66.5 21q-41 0 -64 -18.5
t-23 -46.5q0 -32 27 -48.5t84 -34.5q52 -16 84.5 -31.5t55.5 -45t23 -75.5q0 -65 -48 -107t-132 -42q-55 0 -97.5 22zM260 705l105 -142h-81l-63 91l-63 -91h-80l106 142h76z" />
    <glyph glyph-name="Scedilla" unicode="&#x15e;" horiz-adv-x="564" 
d="M461.5 46.5q-57.5 -53.5 -162.5 -57.5l-14 -30q43 -3 67.5 -25.5t24.5 -55.5q0 -40 -28.5 -63t-87.5 -23q-32 0 -60 10v49q23 -7 49 -7q67 0 67 36q0 16 -15 25.5t-47 9.5q-21 0 -38 -5l33 81q-94 10 -149.5 69t-60.5 149h92q5 -63 45 -99.5t109 -36.5q68 0 104.5 30.5
t36.5 78.5q0 37 -21.5 61.5t-53 39.5t-87.5 34q-67 22 -108.5 42.5t-70.5 59.5t-29 101q0 55 26.5 98.5t76.5 68t118 24.5t119 -28t79.5 -77t31.5 -110h-92q-3 59 -40.5 95t-97.5 36q-61 0 -95 -30t-34 -77q0 -36 20.5 -59t52 -37t84.5 -31q69 -23 111 -43.5t72 -60.5
t30 -105q0 -84 -57.5 -137.5z" />
    <glyph glyph-name="scedilla" unicode="&#x15f;" horiz-adv-x="446" 
d="M364.5 34.5q-43.5 -41.5 -120.5 -45.5l-15 -30q43 -3 67.5 -25.5t24.5 -55.5q0 -40 -28.5 -63t-87.5 -23q-32 0 -60 10v49q23 -7 49 -7q67 0 67 36q0 16 -15 25.5t-47 9.5q-21 0 -38 -5l33 81q-69 10 -112 55t-47 104h86q4 -38 32 -61.5t75 -23.5q45 0 69.5 19.5
t24.5 50.5q0 33 -27.5 50t-86.5 36q-52 17 -83.5 32t-54 43.5t-22.5 73.5q0 40 21 72.5t60.5 52t91.5 19.5q51 0 91 -21t63 -56.5t26 -78.5h-85q-5 38 -28.5 59t-66.5 21q-41 0 -64 -18.5t-23 -46.5q0 -32 27 -48.5t84 -34.5q52 -16 84.5 -31.5t55.5 -45t23 -75.5
q0 -62 -43.5 -103.5z" />
    <glyph glyph-name="Scaron" unicode="&#x160;" horiz-adv-x="564" 
d="M158.5 17q-54.5 28 -84.5 78t-34 114h92q5 -63 45 -99.5t109 -36.5q68 0 104.5 30.5t36.5 78.5q0 37 -21.5 61.5t-53 39.5t-87.5 34q-67 22 -108.5 42.5t-70.5 59.5t-29 101q0 55 26.5 98.5t76.5 68t118 24.5t119 -28t79.5 -77t31.5 -110h-92q-3 59 -40.5 95t-97.5 36
q-61 0 -95 -30t-34 -77q0 -36 20.5 -59t52 -37t84.5 -31q69 -23 111 -43.5t72 -60.5t30 -105q0 -87 -61.5 -141t-172.5 -54q-72 0 -126.5 28zM281 807l66 85h83l-110 -137h-78l-110 137h82z" />
    <glyph glyph-name="scaron" unicode="&#x161;" horiz-adv-x="446" 
d="M130.5 11q-42.5 22 -67.5 59t-28 80h86q4 -38 32 -61.5t75 -23.5q45 0 69.5 19.5t24.5 50.5q0 33 -27.5 50t-86.5 36q-52 17 -83.5 32t-54 43.5t-22.5 73.5q0 40 21 72.5t60.5 52t91.5 19.5q51 0 91 -21t63 -56.5t26 -78.5h-85q-5 38 -28.5 59t-66.5 21q-41 0 -64 -18.5
t-23 -46.5q0 -32 27 -48.5t84 -34.5q52 -16 84.5 -31.5t55.5 -45t23 -75.5q0 -65 -48 -107t-132 -42q-55 0 -97.5 22zM220 616l63 89h81l-105 -142h-76l-106 142h80z" />
    <glyph glyph-name="uni0162" unicode="&#x162;" horiz-adv-x="548" 
d="M320 0h-29l-19 -41q43 -3 67.5 -25.5t24.5 -55.5q0 -40 -28.5 -63t-87.5 -23q-32 0 -60 10v49q23 -7 49 -7q67 0 67 36q0 16 -15 25.5t-47 9.5q-21 0 -38 -5l37 90h-13v613h-212v87h516v-87h-212v-613z" />
    <glyph glyph-name="uni0163" unicode="&#x163;" horiz-adv-x="335" 
d="M301 424h-114v-264q0 -45 21 -67.5t58 -22.5q20 0 35 7v-79q-27 -9 -52 -9q-9 0 -25 2l-15 -32q43 -3 67.5 -25.5t24.5 -55.5q0 -40 -28.5 -63t-87.5 -23q-32 0 -60 10v49q23 -7 49 -7q67 0 67 36q0 16 -15 25.5t-47 9.5q-21 0 -38 -5l39 95q-37 19 -58 58t-21 94v267
h-86v76h38q29 0 45 15.5t16 44.5v75h73v-132h114v-79z" />
    <glyph glyph-name="Tcaron" unicode="&#x164;" horiz-adv-x="548" 
d="M320 0h-92v613h-212v87h516v-87h-212v-613zM274 807l66 85h83l-110 -137h-78l-110 137h82z" />
    <glyph glyph-name="tcaron" unicode="&#x165;" horiz-adv-x="335" 
d="M142.5 34q-41.5 45 -41.5 123v267h-86v76h38q29 0 45 15.5t16 44.5v75h73v-132h114v-79h-114v-264q0 -45 21 -67.5t58 -22.5q20 0 35 7v-79q-27 -9 -52 -9q-65 0 -106.5 45zM283 555h-54l32 145h86z" />
    <glyph glyph-name="Tbar" unicode="&#x166;" horiz-adv-x="548" 
d="M532 700v-87h-212v-238h114v-80h-114v-295h-92v295h-113v80h113v238h-212v87h516z" />
    <glyph glyph-name="tbar" unicode="&#x167;" horiz-adv-x="335" 
d="M301 424h-114v-136h110v-64h-110v-64q0 -45 21 -67.5t58 -22.5q20 0 35 7v-79q-27 -9 -52 -9q-65 0 -106.5 45t-41.5 123v67h-82v64h82v136h-86v76h38q29 0 45 15.5t16 44.5v75h73v-132h114v-79z" />
    <glyph glyph-name="Utilde" unicode="&#x168;" horiz-adv-x="676" 
d="M202 23.5q-59 34.5 -91.5 95t-32.5 137.5v444h92v-444q0 -82 46 -131t122 -49t122 49t46 131v444h92v-444q0 -77 -32.5 -137.5t-91.5 -95t-136 -34.5t-136 34.5zM359.5 770.5q-16.5 9.5 -35.5 27.5q-13 12 -22 18t-20 6q-16 0 -27 -15t-11 -40h-61q0 58 26.5 88.5
t66.5 30.5q25 0 42 -10t35 -27q14 -12 22.5 -17.5t18.5 -5.5q17 0 28 14.5t11 39.5h60q0 -57 -26.5 -88t-65.5 -31q-25 0 -41.5 9.5z" />
    <glyph glyph-name="utilde" unicode="&#x169;" horiz-adv-x="565" 
d="M160.5 16.5q-45.5 27.5 -71.5 77.5t-26 116v293h86v-290q0 -65 36.5 -104t92.5 -39q59 0 95.5 39t36.5 104v290h87v-503h-65l-18 63h-5q-18 -27 -56.5 -50.5t-88.5 -23.5q-58 0 -103.5 27.5zM301 580.5q-16 10.5 -35 29.5q-13 13 -22 19.5t-18 6.5q-16 0 -27 -15.5
t-11 -45.5h-60q0 62 26 93.5t65 31.5q23 0 39.5 -10.5t34.5 -29.5q14 -14 22.5 -20t18.5 -6q15 0 26 16t11 44h60q0 -61 -25.5 -92.5t-64.5 -31.5q-24 0 -40 10.5z" />
    <glyph glyph-name="Umacron" unicode="&#x16a;" horiz-adv-x="676" 
d="M202 23.5q-59 34.5 -91.5 95t-32.5 137.5v444h92v-444q0 -82 46 -131t122 -49t122 49t46 131v444h92v-444q0 -77 -32.5 -137.5t-91.5 -95t-136 -34.5t-136 34.5zM473 789h-271v69h271v-69z" />
    <glyph glyph-name="umacron" unicode="&#x16b;" horiz-adv-x="565" 
d="M160.5 16.5q-45.5 27.5 -71.5 77.5t-26 116v293h86v-290q0 -65 36.5 -104t92.5 -39q59 0 95.5 39t36.5 104v290h87v-503h-65l-18 63h-5q-18 -27 -56.5 -50.5t-88.5 -23.5q-58 0 -103.5 27.5zM412 601h-264v66h264v-66z" />
    <glyph glyph-name="Ubreve" unicode="&#x16c;" horiz-adv-x="676" 
d="M202 23.5q-59 34.5 -91.5 95t-32.5 137.5v444h92v-444q0 -82 46 -131t122 -49t122 49t46 131v444h92v-444q0 -77 -32.5 -137.5t-91.5 -95t-136 -34.5t-136 34.5zM237.5 797q-38.5 37 -42.5 91h68q4 -31 22.5 -49.5t52.5 -18.5t52.5 18.5t22.5 49.5h68q-4 -54 -42.5 -91
t-100.5 -37t-100.5 37z" />
    <glyph glyph-name="ubreve" unicode="&#x16d;" horiz-adv-x="565" 
d="M160.5 16.5q-45.5 27.5 -71.5 77.5t-26 116v293h86v-290q0 -65 36.5 -104t92.5 -39q59 0 95.5 39t36.5 104v290h87v-503h-65l-18 63h-5q-18 -27 -56.5 -50.5t-88.5 -23.5q-58 0 -103.5 27.5zM181 606.5q-38 37.5 -42 92.5h67q3 -32 21.5 -51t52.5 -19q33 0 51.5 19
t22.5 51h66q-3 -55 -41.5 -92.5t-98.5 -37.5q-61 0 -99 37.5z" />
    <glyph glyph-name="Uring" unicode="&#x16e;" horiz-adv-x="676" 
d="M202 23.5q-59 34.5 -91.5 95t-32.5 137.5v444h92v-444q0 -82 46 -131t122 -49t122 49t46 131v444h92v-444q0 -77 -32.5 -137.5t-91.5 -95t-136 -34.5t-136 34.5zM266.5 783.5q-28.5 27.5 -28.5 67.5t28.5 68t70.5 28t70.5 -28t28.5 -68t-28.5 -67.5t-70.5 -27.5
t-70.5 27.5zM369 819q13 12 13 32t-13 32.5t-32 12.5t-32 -12.5t-13 -32.5t13 -32t32 -12t32 12z" />
    <glyph glyph-name="uring" unicode="&#x16f;" horiz-adv-x="565" 
d="M160.5 16.5q-45.5 27.5 -71.5 77.5t-26 116v293h86v-290q0 -65 36.5 -104t92.5 -39q59 0 95.5 39t36.5 104v290h87v-503h-65l-18 63h-5q-18 -27 -56.5 -50.5t-88.5 -23.5q-58 0 -103.5 27.5zM210 579q-28 27 -28 67t28 67.5t69 27.5q42 0 70 -27.5t28 -67.5t-28 -67
t-70 -27q-41 0 -69 27zM312 613q13 13 13 33t-13 33t-33 13t-32.5 -13t-12.5 -33t12.5 -33t32.5 -13t33 13z" />
    <glyph glyph-name="Uhungarumlaut" unicode="&#x170;" horiz-adv-x="676" 
d="M202 23.5q-59 34.5 -91.5 95t-32.5 137.5v444h92v-444q0 -82 46 -131t122 -49t122 49t46 131v444h92v-444q0 -77 -32.5 -137.5t-91.5 -95t-136 -34.5t-136 34.5zM299 755h-66l83 137h93zM443 755h-66l83 137h94z" />
    <glyph glyph-name="uhungarumlaut" unicode="&#x171;" horiz-adv-x="565" 
d="M160.5 16.5q-45.5 27.5 -71.5 77.5t-26 116v293h86v-290q0 -65 36.5 -104t92.5 -39q59 0 95.5 39t36.5 104v290h87v-503h-65l-18 63h-5q-18 -27 -56.5 -50.5t-88.5 -23.5q-58 0 -103.5 27.5zM241 563h-64l78 142h91zM384 563h-65l78 142h92z" />
    <glyph glyph-name="Uogonek" unicode="&#x172;" horiz-adv-x="676" 
d="M506 700h92v-444q0 -72 -28 -128t-80 -95q-54 -40 -83.5 -73t-29.5 -65q0 -22 14.5 -35.5t38.5 -13.5q18 0 33 5v-52q-19 -7 -44 -7q-46 0 -74.5 25t-28.5 67q0 31 17 59t45 49q-19 -3 -40 -3q-77 0 -136 34.5t-91.5 95t-32.5 137.5v444h92v-444q0 -82 46 -131t122 -49
t122 49t46 131v444z" />
    <glyph glyph-name="uogonek" unicode="&#x173;" horiz-adv-x="565" 
d="M497 0q-86 -50 -86 -105q0 -22 14.5 -35.5t38.5 -13.5q18 0 33 5v-53q-22 -6 -45 -6q-46 0 -74 25t-28 67q0 37 22.5 68.5t58.5 51.5l-17 59h-5q-18 -27 -56.5 -50.5t-88.5 -23.5q-58 0 -103.5 27.5t-71.5 77.5t-26 116v293h86v-290q0 -65 36.5 -104t92.5 -39
q59 0 95.5 39t36.5 104v290h87v-503z" />
    <glyph glyph-name="Wcircumflex" unicode="&#x174;" horiz-adv-x="884" 
d="M628 174l154 526h92l-213 -700h-70l-149 513l-148 -513h-71l-213 700h95l154 -526l150 526h67zM482 892l110 -137h-83l-67 85l-67 -85h-81l110 137h78z" />
    <glyph glyph-name="wcircumflex" unicode="&#x175;" horiz-adv-x="701" 
d="M494 138l115 365h87l-167 -503h-68l-111 354l-110 -354h-68l-167 503h91l114 -363l113 363h57zM390 705l105 -142h-81l-63 91l-63 -91h-80l106 142h76z" />
    <glyph glyph-name="Ycircumflex" unicode="&#x176;" horiz-adv-x="551" 
d="M277 364l176 336h98l-230 -430v-270h-92v270l-229 430h101zM317 892l110 -137h-83l-67 85l-67 -85h-81l110 137h78z" />
    <glyph glyph-name="ycircumflex" unicode="&#x177;" horiz-adv-x="487" 
d="M393 503h89l-216 -542q-33 -83 -67 -114.5t-79 -31.5q-20 0 -47 9v78q17 -6 33 -6q27 0 45.5 15t32.5 50l20 51l-199 491h93l149 -384zM284 705l105 -142h-81l-63 91l-63 -91h-80l106 142h76z" />
    <glyph glyph-name="Ydieresis" unicode="&#x178;" horiz-adv-x="551" 
d="M277 364l176 336h98l-230 -430v-270h-92v270l-229 430h101zM151 787q-15 15 -15 36q0 22 15 37t36 15q22 0 37 -15t15 -37t-15 -36.5t-37 -14.5q-21 0 -36 15zM331.5 787q-15.5 15 -15.5 36q0 22 15.5 37t36.5 15q20 0 35.5 -15t15.5 -37q0 -21 -15 -36t-36 -15t-36.5 15
z" />
    <glyph glyph-name="Zacute" unicode="&#x179;" horiz-adv-x="554" 
d="M504 636l-352 -550h365v-86h-480v64l351 550h-340v86h456v-64zM299 755h-70l74 137h97z" />
    <glyph glyph-name="zacute" unicode="&#x17a;" horiz-adv-x="428" 
d="M389 431l-256 -352h264v-79h-366v72l257 352h-252v79h353v-72zM235 563h-67l69 142h94z" />
    <glyph glyph-name="Zdotaccent" unicode="&#x17b;" horiz-adv-x="554" 
d="M504 636l-352 -550h365v-86h-480v64l351 550h-340v86h456v-64zM237.5 784.5q-15.5 15.5 -15.5 38.5q0 24 15.5 39.5t38.5 15.5t39 -15.5t16 -39.5q0 -23 -16 -38.5t-39 -15.5t-38.5 15.5z" />
    <glyph glyph-name="zdotaccent" unicode="&#x17c;" horiz-adv-x="428" 
d="M389 431l-256 -352h264v-79h-366v72l257 352h-252v79h353v-72zM174.5 594q-15.5 16 -15.5 39q0 24 15.5 39t38.5 15q24 0 39.5 -15t15.5 -39q0 -23 -16 -39t-39 -16t-38.5 16z" />
    <glyph glyph-name="Zcaron" unicode="&#x17d;" horiz-adv-x="554" 
d="M504 636l-352 -550h365v-86h-480v64l351 550h-340v86h456v-64zM276 807l66 85h83l-110 -137h-78l-110 137h82z" />
    <glyph glyph-name="zcaron" unicode="&#x17e;" horiz-adv-x="428" 
d="M389 431l-256 -352h264v-79h-366v72l257 352h-252v79h353v-72zM212 616l63 89h81l-105 -142h-76l-106 142h80z" />
    <glyph glyph-name="uni018F" unicode="&#x18f;" horiz-adv-x="737" 
d="M529 663.5q76 -47.5 121.5 -130t45.5 -183.5t-45.5 -183.5t-121.5 -130t-164 -47.5q-86 0 -160.5 47t-119 129t-44.5 182q0 20 2 34h560q-7 71 -40.5 126t-85.5 86t-112 31q-69 0 -123 -36t-84 -98h-93q20 64 64.5 114.5t106 78.5t129.5 28q88 0 164 -47.5zM472.5 104.5
q50.5 28.5 84.5 80t44 117.5h-464q5 -62 37 -114t82.5 -82t108.5 -30q57 0 107.5 28.5z" />
    <glyph glyph-name="florin" unicode="&#x192;" horiz-adv-x="380" 
d="M406 700l-17 -75q-18 6 -35 6q-40 0 -62.5 -26t-33.5 -80l-19 -104h109l-16 -81h-109l-65 -344q-17 -93 -60 -137t-116 -44q-27 0 -55 11l17 75q16 -6 34 -6q40 0 63 26t34 81l63 338h-77l16 81h77l20 109q18 93 61 137t115 44q26 0 56 -11z" />
    <glyph glyph-name="Ohorn" unicode="&#x1a0;" horiz-adv-x="742" 
d="M668.5 507q32.5 -73 32.5 -157q0 -101 -45 -183.5t-121 -130t-164 -47.5t-164 47.5t-121 130t-45 183.5t45 183.5t121 130t164 47.5q58 0 111 -21h62q50 0 50 47q0 23 -14 54h65q17 -34 17 -65q0 -36 -22 -62.5t-60 -33.5q56 -50 88.5 -123zM489 111q55 35 87.5 97.5
t32.5 141.5t-32.5 141.5t-87.5 97.5t-118 35t-117.5 -35t-87.5 -97.5t-33 -141.5t33 -141.5t87.5 -97.5t117.5 -35t118 35z" />
    <glyph glyph-name="ohorn" unicode="&#x1a1;" horiz-adv-x="559" 
d="M504 355.5q19 -48.5 19 -103.5q0 -73 -33 -133.5t-89 -95t-121 -34.5q-66 0 -121.5 34.5t-88.5 95t-33 133.5t33 133t88.5 94.5t121.5 34.5q52 0 100 -23h16q49 0 49 39q0 25 -13 62h59q19 -34 19 -67q0 -29 -16 -52t-44 -33q35 -36 54 -84.5zM358 93q36 23 57 64.5
t21 94.5t-21 94t-57 64t-78 23t-78 -23t-57.5 -64t-21.5 -94t21.5 -94.5t57 -64.5t78.5 -23q42 0 78 23z" />
    <glyph glyph-name="Uhorn" unicode="&#x1af;" horiz-adv-x="699" 
d="M697 801q17 -34 17 -65q0 -42 -29 -70t-77 -28h-10v-382q0 -77 -32.5 -137.5t-91.5 -95t-136 -34.5t-136 34.5t-91.5 95t-32.5 137.5v444h92v-444q0 -82 46 -131t122 -49t122 49t46 131v444h91q49 0 49 47q0 23 -14 54h65z" />
    <glyph glyph-name="uhorn" unicode="&#x1b0;" horiz-adv-x="588" 
d="M592 604q18 -36 18 -67q0 -40 -28 -66t-74 -26h-11v-445h-65l-18 63h-5q-18 -27 -56.5 -50.5t-88.5 -23.5q-58 0 -103.5 27.5t-71.5 77.5t-26 116v293h86v-290q0 -65 36.5 -104t92.5 -39q59 0 95.5 39t36.5 104v290h86q49 0 49 39q0 25 -13 62h60z" />
    <glyph glyph-name="uni01F4" unicode="&#x1f4;" horiz-adv-x="750" 
d="M389 350h292v-350h-60l-18 106q-35 -49 -96 -83t-136 -34q-88 0 -164 47.5t-121 130t-45 183.5t45 183.5t121 130t164 47.5q74 0 137 -31.5t105.5 -84t56.5 -114.5h-94q-22 61 -75 102t-130 41q-63 0 -117.5 -35t-87.5 -97.5t-33 -141.5t33 -141.5t87.5 -97.5t117.5 -35
q60 0 107.5 26.5t75.5 70.5t32 96h-197v81zM392 755h-70l74 137h97z" />
    <glyph glyph-name="uni01F5" unicode="&#x1f5;" horiz-adv-x="569" 
d="M171 -168q-46 22 -74 57.5t-38 75.5h87q12 -35 46.5 -55.5t84.5 -20.5q63 0 100.5 36t37.5 98v67h-5q-15 -23 -55 -47.5t-91 -24.5q-61 0 -113.5 32.5t-83 89t-30.5 125.5q0 70 30.5 127t82.5 89.5t113 32.5q53 0 94 -25t56 -49h5l19 63h64v-480q0 -97 -60.5 -155
t-162.5 -58q-61 0 -107 22zM341.5 119q33.5 22 53.5 60.5t20 85.5q0 48 -20 87t-53.5 61t-72.5 22t-72.5 -22t-53.5 -61t-20 -87q0 -47 20 -85.5t53.5 -60.5t72.5 -22t72.5 22zM306 563h-67l69 142h94z" />
    <glyph glyph-name="Aringacute" unicode="&#x1fa;" horiz-adv-x="620" 
d="M618 0h-98l-61 168h-302l-61 -168h-94l264 700h88zM427 253l-119 323l-119 -323h238zM345 951h-68l62 121h93zM239.5 773.5q-28.5 27.5 -28.5 67.5t28.5 68t70.5 28t70.5 -28t28.5 -68t-28.5 -67.5t-70.5 -27.5t-70.5 27.5zM342 809q13 12 13 32t-13 32.5t-32 12.5
t-32 -12.5t-13 -32.5t13 -32t32 -12t32 12z" />
    <glyph glyph-name="aringacute" unicode="&#x1fb;" horiz-adv-x="506" 
d="M350 489.5q44 -24.5 68.5 -69t24.5 -101.5v-319h-65l-18 63h-5q-20 -28 -58 -51t-93 -23q-50 0 -88 20t-59 54.5t-21 76.5q0 47 28.5 83.5t80 56.5t117.5 20h94v23q0 51 -29.5 81.5t-77.5 30.5q-45 0 -71 -23t-33 -59h-87q5 43 29.5 80t66.5 59t95 22q57 0 101 -24.5z
M318 101.5q38 36.5 38 91.5v38h-88q-70 0 -108 -23t-38 -64q0 -36 25 -57.5t71 -21.5q62 0 100 36.5zM284 755h-64l63 129h91zM183 579.5q-28 27.5 -28 66.5q0 40 28 67t69 27t69 -27t28 -67q0 -39 -28 -66.5t-69 -27.5t-69 27.5zM285 613.5q13 12.5 13 32.5t-13 33t-33 13
t-33 -13t-13 -33t13 -32.5t33 -12.5t33 12.5z" />
    <glyph glyph-name="AEacute" unicode="&#x1fc;" horiz-adv-x="891" 
d="M513 317v-231h335v-86h-425v168h-259l-94 -168h-101l397 700h472v-86h-325v-212h287v-85h-287zM413 614l-202 -361h212v361h-10zM491 755h-70l74 137h97z" />
    <glyph glyph-name="aeacute" unicode="&#x1fd;" horiz-adv-x="833" 
d="M791 221h-353q7 -71 46 -112t96 -41q76 0 110 67h89q-23 -64 -74.5 -105t-122.5 -41q-62 0 -109.5 29.5t-72.5 76.5q-22 -48 -69.5 -77t-122.5 -29q-53 0 -92 20t-59.5 53t-20.5 73q0 71 61 113.5t167 42.5h94v34q0 50 -29.5 80t-77.5 30q-47 0 -73 -22.5t-33 -59.5h-87
q5 43 30 80t67 59t97 22q57 0 98 -28t59 -67q24 41 68 68t104 27q62 0 111 -31t76.5 -87.5t27.5 -129.5q0 -32 -5 -45zM487 395.5q-39 -39.5 -48 -105.5h273q-5 62 -40 103.5t-93 41.5q-53 0 -92 -39.5zM320 102q38 37 38 94v26h-89q-147 0 -147 -84q0 -32 25 -52.5
t71 -20.5q64 0 102 37zM440 563h-67l69 142h94z" />
    <glyph glyph-name="Oslashacute" unicode="&#x1fe;" horiz-adv-x="742" 
d="M702 651l-72 -77q34 -47 52.5 -104t18.5 -120q0 -101 -45 -183.5t-121 -130t-164 -47.5q-57 0 -110 20.5t-96 58.5l-69 -74l-55 55l71 77q-34 46 -52.5 103.5t-18.5 120.5q0 101 45 183.5t121 130t164 47.5q57 0 110 -20.5t97 -58.5l69 74zM252 590q-55 -35 -88 -98
t-33 -142q0 -90 43 -160l346 377q-32 28 -70 43t-79 15q-64 0 -119 -35zM490 110q55 35 88 98t33 142q0 91 -43 159l-346 -376q32 -28 70 -43t79 -15q64 0 119 35zM393 755h-70l74 137h97z" />
    <glyph glyph-name="oslashacute" unicode="&#x1ff;" horiz-adv-x="559" 
d="M523 462l-49 -51q49 -70 49 -159q0 -73 -33 -133.5t-89 -95t-121 -34.5q-84 0 -150 55l-46 -50l-47 47l48 52q-48 69 -48 159q0 73 33 133t88.5 94.5t121.5 34.5q41 0 79.5 -14t69.5 -40l47 49zM200 412q-36 -23 -57.5 -64.5t-21.5 -95.5t23 -100l232 248q-43 35 -96 35
q-44 0 -80 -23zM360 91q36 23 57 65t21 96q0 56 -23 99l-232 -247q42 -36 97 -36q44 0 80 23zM302 563h-67l69 142h94z" />
    <glyph glyph-name="uni0218" unicode="&#x218;" horiz-adv-x="564" 
d="M158.5 17q-54.5 28 -84.5 78t-34 114h92q5 -63 45 -99.5t109 -36.5q68 0 104.5 30.5t36.5 78.5q0 37 -21.5 61.5t-53 39.5t-87.5 34q-67 22 -108.5 42.5t-70.5 59.5t-29 101q0 55 26.5 98.5t76.5 68t118 24.5t119 -28t79.5 -77t31.5 -110h-92q-3 59 -40.5 95t-97.5 36
q-61 0 -95 -30t-34 -77q0 -36 20.5 -59t52 -37t84.5 -31q69 -23 111 -43.5t72 -60.5t30 -105q0 -87 -61.5 -141t-172.5 -54q-72 0 -126.5 28zM327.5 -93q16.5 -18 16.5 -49q0 -46 -25 -82.5t-54 -59.5l-17 22q12 12 23 31.5t14 44.5q-22 1 -38.5 16.5t-16.5 38.5
q0 24 16.5 40t38.5 16q26 0 42.5 -18z" />
    <glyph glyph-name="uni0219" unicode="&#x219;" horiz-adv-x="446" 
d="M130.5 11q-42.5 22 -67.5 59t-28 80h86q4 -38 32 -61.5t75 -23.5q45 0 69.5 19.5t24.5 50.5q0 33 -27.5 50t-86.5 36q-52 17 -83.5 32t-54 43.5t-22.5 73.5q0 40 21 72.5t60.5 52t91.5 19.5q51 0 91 -21t63 -56.5t26 -78.5h-85q-5 38 -28.5 59t-66.5 21q-41 0 -64 -18.5
t-23 -46.5q0 -32 27 -48.5t84 -34.5q52 -16 84.5 -31.5t55.5 -45t23 -75.5q0 -65 -48 -107t-132 -42q-55 0 -97.5 22zM272.5 -93q16.5 -18 16.5 -49q0 -46 -25 -82.5t-54 -59.5l-17 22q12 12 23 31.5t14 44.5q-22 1 -38.5 16.5t-16.5 38.5q0 24 16.5 40t38.5 16
q26 0 42.5 -18z" />
    <glyph glyph-name="uni021A" unicode="&#x21a;" horiz-adv-x="548" 
d="M320 0h-92v613h-212v87h516v-87h-212v-613zM315.5 -93q16.5 -18 16.5 -49q0 -46 -25 -82.5t-54 -59.5l-17 22q12 12 23 31.5t14 44.5q-22 1 -38.5 16.5t-16.5 38.5q0 24 16.5 40t38.5 16q26 0 42.5 -18z" />
    <glyph glyph-name="uni021B" unicode="&#x21b;" horiz-adv-x="335" 
d="M142.5 34q-41.5 45 -41.5 123v267h-86v76h38q29 0 45 15.5t16 44.5v75h73v-132h114v-79h-114v-264q0 -45 21 -67.5t58 -22.5q20 0 35 7v-79q-27 -9 -52 -9q-65 0 -106.5 45zM252.5 -93q16.5 -18 16.5 -49q0 -46 -25 -82.5t-54 -59.5l-17 22q12 12 23 31.5t14 44.5
q-22 1 -38.5 16.5t-16.5 38.5q0 24 16.5 40t38.5 16q26 0 42.5 -18z" />
    <glyph glyph-name="uni0232" unicode="&#x232;" horiz-adv-x="551" 
d="M277 364l176 336h98l-230 -430v-270h-92v270l-229 430h101zM413 789h-271v69h271v-69z" />
    <glyph glyph-name="uni0233" unicode="&#x233;" horiz-adv-x="487" 
d="M393 503h89l-216 -542q-33 -83 -67 -114.5t-79 -31.5q-20 0 -47 9v78q17 -6 33 -6q27 0 45.5 15t32.5 50l20 51l-199 491h93l149 -384zM378 601h-264v66h264v-66z" />
    <glyph glyph-name="uni0237" unicode="&#x237;" horiz-adv-x="223" 
d="M-45 -176v78q17 -6 34 -6q38 0 58.5 22.5t20.5 67.5v517h86v-521q0 -78 -41 -122.5t-106 -44.5q-25 0 -52 9z" />
    <glyph glyph-name="uni0244" unicode="&#x244;" horiz-adv-x="732" 
d="M719 457v-80h-93v-121q0 -77 -32.5 -137.5t-91.5 -95t-136 -34.5t-136 34.5t-91.5 95t-32.5 137.5v121h-93v80h93v243h92v-243h336v243h92v-243h93zM534 377h-336v-121q0 -82 46 -131t122 -49t122 49t46 131v121z" />
    <glyph glyph-name="uni0259" unicode="&#x259;" horiz-adv-x="548" 
d="M391 480q56 -34 88 -93.5t32 -134.5q0 -73 -33 -133.5t-88.5 -95t-120.5 -34.5t-118 33t-83.5 90t-30.5 127q0 34 4 50h382q-10 68 -51.5 107t-103.5 39q-83 0 -125 -67h-88q23 61 81 103.5t132 42.5q67 0 123 -34zM370.5 109.5q43.5 41.5 53.5 108.5h-303
q8 -66 48.5 -108t99.5 -42q58 0 101.5 41.5z" />
    <glyph glyph-name="uni0289" unicode="&#x289;" horiz-adv-x="602" 
d="M594 346v-71h-79v-275h-64l-19 63h-5q-18 -28 -56 -51t-88 -23q-58 0 -103.5 27.5t-71.5 77.5t-26 116v65h-79v71h79v157h86v-157h261v157h86v-157h79zM429 275h-261v-62q0 -65 36 -104t92 -39q59 0 96 39t37 104v62z" />
    <glyph glyph-name="uni02BC" unicode="&#x2bc;" horiz-adv-x="174" 
d="M127.5 693.5q16.5 -17.5 16.5 -48.5q0 -50 -25.5 -89t-56.5 -67l-17 22q33 41 38 90q-22 2 -37.5 16.5t-15.5 38.5q0 23 16.5 39t38.5 16q26 0 42.5 -17.5z" />
    <glyph glyph-name="circumflex" unicode="&#x2c6;" horiz-adv-x="347" 
d="M212 705l105 -142h-81l-63 91l-63 -91h-80l106 142h76z" />
    <glyph glyph-name="caron" unicode="&#x2c7;" horiz-adv-x="347" 
d="M173 616l63 89h81l-105 -142h-76l-106 142h80z" />
    <glyph glyph-name="breve" unicode="&#x2d8;" horiz-adv-x="341" 
d="M72 606.5q-38 37.5 -42 92.5h67q3 -32 21.5 -51t52.5 -19q33 0 51.5 19t22.5 51h66q-3 -55 -41.5 -92.5t-98.5 -37.5q-61 0 -99 37.5z" />
    <glyph glyph-name="dotaccent" unicode="&#x2d9;" horiz-adv-x="169" 
d="M45.5 594q-15.5 16 -15.5 39q0 24 15.5 39t38.5 15q24 0 39.5 -15t15.5 -39q0 -23 -16 -39t-39 -16t-38.5 16z" />
    <glyph glyph-name="ring" unicode="&#x2da;" horiz-adv-x="255" 
d="M58 579q-28 27 -28 67t28 67.5t69 27.5q42 0 70 -27.5t28 -67.5t-28 -67t-70 -27q-41 0 -69 27zM160 613q13 13 13 33t-13 33t-33 13t-32.5 -13t-12.5 -33t12.5 -33t32.5 -13t33 13z" />
    <glyph glyph-name="ogonek" unicode="&#x2db;" horiz-adv-x="207" 
d="M105.5 -140.5q14.5 -13.5 38.5 -13.5q18 0 33 5v-53q-22 -6 -45 -6q-46 0 -74 25t-28 67q0 37 23 69t59 51v10l65 -14q-86 -50 -86 -105q0 -22 14.5 -35.5z" />
    <glyph glyph-name="tilde" unicode="&#x2dc;" horiz-adv-x="363" 
d="M203 580.5q-16 10.5 -35 29.5q-13 13 -22 19.5t-18 6.5q-16 0 -27 -15.5t-11 -45.5h-60q0 62 26 93.5t65 31.5q23 0 39.5 -10.5t34.5 -29.5q14 -14 22.5 -20t18.5 -6q15 0 26 16t11 44h60q0 -61 -25.5 -92.5t-64.5 -31.5q-24 0 -40 10.5z" />
    <glyph glyph-name="hungarumlaut" unicode="&#x2dd;" horiz-adv-x="372" 
d="M94 563h-64l78 142h91zM237 563h-65l78 142h92z" />
    <glyph glyph-name="gravecomb" unicode="&#x300;" 
d="M-30 563h-66l-97 142h94z" />
    <glyph glyph-name="acutecomb" unicode="&#x301;" 
d="M-126 563h-67l69 142h94z" />
    <glyph glyph-name="uni0302" unicode="&#x302;" 
d="M-135 705l105 -142h-81l-63 91l-63 -91h-80l106 142h76z" />
    <glyph glyph-name="tildecomb" unicode="&#x303;" 
d="M-160 580.5q-16 10.5 -35 29.5q-13 13 -22 19.5t-18 6.5q-16 0 -27 -15.5t-11 -45.5h-60q0 62 26 93.5t65 31.5q23 0 39.5 -10.5t34.5 -29.5q14 -14 22.5 -20t18.5 -6q15 0 26 16t11 44h60q0 -61 -25.5 -92.5t-64.5 -31.5q-24 0 -40 10.5z" />
    <glyph glyph-name="uni0304" unicode="&#x304;" 
d="M-30 601h-264v66h264v-66z" />
    <glyph glyph-name="uni0306" unicode="&#x306;" 
d="M-269 606.5q-38 37.5 -42 92.5h67q3 -32 21.5 -51t52.5 -19q33 0 51.5 19t22.5 51h66q-3 -55 -41.5 -92.5t-98.5 -37.5q-61 0 -99 37.5z" />
    <glyph glyph-name="uni0307" unicode="&#x307;" 
d="M-123.5 594q-15.5 16 -15.5 39q0 24 15.5 39t38.5 15q24 0 39.5 -15t15.5 -39q0 -23 -16 -39t-39 -16t-38.5 16z" />
    <glyph glyph-name="uni0308" unicode="&#x308;" 
d="M-285 597q-15 15 -15 36t15 36t36 15t36 -14.5t15 -36.5t-15 -36.5t-36 -14.5t-36 15zM-117 596.5q-15 14.5 -15 36.5t15 36.5t36 14.5t36 -15t15 -36t-15 -36t-36 -15t-36 14.5z" />
    <glyph glyph-name="hookabovecomb" unicode="&#x309;" 
d="M-117 560q22 30 22 61q0 54 -53 54q-15 0 -28 -4v56q19 7 47 7q46 0 72.5 -24.5t26.5 -66.5t-30 -83h-57z" />
    <glyph glyph-name="uni030A" unicode="&#x30a;" 
d="M-197 579q-28 27 -28 67t28 67.5t69 27.5q42 0 70 -27.5t28 -67.5t-28 -67t-70 -27q-41 0 -69 27zM-95 613q13 13 13 33t-13 33t-33 13t-32.5 -13t-12.5 -33t12.5 -33t32.5 -13t33 13z" />
    <glyph glyph-name="uni030B" unicode="&#x30b;" 
d="M-278 563h-64l78 142h91zM-135 563h-65l78 142h92z" />
    <glyph glyph-name="uni030C" unicode="&#x30c;" 
d="M-174 616l63 89h81l-105 -142h-76l-106 142h80z" />
    <glyph glyph-name="uni0312" unicode="&#x312;" 
d="M-46 656.5q16 -15.5 16 -38.5t-16.5 -39t-38.5 -16q-26 0 -42.5 17.5t-16.5 48.5q0 47 26.5 83t56.5 57l16 -21q-13 -11 -24.5 -30.5t-14.5 -44.5q22 -1 38 -16.5z" />
    <glyph glyph-name="uni031B" unicode="&#x31b;" 
d="M-193 445l-10 58h59q49 0 49 39q0 25 -13 62h59q19 -34 19 -67q0 -40 -28.5 -66t-74.5 -26h-60z" />
    <glyph glyph-name="dotbelowcomb" unicode="&#x323;" 
d="M-123.5 -168.5q-15.5 15.5 -15.5 38.5q0 24 15.5 39.5t38.5 15.5t39 -15.5t16 -39.5q0 -23 -16 -38.5t-39 -15.5t-38.5 15.5z" />
    <glyph glyph-name="uni0327" unicode="&#x327;" 
d="M-122 -41q43 -3 67.5 -25.5t24.5 -55.5q0 -40 -28.5 -63t-87.5 -23q-32 0 -60 10v49q23 -7 49 -7q67 0 67 36q0 16 -15 25.5t-47 9.5q-21 0 -38 -5l43 106h52z" />
    <glyph glyph-name="uni0328" unicode="&#x328;" 
d="M-101.5 -140.5q14.5 -13.5 38.5 -13.5q18 0 33 5v-53q-22 -6 -45 -6q-46 0 -74 25t-28 67q0 37 23 69t59 51v10l65 -14q-86 -50 -86 -105q0 -22 14.5 -35.5z" />
    <glyph glyph-name="uni0400" unicode="&#x400;" horiz-adv-x="583" 
d="M175 317v-231h365v-86h-457v700h447v-86h-355v-212h317v-85h-317zM355 755h-70l-102 137h97z" />
    <glyph glyph-name="uni0401" unicode="&#x401;" horiz-adv-x="583" 
d="M175 317v-231h365v-86h-457v700h447v-86h-355v-212h317v-85h-317zM181 787q-15 15 -15 36q0 22 15 37t36 15q22 0 37 -15t15 -37t-15 -36.5t-37 -14.5q-21 0 -36 15zM361.5 787q-15.5 15 -15.5 36q0 22 15.5 37t36.5 15q20 0 35.5 -15t15.5 -37q0 -21 -15 -36t-36 -15
t-36.5 15z" />
    <glyph glyph-name="uni0402" unicode="&#x402;" horiz-adv-x="722" 
d="M554.5 424.5q53.5 -29.5 83.5 -86.5t30 -136t-31.5 -137.5t-87.5 -90.5t-128 -32v85q68 0 111.5 46.5t43.5 125.5q0 83 -41 126.5t-111 43.5q-49 0 -91.5 -15t-73.5 -36v-318h-92v615h-169v85h485v-85h-224v-211q32 21 77 35.5t95 14.5q70 0 123.5 -29.5z" />
    <glyph glyph-name="uni0403" unicode="&#x403;" horiz-adv-x="506" 
d="M175 0h-92v700h412v-87h-320v-613zM312 755h-70l74 137h97z" />
    <glyph glyph-name="uni0404" unicode="&#x404;" horiz-adv-x="706" 
d="M670 223q-16 -62 -58.5 -115.5t-105 -86t-136.5 -32.5q-87 0 -163 47.5t-121 130t-45 183.5t45 183.5t121 130t163 47.5q73 0 134.5 -32.5t104 -86.5t58.5 -115h-94q-23 61 -76.5 104t-126.5 43q-57 0 -107.5 -29t-84.5 -82.5t-43 -121.5h278v-82h-278q9 -68 43 -121.5
t84.5 -82.5t107.5 -29q75 0 129.5 43t76.5 104h94z" />
    <glyph glyph-name="uni0405" unicode="&#x405;" horiz-adv-x="564" 
d="M158.5 17q-54.5 28 -84.5 78t-34 114h92q5 -63 45 -99.5t109 -36.5q68 0 104.5 30.5t36.5 78.5q0 37 -21.5 61.5t-53 39.5t-87.5 34q-67 22 -108.5 42.5t-70.5 59.5t-29 101q0 55 26.5 98.5t76.5 68t118 24.5t119 -28t79.5 -77t31.5 -110h-92q-3 59 -40.5 95t-97.5 36
q-61 0 -95 -30t-34 -77q0 -36 20.5 -59t52 -37t84.5 -31q69 -23 111 -43.5t72 -60.5t30 -105q0 -87 -61.5 -141t-172.5 -54q-72 0 -126.5 28z" />
    <glyph glyph-name="uni0406" unicode="&#x406;" horiz-adv-x="259" 
d="M175 0h-92v700h92v-700z" />
    <glyph glyph-name="uni0407" unicode="&#x407;" horiz-adv-x="259" 
d="M175 0h-92v700h92v-700zM19 787q-15 15 -15 36q0 22 15 37t36 15q22 0 37 -15t15 -37t-15 -36.5t-37 -14.5q-21 0 -36 15zM167 787q-15 15 -15 36q0 22 15 37t36 15q22 0 37 -15t15 -37t-15 -36.5t-37 -14.5q-21 0 -36 15z" />
    <glyph glyph-name="uni0408" unicode="&#x408;" horiz-adv-x="531" 
d="M119 17q-50 28 -77.5 75.5t-27.5 104.5h91q1 -31 17 -59t45.5 -45t66.5 -17q58 0 92.5 36t34.5 94v494h92v-494q0 -63 -27 -112.5t-77 -77t-115 -27.5t-115 28z" />
    <glyph glyph-name="uni0409" unicode="&#x409;" horiz-adv-x="983" 
d="M725 423q65 0 117 -28t81.5 -76.5t29.5 -106.5t-29.5 -107t-81.5 -77t-117 -28h-230v613h-246l-32 -410q-8 -104 -56.5 -159t-123.5 -55q-31 0 -45 6v85h18q51 0 81 32t35 99l38 489h423v-277h138zM725 87q61 0 98 35t37 90t-37 89.5t-98 34.5h-138v-249h138z" />
    <glyph glyph-name="uni040A" unicode="&#x40a;" horiz-adv-x="991" 
d="M733 423q65 0 116.5 -28t81 -76.5t29.5 -107.5q0 -58 -29.5 -106.5t-81 -76.5t-116.5 -28h-230v336h-328v-336h-92v700h92v-277h328v277h92v-277h138zM732 87q61 0 98.5 35t37.5 89q0 55 -37.5 90t-98.5 35h-137v-249h137z" />
    <glyph glyph-name="uni040B" unicode="&#x40b;" horiz-adv-x="727" 
d="M600 391q63 -63 63 -173v-218h-92v212q0 75 -39 115t-108 40q-49 0 -91.5 -15t-73.5 -36v-316h-92v615h-169v85h485v-85h-224v-211q32 21 77 35.5t95 14.5q106 0 169 -63z" />
    <glyph glyph-name="uni040C" unicode="&#x40c;" horiz-adv-x="568" 
d="M276 359l301 -359h-117l-285 344v-344h-92v700h92v-334l275 334h110zM332 755h-70l74 137h97z" />
    <glyph glyph-name="uni040D" unicode="&#x40d;" horiz-adv-x="699" 
d="M174 154l355 546h87v-700h-91v546l-355 -546h-87v700h91v-546zM404 755h-70l-102 137h97z" />
    <glyph glyph-name="uni040E" unicode="&#x40e;" horiz-adv-x="565" 
d="M471 700h95l-247 -549q-38 -86 -78 -124t-100 -38q-17 0 -32 3.5t-24 7.5v82q19 -8 41 -8q36 0 61.5 24t45.5 67l14 31l-237 504h100l184 -406zM187.5 797q-39.5 37 -43.5 91h68q4 -31 23.5 -49t55.5 -18t55.5 18t23.5 49h68q-4 -54 -43.5 -91t-103.5 -37t-103.5 37z" />
    <glyph glyph-name="uni040F" unicode="&#x40f;" horiz-adv-x="688" 
d="M513 700h92v-700h-215v-150h-92v150h-215v700h92v-613h338v613z" />
    <glyph glyph-name="uni0410" unicode="&#x410;" horiz-adv-x="620" 
d="M618 0h-98l-61 168h-302l-61 -168h-94l264 700h88zM427 253l-119 323l-119 -323h238z" />
    <glyph glyph-name="uni0411" unicode="&#x411;" horiz-adv-x="611" 
d="M355 414q64 0 114 -27t78 -74t28 -106t-28 -106t-78 -74t-114 -27h-272v700h439v-84h-347v-202h180zM354 84q59 0 94 33.5t35 89.5t-35 89.5t-94 33.5h-179v-246h179z" />
    <glyph glyph-name="uni0412" unicode="&#x412;" horiz-adv-x="622" 
d="M541.5 315.5q39.5 -43.5 39.5 -114.5q0 -57 -28 -102.5t-79 -72t-116 -26.5h-275v700h264q60 0 107 -24.5t73 -66t26 -92.5q0 -57 -29 -92.5t-68 -50.5q46 -15 85.5 -58.5zM175 618v-210h167q54 0 86.5 29.5t32.5 76.5q0 46 -32.5 75t-86.5 29h-167zM353 82q60 0 98 35
t38 89q0 53 -38 88t-98 35h-178v-247h178z" />
    <glyph glyph-name="uni0413" unicode="&#x413;" horiz-adv-x="506" 
d="M175 0h-92v700h412v-87h-320v-613z" />
    <glyph glyph-name="uni0414" unicode="&#x414;" horiz-adv-x="692" 
d="M585 85h87v-235h-92v150h-480v-150h-92v235h49q60 43 67 131l40 484h421v-615zM493 85v530h-246l-32 -400q-3 -47 -16 -79.5t-30 -50.5h324z" />
    <glyph glyph-name="uni0415" unicode="&#x415;" horiz-adv-x="583" 
d="M175 317v-231h365v-86h-457v700h447v-86h-355v-212h317v-85h-317z" />
    <glyph glyph-name="uni0416" unicode="&#x416;" horiz-adv-x="808" 
d="M541 359l277 -359h-112l-257 342v-342h-90v342l-257 -342h-111l276 359l-259 341h104l247 -332v332h90v-332l248 332h103z" />
    <glyph glyph-name="uni0417" unicode="&#x417;" horiz-adv-x="547" 
d="M469 303q38 -43 38 -114q0 -52 -29.5 -98t-83.5 -74t-123 -28q-71 0 -124.5 27.5t-84.5 74.5t-37 106h91q9 -54 48.5 -88.5t104.5 -34.5q67 0 106.5 33.5t39.5 85.5q0 55 -39.5 89.5t-108.5 34.5h-54v80h54q61 0 96 31.5t35 81.5t-35.5 83t-96.5 33q-58 0 -94.5 -33.5
t-41.5 -85.5h-92q5 56 35 102.5t80 74t113 27.5q65 0 116.5 -27t79.5 -72.5t28 -97.5q0 -54 -33 -92.5t-76 -56.5q50 -19 88 -62z" />
    <glyph glyph-name="uni0418" unicode="&#x418;" horiz-adv-x="699" 
d="M174 154l355 546h87v-700h-91v546l-355 -546h-87v700h91v-546z" />
    <glyph glyph-name="uni0419" unicode="&#x419;" horiz-adv-x="699" 
d="M174 154l355 546h87v-700h-91v546l-355 -546h-87v700h91v-546zM252.5 797q-39.5 37 -43.5 91h68q4 -31 23.5 -49t55.5 -18t55.5 18t23.5 49h68q-4 -54 -43.5 -91t-103.5 -37t-103.5 37z" />
    <glyph glyph-name="uni041A" unicode="&#x41a;" horiz-adv-x="568" 
d="M276 359l301 -359h-117l-285 344v-344h-92v700h92v-334l275 334h110z" />
    <glyph glyph-name="uni041B" unicode="&#x41b;" horiz-adv-x="682" 
d="M-8 -5v85h18q51 0 81 32t35 99l38 489h435v-700h-92v613h-258l-32 -410q-8 -104 -56.5 -159t-123.5 -55q-31 0 -45 6z" />
    <glyph glyph-name="uni041C" unicode="&#x41c;" horiz-adv-x="839" 
d="M421 137l252 563h83v-700h-90v490l-220 -490h-54l-218 486v-486h-91v700h87z" />
    <glyph glyph-name="uni041D" unicode="&#x41d;" horiz-adv-x="690" 
d="M514 401v299h92v-700h-92v314h-339v-314h-92v700h92v-299h339z" />
    <glyph glyph-name="uni041E" unicode="&#x41e;" horiz-adv-x="742" 
d="M207 36.5q-76 47.5 -121 130t-45 183.5t45 183.5t121 130t164 47.5t164 -47.5t121 -130t45 -183.5t-45 -183.5t-121 -130t-164 -47.5t-164 47.5zM489 111q55 35 87.5 97.5t32.5 141.5t-32.5 141.5t-87.5 97.5t-118 35t-117.5 -35t-87.5 -97.5t-33 -141.5t33 -141.5
t87.5 -97.5t117.5 -35t118 35z" />
    <glyph glyph-name="uni041F" unicode="&#x41f;" horiz-adv-x="690" 
d="M175 0h-92v700h523v-700h-92v613h-339v-613z" />
    <glyph glyph-name="uni0420" unicode="&#x420;" horiz-adv-x="591" 
d="M319 700q63 0 116 -29.5t83.5 -80.5t30.5 -112q0 -62 -30.5 -113t-83 -80.5t-116.5 -29.5h-144v-255h-92v700h236zM318 342q60 0 99.5 38.5t39.5 97.5q0 58 -40 96.5t-99 38.5h-143v-271h143z" />
    <glyph glyph-name="uni0421" unicode="&#x421;" horiz-adv-x="711" 
d="M207 36.5q-76 47.5 -121 130t-45 183.5t45 183.5t121 130t164 47.5q74 0 136.5 -33.5t104.5 -90.5t58 -126h-94q-22 70 -75 116.5t-130 46.5q-63 0 -117.5 -35t-87.5 -97.5t-33 -141.5t33 -141.5t87.5 -97.5t117.5 -35q79 0 133 46t77 116h94q-17 -68 -59.5 -125
t-105.5 -90.5t-139 -33.5q-88 0 -164 47.5z" />
    <glyph glyph-name="uni0422" unicode="&#x422;" horiz-adv-x="548" 
d="M320 0h-92v613h-212v87h516v-87h-212v-613z" />
    <glyph glyph-name="uni0423" unicode="&#x423;" horiz-adv-x="565" 
d="M471 700h95l-247 -549q-38 -86 -78 -124t-100 -38q-17 0 -32 3.5t-24 7.5v82q19 -8 41 -8q36 0 61.5 24t45.5 67l14 31l-237 504h100l184 -406z" />
    <glyph glyph-name="uni0424" unicode="&#x424;" horiz-adv-x="790" 
d="M715 218q-40 -62 -111 -97t-163 -36v-96h-92v96q-92 1 -163.5 36t-111.5 97t-40 143t40 143t111.5 97t163.5 36v74h92v-74q92 -1 163 -36t111 -97t40 -143t-40 -143zM186 224.5q60 -52.5 164 -53.5v381q-104 -1 -164 -54t-60 -137t60 -136.5zM440 171q68 1 118.5 25.5
t77.5 67t27 97.5t-27 98t-77.5 67.5t-118.5 25.5v-381z" />
    <glyph glyph-name="uni0425" unicode="&#x425;" horiz-adv-x="589" 
d="M348 355l229 -355h-107l-177 283l-179 -283h-102l229 355l-218 345h105l168 -273l167 273h103z" />
    <glyph glyph-name="uni0426" unicode="&#x426;" horiz-adv-x="696" 
d="M676 -150h-92v150h-501v700h92v-613h322v613h92v-613h87v-237z" />
    <glyph glyph-name="uni0427" unicode="&#x427;" horiz-adv-x="647" 
d="M471 700h92v-700h-92v263q-33 -21 -77.5 -35.5t-94.5 -14.5q-106 0 -168.5 63t-62.5 174v250h92v-245q0 -75 39 -115t108 -40q48 0 90.5 14.5t73.5 35.5v350z" />
    <glyph glyph-name="uni0428" unicode="&#x428;" horiz-adv-x="929" 
d="M753 87v613h92v-700h-762v700h92v-613h243v613h92v-613h243z" />
    <glyph glyph-name="uni0429" unicode="&#x429;" horiz-adv-x="953" 
d="M845 700v-613h88v-237h-92v150h-758v700h92v-613h243v613h92v-613h243v613h92z" />
    <glyph glyph-name="uni042A" unicode="&#x42a;" horiz-adv-x="659" 
d="M401 443q65 0 116.5 -28.5t81 -79t29.5 -113.5t-29.5 -113.5t-81 -79.5t-116.5 -29h-242v613h-162v87h254v-257h150zM400 87q61 0 98.5 37t37.5 98q0 60 -37.5 97t-98.5 37h-149v-269h149z" />
    <glyph glyph-name="uni042B" unicode="&#x42b;" horiz-adv-x="804" 
d="M314 443q65 0 117 -28.5t81.5 -79t29.5 -113.5t-29.5 -113.5t-81.5 -79.5t-117 -29h-231v700h92v-257h139zM629 0v700h92v-700h-92zM313 87q61 0 99 37t38 98q0 60 -38 97t-99 37h-138v-269h138z" />
    <glyph glyph-name="uni042C" unicode="&#x42c;" horiz-adv-x="583" 
d="M325 443q65 0 117 -28.5t81.5 -79t29.5 -113.5t-29.5 -113.5t-81.5 -79.5t-117 -29h-242v700h92v-257h150zM324 87q61 0 99 37t38 98q0 60 -38 97t-99 37h-149v-269h149z" />
    <glyph glyph-name="uni042D" unicode="&#x42d;" horiz-adv-x="699" 
d="M492 663.5q76 -47.5 121.5 -130.5t45.5 -183t-45.5 -183t-121.5 -130.5t-163 -47.5q-74 0 -136.5 32.5t-105 86t-58.5 115.5h94q22 -61 76.5 -104t129.5 -43q57 0 108 29t85 82.5t43 121.5h-278v82h278q-9 68 -43 121.5t-85 82.5t-108 29q-73 0 -126 -43t-76 -104h-94
q16 61 58 115t103.5 86.5t134.5 32.5q87 0 163 -47.5z" />
    <glyph glyph-name="uni042E" unicode="&#x42e;" horiz-adv-x="950" 
d="M750 665q72 -46 115.5 -128.5t43.5 -186.5t-43.5 -186.5t-115.5 -128.5t-156 -46q-78 0 -146 40t-112.5 113t-53.5 166h-107v-308h-92v700h92v-307h107q9 93 53.5 165.5t112.5 112.5t146 40q84 0 156 -46zM705 109.5q51 33.5 81.5 96t30.5 144.5t-30.5 144.5t-81.5 96
t-111 33.5q-59 0 -110 -33.5t-81.5 -96t-30.5 -144.5t30.5 -144.5t81.5 -96t110 -33.5q60 0 111 33.5z" />
    <glyph glyph-name="uni042F" unicode="&#x42f;" horiz-adv-x="613" 
d="M530 700v-700h-92v281h-135l-166 -281h-106l178 292q-68 20 -111.5 72.5t-43.5 125.5q0 58 29 106t79.5 76t110.5 28h257zM183 401q37 -35 92 -35h163v247h-163q-55 0 -92 -35.5t-37 -89.5q0 -52 37 -87z" />
    <glyph glyph-name="uni0430" unicode="&#x430;" horiz-adv-x="506" 
d="M350 489.5q44 -24.5 68.5 -69t24.5 -101.5v-319h-65l-18 63h-5q-20 -28 -58 -51t-93 -23q-50 0 -88 20t-59 54.5t-21 76.5q0 47 28.5 83.5t80 56.5t117.5 20h94v23q0 51 -29.5 81.5t-77.5 30.5q-45 0 -71 -23t-33 -59h-87q5 43 29.5 80t66.5 59t95 22q57 0 101 -24.5z
M318 101.5q38 36.5 38 91.5v38h-88q-70 0 -108 -23t-38 -64q0 -36 25 -57.5t71 -21.5q62 0 100 36.5z" />
    <glyph glyph-name="uni0431" unicode="&#x431;" horiz-adv-x="560" 
d="M165.5 22.5q-54.5 33.5 -86.5 102.5t-32 170q0 172 65 272t205 121q102 15 158 25v-81l-98 -17l-49 -8q-99 -15 -142 -69.5t-53 -133.5h5q19 31 61 57t101 26q60 0 111 -31.5t81.5 -88.5t30.5 -129q0 -73 -31.5 -129.5t-85 -88t-118.5 -31.5q-68 0 -122.5 33.5zM363 90.5
q34 20.5 54 58.5t20 89t-20 89.5t-54 59t-75 20.5t-75.5 -20.5t-54.5 -59t-20 -89.5t20 -89t54.5 -58.5t75.5 -20.5t75 20.5z" />
    <glyph glyph-name="uni0432" unicode="&#x432;" horiz-adv-x="493" 
d="M431.5 221q24.5 -31 24.5 -79q0 -62 -43 -102t-110 -40h-235v503h216q44 0 78.5 -18t54 -48.5t19.5 -67.5t-19 -64t-45 -40q35 -13 59.5 -44zM153 430v-138h119q37 0 58.5 19t21.5 51q0 31 -21.5 49.5t-58.5 18.5h-119zM292 73q35 0 57.5 21.5t22.5 54.5q0 32 -23 53.5
t-57 21.5h-139v-151h139z" />
    <glyph glyph-name="uni0433" unicode="&#x433;" horiz-adv-x="409" 
d="M154 0h-86v503h331v-81h-245v-422z" />
    <glyph glyph-name="uni0434" unicode="&#x434;" horiz-adv-x="565" 
d="M468 79h78v-207h-85v128h-369v-128h-85v207h41q49 36 54 108l27 316h339v-424zM383 79v345h-175l-21 -237q-7 -75 -41 -108h237z" />
    <glyph glyph-name="uni0435" unicode="&#x435;" horiz-adv-x="548" 
d="M507 214h-382q10 -68 52 -107t104 -39q82 0 124 67h89q-24 -61 -82 -103.5t-132 -42.5q-67 0 -123 34t-88 94t-32 135q0 73 33 133t88.5 94.5t120.5 34.5t118 -33t83.5 -90t30.5 -127q0 -34 -4 -50zM177.5 393.5q-43.5 -41.5 -53.5 -108.5h303q-8 66 -48.5 108t-99.5 42
q-58 0 -101.5 -41.5z" />
    <glyph glyph-name="uni0436" unicode="&#x436;" horiz-adv-x="659" 
d="M462 266l206 -266h-105l-191 254v-254h-85v254l-192 -254h-104l205 266l-185 237h99l177 -233v233h85v-233l176 233h99z" />
    <glyph glyph-name="uni0437" unicode="&#x437;" horiz-adv-x="443" 
d="M382.5 216q23.5 -31 23.5 -77q0 -40 -22 -74.5t-64.5 -55t-100.5 -20.5q-89 0 -140.5 46.5t-58.5 117.5h85q3 -39 31 -63t81 -24q51 0 77.5 20.5t26.5 56.5t-26 58t-74 22h-57v70h54q44 0 67.5 19t23.5 49q0 32 -25.5 54t-68.5 22q-45 0 -70.5 -22.5t-30.5 -58.5h-84
q6 68 55.5 113t134.5 45q52 0 91.5 -20.5t61 -55t21.5 -74.5t-20 -65t-47 -39q32 -13 55.5 -44z" />
    <glyph glyph-name="uni0438" unicode="&#x438;" horiz-adv-x="566" 
d="M153 134l269 369h76v-503h-85v369l-269 -369h-76v503h85v-369z" />
    <glyph glyph-name="uni0439" unicode="&#x439;" horiz-adv-x="566" 
d="M153 134l269 369h76v-503h-85v369l-269 -369h-76v503h85v-369zM186.5 606q-38.5 37 -42.5 93h67q3 -32 22.5 -50.5t55.5 -18.5q35 0 54.5 18.5t23.5 50.5h66q-3 -55 -42 -92.5t-102 -37.5q-64 0 -102.5 37z" />
    <glyph glyph-name="uni043A" unicode="&#x43a;" horiz-adv-x="469" 
d="M249 262l229 -262h-110l-214 250v-250h-86v503h86v-237l199 237h103z" />
    <glyph glyph-name="uni043B" unicode="&#x43b;" horiz-adv-x="541" 
d="M-3 -5v77h18q39 0 60.5 24.5t25.5 80.5l27 326h345v-503h-87v422h-180l-21 -257q-7 -88 -46.5 -132t-103.5 -44q-18 0 -38 6z" />
    <glyph glyph-name="uni043C" unicode="&#x43c;" horiz-adv-x="664" 
d="M334 114l176 389h86v-503h-85v329l-154 -329h-50l-154 329v-329h-85v503h89z" />
    <glyph glyph-name="uni043D" unicode="&#x43d;" horiz-adv-x="562" 
d="M407 293v210h87v-503h-87v212h-253v-212h-86v503h86v-210h253z" />
    <glyph glyph-name="uni043E" unicode="&#x43e;" horiz-adv-x="559" 
d="M158.5 23.5q-55.5 34.5 -88.5 95t-33 133.5t33 133t88.5 94.5t121.5 34.5q65 0 121 -34.5t89 -94.5t33 -133t-33 -133.5t-89 -95t-121 -34.5q-66 0 -121.5 34.5zM358 93q36 23 57 64.5t21 94.5t-21 94t-57 64t-78 23t-78 -23t-57.5 -64t-21.5 -94t21.5 -94.5t57 -64.5
t78.5 -23q42 0 78 23z" />
    <glyph glyph-name="uni043F" unicode="&#x43f;" horiz-adv-x="553" 
d="M154 0h-86v503h417v-503h-86v422h-245v-422z" />
    <glyph glyph-name="uni0440" unicode="&#x440;" horiz-adv-x="580" 
d="M68 -180v683h64l19 -63h5q18 24 59.5 49t95.5 25q63 0 116 -33.5t84.5 -93.5t31.5 -135t-31.5 -135t-84.5 -94t-116 -34q-52 0 -94 24.5t-58 47.5h-5v-241h-86zM381.5 93q34.5 23 55 64.5t20.5 94.5t-20.5 94t-55 64t-75.5 23t-76 -23t-55.5 -64t-20.5 -94t20.5 -94.5
t55.5 -64.5t76 -23t75.5 23z" />
    <glyph glyph-name="uni0441" unicode="&#x441;" horiz-adv-x="537" 
d="M158.5 23.5q-55.5 34.5 -88.5 95t-33 133.5t33 133t88.5 94.5t121.5 34.5q58 0 105.5 -27t78.5 -71t41 -95h-86q-14 49 -49.5 80.5t-89.5 31.5q-42 0 -78 -23t-57.5 -64t-21.5 -94t21.5 -94.5t57 -64.5t78.5 -23q54 0 89.5 31.5t49.5 80.5h86q-10 -51 -41 -95t-78.5 -71
t-105.5 -27q-66 0 -121.5 34.5z" />
    <glyph glyph-name="uni0442" unicode="&#x442;" horiz-adv-x="429" 
d="M258 0h-87v422h-157v81h401v-81h-157v-422z" />
    <glyph glyph-name="uni0443" unicode="&#x443;" horiz-adv-x="487" 
d="M393 503h89l-216 -542q-33 -83 -67 -114.5t-79 -31.5q-20 0 -47 9v78q17 -6 33 -6q27 0 45.5 15t32.5 50l20 51l-199 491h93l149 -384z" />
    <glyph glyph-name="uni0444" unicode="&#x444;" horiz-adv-x="702" 
d="M403 514q74 0 134 -34t94 -94t34 -134t-34 -134.5t-94 -94.5t-134 -34h-9v-169h-86v169h-9q-74 0 -134 34t-94 94.5t-34 134.5t34 134t94 94t134 34h9v186h86v-186h9zM173 120q50 -50 130 -50h6v363h-6q-80 0 -130 -49.5t-50 -131.5t50 -132zM399 70q81 0 130.5 50
t49.5 132t-49.5 131.5t-130.5 49.5h-6v-363h6z" />
    <glyph glyph-name="uni0445" unicode="&#x445;" horiz-adv-x="470" 
d="M289 257l174 -257h-101l-129 196l-129 -196h-96l173 257l-162 246h98l120 -187l119 187h95z" />
    <glyph glyph-name="uni0446" unicode="&#x446;" horiz-adv-x="573" 
d="M555 -128h-85v128h-402v503h86v-422h236v422h87v-422h78v-209z" />
    <glyph glyph-name="uni0447" unicode="&#x447;" horiz-adv-x="521" 
d="M366 503h87v-503h-87v185q-24 -14 -58.5 -25t-74.5 -11q-52 0 -93.5 22.5t-65.5 64.5t-24 96v171h86v-166q0 -51 30.5 -79.5t83.5 -28.5q35 0 64.5 11.5t51.5 27.5v235z" />
    <glyph glyph-name="uni0448" unicode="&#x448;" horiz-adv-x="755" 
d="M600 81v422h86v-503h-618v503h86v-422h180v422h86v-422h180z" />
    <glyph glyph-name="uni0449" unicode="&#x449;" horiz-adv-x="783" 
d="M686 503v-422h78v-209h-85v128h-611v503h86v-422h180v422h86v-422h180v422h86z" />
    <glyph glyph-name="uni044A" unicode="&#x44a;" horiz-adv-x="525" 
d="M326 328q78 0 126 -45.5t48 -118.5t-48 -118.5t-126 -45.5h-206v422h-118v81h204v-175h120zM318 77q45 0 70.5 23t25.5 64t-25.5 64.5t-70.5 23.5h-112v-175h112z" />
    <glyph glyph-name="uni044B" unicode="&#x44b;" horiz-adv-x="667" 
d="M267 328q78 0 126.5 -45.5t48.5 -118.5t-48.5 -118.5t-126.5 -45.5h-199v503h86v-175h113zM512 0v503h86v-503h-86zM260 77q45 0 70.5 23t25.5 64t-25.5 64.5t-70.5 23.5h-106v-175h106z" />
    <glyph glyph-name="uni044C" unicode="&#x44c;" horiz-adv-x="473" 
d="M274 328q78 0 126 -45.5t48 -118.5t-48 -118.5t-126 -45.5h-206v503h86v-175h120zM266 77q45 0 70.5 23t25.5 64t-25.5 64.5t-70.5 23.5h-112v-175h112z" />
    <glyph glyph-name="uni044D" unicode="&#x44d;" horiz-adv-x="531" 
d="M372.5 479.5q55.5 -34.5 88.5 -94.5t33 -133t-33 -133.5t-88.5 -95t-121.5 -34.5q-58 0 -105.5 26.5t-79 70t-41.5 93.5h87q14 -49 49 -80t90 -31q58 0 101 41t53 108h-178v69h179q-10 67 -53.5 108t-101.5 41q-54 0 -89.5 -31.5t-49.5 -78.5h-87q10 49 41.5 92.5t79 70
t105.5 26.5q66 0 121.5 -34.5z" />
    <glyph glyph-name="uni044E" unicode="&#x44e;" horiz-adv-x="722" 
d="M571 481q53 -33 83.5 -92.5t30.5 -136.5t-30.5 -137t-83.5 -93t-116 -33q-57 0 -106.5 28t-81.5 79t-40 117h-73v-213h-86v503h86v-213h73q7 67 39 117.5t81.5 78.5t107.5 28q63 0 116 -33zM527.5 91q33.5 22 53 63.5t19.5 97.5q0 55 -19.5 96.5t-53 63.5t-72.5 22
t-72 -22.5t-52.5 -63.5t-19.5 -96q0 -56 19.5 -97.5t52.5 -63.5t72 -22t72.5 22z" />
    <glyph glyph-name="uni044F" unicode="&#x44f;" horiz-adv-x="495" 
d="M427 503v-503h-86v180h-106l-110 -180h-100l124 193q-48 18 -76.5 58t-28.5 91q0 45 22.5 82t62 58t89.5 21h209zM224 427q-41 0 -67.5 -24t-26.5 -61q0 -39 25.5 -62t68.5 -23h118v170h-118z" />
    <glyph glyph-name="uni0450" unicode="&#x450;" horiz-adv-x="548" 
d="M507 214h-382q10 -68 52 -107t104 -39q82 0 124 67h89q-24 -61 -82 -103.5t-132 -42.5q-67 0 -123 34t-88 94t-32 135q0 73 33 133t88.5 94.5t120.5 34.5t118 -33t83.5 -90t30.5 -127q0 -34 -4 -50zM177.5 393.5q-43.5 -41.5 -53.5 -108.5h303q-8 66 -48.5 108t-99.5 42
q-58 0 -101.5 -41.5zM321 563h-66l-97 142h94z" />
    <glyph glyph-name="uni0451" unicode="&#x451;" horiz-adv-x="548" 
d="M507 214h-382q10 -68 52 -107t104 -39q82 0 124 67h89q-24 -61 -82 -103.5t-132 -42.5q-67 0 -123 34t-88 94t-32 135q0 73 33 133t88.5 94.5t120.5 34.5t118 -33t83.5 -90t30.5 -127q0 -34 -4 -50zM177.5 393.5q-43.5 -41.5 -53.5 -108.5h303q-8 66 -48.5 108t-99.5 42
q-58 0 -101.5 -41.5zM157 597q-15 15 -15 36t15 36t36 15t36 -14.5t15 -36.5t-15 -36.5t-36 -14.5t-36 15zM325 596.5q-15 14.5 -15 36.5t15 36.5t36 14.5t36 -15t15 -36t-15 -36t-36 -15t-36 14.5z" />
    <glyph glyph-name="uni0452" unicode="&#x452;" horiz-adv-x="573" 
d="M425 462.5q46 -30.5 73 -92.5t27 -151q0 -133 -63 -204.5t-171 -71.5v81q73 0 110.5 47t37.5 148q0 100 -35.5 146.5t-96.5 46.5q-60 0 -97 -39t-37 -105v-268h-86v553h-79v71h79v76h86v-76h172v-71h-172v-134h5q18 28 56 51t88 23q57 0 103 -30.5z" />
    <glyph glyph-name="uni0453" unicode="&#x453;" horiz-adv-x="409" 
d="M154 0h-86v503h331v-81h-245v-422zM256 563h-67l69 142h94z" />
    <glyph glyph-name="uni0454" unicode="&#x454;" horiz-adv-x="537" 
d="M370 99q35 31 49 80h86q-10 -50 -41 -93.5t-78.5 -70t-105.5 -26.5q-66 0 -121.5 34.5t-88.5 95t-33 133.5t33 133t88.5 94.5t121.5 34.5q58 0 105.5 -26.5t78.5 -70t41 -92.5h-86q-14 47 -49.5 78.5t-89.5 31.5q-58 0 -101.5 -41t-53.5 -108h179v-69h-178
q10 -67 53 -108t101 -41q55 0 90 31z" />
    <glyph glyph-name="uni0455" unicode="&#x455;" horiz-adv-x="446" 
d="M130.5 11q-42.5 22 -67.5 59t-28 80h86q4 -38 32 -61.5t75 -23.5q45 0 69.5 19.5t24.5 50.5q0 33 -27.5 50t-86.5 36q-52 17 -83.5 32t-54 43.5t-22.5 73.5q0 40 21 72.5t60.5 52t91.5 19.5q51 0 91 -21t63 -56.5t26 -78.5h-85q-5 38 -28.5 59t-66.5 21q-41 0 -64 -18.5
t-23 -46.5q0 -32 27 -48.5t84 -34.5q52 -16 84.5 -31.5t55.5 -45t23 -75.5q0 -65 -48 -107t-132 -42q-55 0 -97.5 22z" />
    <glyph glyph-name="uni0456" unicode="&#x456;" horiz-adv-x="223" 
d="M154 0h-86v503h86v-503zM72.5 594q-15.5 16 -15.5 39q0 24 15.5 39t38.5 15q24 0 39.5 -15t15.5 -39q0 -23 -16 -39t-39 -16t-38.5 16z" />
    <glyph glyph-name="uni0457" unicode="&#x457;" horiz-adv-x="223" 
d="M154 0h-86v503h86v-503zM7 597q-15 15 -15 36t15 36t36 15t36 -14.5t15 -36.5t-15 -36.5t-36 -14.5t-36 15zM143 597q-15 15 -15 36t15 36t36 15t36 -14.5t15 -36.5t-15 -36.5t-36 -14.5t-36 15z" />
    <glyph glyph-name="uni0458" unicode="&#x458;" horiz-adv-x="223" 
d="M-45 -176v78q17 -6 34 -6q38 0 58.5 22.5t20.5 67.5v517h86v-521q0 -78 -41 -122.5t-106 -44.5q-25 0 -52 9zM72.5 594q-15.5 16 -15.5 39q0 24 15.5 39t38.5 15q24 0 39.5 -15t15.5 -39q0 -23 -16 -39t-39 -16t-38.5 16z" />
    <glyph glyph-name="uni0459" unicode="&#x459;" horiz-adv-x="771" 
d="M571 311q51 0 91 -20t62 -55t22 -77q0 -46 -22 -82t-61.5 -56.5t-91.5 -20.5h-196v422h-169l-21 -257q-7 -88 -46.5 -132t-103.5 -44q-18 0 -38 6v77h18q39 0 60.5 24.5t25.5 80.5l27 326h333v-192h110zM565 76q44 0 69 21.5t25 58.5q0 36 -25 57.5t-69 21.5h-104v-159
h104z" />
    <glyph glyph-name="uni045A" unicode="&#x45a;" horiz-adv-x="792" 
d="M592 311q51 0 91 -20t62 -55t22 -77q0 -46 -22 -82t-61.5 -56.5t-91.5 -20.5h-196v233h-242v-233h-86v503h86v-192h242v192h86v-192h110zM586 76q44 0 69 21.5t25 58.5q0 36 -25 57.5t-69 21.5h-104v-159h104z" />
    <glyph glyph-name="uni045B" unicode="&#x45b;" horiz-adv-x="583" 
d="M423.5 465.5q45.5 -27.5 71 -77.5t25.5 -116v-272h-86v269q0 65 -36 104t-92 39q-59 0 -96 -39t-37 -104v-269h-86v553h-79v71h79v76h86v-76h172v-71h-172v-134h5q18 28 56 51t88 23q56 0 101.5 -27.5z" />
    <glyph glyph-name="uni045C" unicode="&#x45c;" horiz-adv-x="469" 
d="M249 262l229 -262h-110l-214 250v-250h-86v503h86v-237l199 237h103zM276 563h-67l69 142h94z" />
    <glyph glyph-name="uni045D" unicode="&#x45d;" horiz-adv-x="566" 
d="M153 134l269 369h76v-503h-85v369l-269 -369h-76v503h85v-369zM332 563h-66l-97 142h94z" />
    <glyph glyph-name="uni045E" unicode="&#x45e;" horiz-adv-x="487" 
d="M393 503h89l-216 -542q-33 -83 -67 -114.5t-79 -31.5q-20 0 -47 9v78q17 -6 33 -6q27 0 45.5 15t32.5 50l20 51l-199 491h93l149 -384zM143.5 606q-38.5 37 -42.5 93h67q3 -32 22.5 -50.5t55.5 -18.5q35 0 54.5 18.5t23.5 50.5h66q-3 -55 -42 -92.5t-102 -37.5
q-64 0 -102.5 37z" />
    <glyph glyph-name="uni045F" unicode="&#x45f;" horiz-adv-x="557" 
d="M402 503h87v-503h-169v-128h-85v128h-167v503h86v-422h248v422z" />
    <glyph glyph-name="uni0462" unicode="&#x462;" horiz-adv-x="634" 
d="M376 439q64 0 116 -29t81.5 -79t29.5 -112t-29.5 -112t-81 -78.5t-116.5 -28.5h-243v523h-138v78h138v99h92v-99h183v-78h-183v-84h151zM375 87q61 0 98.5 37t37.5 96q0 60 -37.5 96.5t-98.5 36.5h-150v-266h150z" />
    <glyph glyph-name="uni0463" unicode="&#x463;" horiz-adv-x="511" 
d="M312 327q78 0 126 -45.5t48 -117.5q0 -73 -48 -118.5t-126 -45.5h-208v461h-108v73h108v166h86v-166h152v-73h-152v-134h122zM305 77q44 0 69.5 23t25.5 64t-25.5 64.5t-69.5 23.5h-115v-175h115z" />
    <glyph glyph-name="uni0472" unicode="&#x472;" horiz-adv-x="742" 
d="M535 663.5q76 -47.5 121 -130t45 -183.5t-45 -183.5t-121 -130t-164 -47.5t-164 47.5t-121 130t-45 183.5t45 183.5t121 130t164 47.5t164 -47.5zM261.5 595.5q-51.5 -29.5 -86 -83t-42.5 -122.5h476q-8 69 -42.5 122.5t-86 83t-109.5 29.5t-109.5 -29.5zM480.5 104.5
q51.5 29.5 86 83t42.5 122.5h-476q8 -69 42.5 -122.5t86 -83t109.5 -29.5t109.5 29.5z" />
    <glyph glyph-name="uni0473" unicode="&#x473;" horiz-adv-x="559" 
d="M401 479.5q56 -34.5 89 -94.5t33 -133t-33 -133.5t-89 -95t-121 -34.5q-66 0 -121.5 34.5t-88.5 95t-33 133.5t33 133t88.5 94.5t121.5 34.5q65 0 121 -34.5zM177 394q-44 -41 -54 -108h313q-10 67 -53.5 108t-102.5 41t-103 -41zM382.5 109q43.5 41 53.5 108h-312
q10 -67 53.5 -108t102.5 -41t102.5 41z" />
    <glyph glyph-name="uni0474" unicode="&#x474;" horiz-adv-x="662" 
d="M676.5 710.5q18.5 -5.5 28.5 -12.5l-25 -82q-17 13 -41 13q-29 0 -47.5 -20t-38.5 -75l-194 -534h-96l-253 700h98l205 -581l156 440q31 86 68.5 121.5t96.5 35.5q24 0 42.5 -5.5z" />
    <glyph glyph-name="uni0475" unicode="&#x475;" horiz-adv-x="513" 
d="M547 501l-21 -71q-11 8 -32 8q-19 0 -31.5 -11.5t-26.5 -47.5l-150 -379h-81l-200 503h92l150 -393l111 291q23 63 53.5 90.5t75.5 27.5q35 0 60 -18z" />
    <glyph glyph-name="uni048A" unicode="&#x48a;" horiz-adv-x="724" 
d="M251.5 797q-39.5 37 -42.5 91h68q3 -30 23 -48.5t56 -18.5t55.5 18t23.5 49h68q-4 -54 -43.5 -91t-103.5 -37q-65 0 -104.5 37zM616 700v-613h103v-16l-82 -221h-72l40 150h-80v546l-355 -546h-87v700h91v-546l355 546h87z" />
    <glyph glyph-name="uni048B" unicode="&#x48b;" horiz-adv-x="594" 
d="M186 606.5q-39 37.5 -42 92.5h66q4 -32 23.5 -50.5t54.5 -18.5q36 0 55.5 18.5t22.5 50.5h67q-3 -55 -42 -92.5t-103 -37.5q-63 0 -102 37.5zM498 503v-422h83v-15l-68 -194h-68l30 128h-62v369l-269 -369h-76v503h85v-369l269 369h76z" />
    <glyph glyph-name="uni048C" unicode="&#x48c;" horiz-adv-x="634" 
d="M376 439q64 0 116 -29t81.5 -79t29.5 -112t-29.5 -112t-81 -78.5t-116.5 -28.5h-243v523h-138v78h138v99h92v-99h183v-78h-183v-84h151zM375 87q61 0 98.5 37t37.5 96q0 60 -37.5 96.5t-98.5 36.5h-150v-266h150z" />
    <glyph glyph-name="uni048D" unicode="&#x48d;" horiz-adv-x="511" 
d="M312 327q78 0 126 -45.5t48 -117.5q0 -73 -48 -118.5t-126 -45.5h-208v461h-108v73h108v166h86v-166h152v-73h-152v-134h122zM305 77q44 0 69.5 23t25.5 64t-25.5 64.5t-69.5 23.5h-115v-175h115z" />
    <glyph glyph-name="uni048E" unicode="&#x48e;" horiz-adv-x="591" 
d="M528 383q-21 -44 -59 -76l60 -86l-58 -42l-65 92q-43 -16 -87 -16h-144v-255h-92v700h236q63 0 116 -29.5t83.5 -80.5t30.5 -112q0 -51 -21 -95zM318 340q13 0 37 4l-60 85l59 42l64 -91q39 39 39 98t-39.5 97.5t-99.5 38.5h-143v-274h143z" />
    <glyph glyph-name="uni048F" unicode="&#x48f;" horiz-adv-x="580" 
d="M524.5 145.5q-18.5 -49.5 -52.5 -85.5l58 -79l-52 -40l-57 78q-52 -30 -110 -30q-52 0 -94 24.5t-58 47.5h-5v-241h-86v683h64l19 -63h5q18 24 59.5 49t95.5 25q63 0 116 -33.5t84.5 -93.5t31.5 -135q0 -57 -18.5 -106.5zM371 87l-61 84l52 39l58 -79q37 50 37 121
q0 53 -20.5 94t-55 64t-75.5 23t-76 -23t-55.5 -64t-20.5 -94t20.5 -94.5t55.5 -64.5t76 -23q34 0 65 17z" />
    <glyph glyph-name="uni0490" unicode="&#x490;" horiz-adv-x="506" 
d="M175 0h-92v700h321v127h91v-214h-320v-613z" />
    <glyph glyph-name="uni0491" unicode="&#x491;" horiz-adv-x="409" 
d="M154 0h-86v503h246v100h85v-181h-245v-422z" />
    <glyph glyph-name="uni0492" unicode="&#x492;" horiz-adv-x="541" 
d="M523 700v-87h-320v-236h232v-86h-232v-291h-92v291h-93v86h93v323h412z" />
    <glyph glyph-name="uni0493" unicode="&#x493;" horiz-adv-x="433" 
d="M418 503v-81h-245v-164h180v-74h-180v-184h-86v184h-79v74h79v245h331z" />
    <glyph glyph-name="uni0494" unicode="&#x494;" horiz-adv-x="638" 
d="M472 424.5q53 -29.5 82.5 -86.5t29.5 -136t-31.5 -137.5t-87.5 -90.5t-128 -32v85q68 0 111 46.5t43 125.5q0 82 -42 126t-115 44q-70 0 -114.5 -42t-44.5 -107v-220h-92v700h402v-85h-310v-236q28 32 72.5 53.5t102.5 21.5q69 0 122 -29.5z" />
    <glyph glyph-name="uni0495" unicode="&#x495;" horiz-adv-x="509" 
d="M272 -106q57 0 92 39.5t35 113.5q0 72 -34 112t-85 40q-54 0 -90 -37.5t-36 -96.5v-65h-86v503h321v-81h-235v-203h5q21 25 54 42.5t78 17.5q53 0 98 -28t71 -80.5t26 -122.5q0 -69 -28 -122.5t-77 -83t-109 -29.5v81z" />
    <glyph glyph-name="uni0496" unicode="&#x496;" horiz-adv-x="832" 
d="M541 359l210 -272h86v-237h-92v150h-39l-257 342v-342h-90v342l-257 -342h-111l276 359l-259 341h104l247 -332v332h90v-332l248 332h103z" />
    <glyph glyph-name="uni0497" unicode="&#x497;" horiz-adv-x="680" 
d="M462 266l145 -185h78v-209h-85v128h-37l-191 254v-254h-85v254l-192 -254h-104l205 266l-185 237h99l177 -233v233h85v-233l176 233h99z" />
    <glyph glyph-name="uni0498" unicode="&#x498;" horiz-adv-x="547" 
d="M483.5 101.5q-23.5 -41.5 -66.5 -70.5t-99 -38v-143h-92v142q-87 12 -139.5 68t-61.5 137h91q9 -54 48.5 -88.5t104.5 -34.5q67 0 106.5 33.5t39.5 85.5q0 55 -39.5 89.5t-108.5 34.5h-54v80h54q61 0 96 31.5t35 81.5t-35.5 83t-96.5 33q-58 0 -94.5 -33.5t-41.5 -85.5
h-92q5 56 35 102.5t80 74t113 27.5q65 0 116.5 -27t79.5 -72.5t28 -97.5q0 -54 -33 -92.5t-76 -56.5q50 -19 88 -62t38 -114q0 -46 -23.5 -87.5z" />
    <glyph glyph-name="uni0499" unicode="&#x499;" horiz-adv-x="443" 
d="M367 43.5q-39 -41.5 -107 -51.5v-120h-85v120q-69 12 -109 56t-46 105h85q3 -39 31 -63t81 -24q51 0 77.5 20.5t26.5 56.5t-26 58t-74 22h-57v70h54q44 0 67.5 19t23.5 49q0 32 -25.5 54t-68.5 22q-45 0 -70.5 -22.5t-30.5 -58.5h-84q6 68 55.5 113t134.5 45
q52 0 91.5 -20.5t61 -55t21.5 -74.5t-20 -65t-47 -39q32 -13 55.5 -44t23.5 -77q0 -54 -39 -95.5z" />
    <glyph glyph-name="uni049A" unicode="&#x49a;" horiz-adv-x="586" 
d="M276 359l230 -272h85v-237h-92v150h-39l-285 344v-344h-92v700h92v-334l275 334h110z" />
    <glyph glyph-name="uni049B" unicode="&#x49b;" horiz-adv-x="484" 
d="M249 262l161 -181h79v-209h-85v128h-36l-214 250v-250h-86v503h86v-237l199 237h103z" />
    <glyph glyph-name="uni049C" unicode="&#x49c;" horiz-adv-x="646" 
d="M638 700l-260 -344l277 -356h-113l-238 310h-26v-103h-70v103h-33v-310h-92v700h92v-310h33v103h70v-103h22l232 310h106z" />
    <glyph glyph-name="uni049D" unicode="&#x49d;" horiz-adv-x="508" 
d="M496 503l-174 -247l195 -256h-104l-159 214h-14v-93h-57v93h-29v-214h-86v503h86v-213h29v93h57v-93h12l145 213h99z" />
    <glyph glyph-name="uni049E" unicode="&#x49e;" horiz-adv-x="596" 
d="M304 359l301 -359h-116l-286 344v-344h-92v558h-113v74h113v68h92v-68h106v-74h-106v-192l275 334h110z" />
    <glyph glyph-name="uni049F" unicode="&#x49f;" horiz-adv-x="488" 
d="M268 262l229 -262h-111l-213 249v-249h-86v553h-79v71h79v76h86v-76h146v-71h-146v-286l198 233h104z" />
    <glyph glyph-name="uni04A0" unicode="&#x4a0;" horiz-adv-x="643" 
d="M352 359l301 -359h-117l-285 344v-344h-92v613h-162v87h254v-334l275 334h109z" />
    <glyph glyph-name="uni04A1" unicode="&#x4a1;" horiz-adv-x="521" 
d="M301 262l229 -262h-110l-214 249v-249h-86v422h-118v81h204v-236l199 236h103z" />
    <glyph glyph-name="uni04A2" unicode="&#x4a2;" horiz-adv-x="714" 
d="M606 700v-613h88v-237h-92v150h-88v314h-339v-314h-92v700h92v-299h339v299h92z" />
    <glyph glyph-name="uni04A3" unicode="&#x4a3;" horiz-adv-x="590" 
d="M494 503v-422h78v-209h-85v128h-80v212h-253v-212h-86v503h86v-210h253v210h87z" />
    <glyph glyph-name="uni04A4" unicode="&#x4a4;" horiz-adv-x="905" 
d="M498 401v299h396v-87h-304v-613h-92v314h-323v-314h-92v700h92v-299h323z" />
    <glyph glyph-name="uni04A5" unicode="&#x4a5;" horiz-adv-x="717" 
d="M392 293v210h315v-81h-229v-422h-86v212h-238v-212h-86v503h86v-210h238z" />
    <glyph glyph-name="uni04A8" unicode="&#x4a8;" horiz-adv-x="768" 
d="M779 34q-23 -16 -61 -30.5t-84 -14.5q-40 0 -76 11.5t-61 26.5q-63 -38 -136 -38q-85 0 -158.5 47t-117.5 129.5t-44 184.5q0 94 38 172t102 127.5t141 61.5v-87q-53 -11 -96.5 -48t-69.5 -95t-26 -131q0 -80 32 -143t85 -98t114 -35q31 0 54 9q-49 41 -89.5 114
t-40.5 180q0 85 29 147.5t77.5 95.5t105.5 33t106 -33t78.5 -95.5t29.5 -147.5q0 -108 -42 -182.5t-91 -111.5q31 -9 56 -9q53 0 101 29zM583.5 215q38.5 67 38.5 164q0 62 -17.5 104.5t-46 63t-61.5 20.5q-52 0 -87.5 -48t-35.5 -140q0 -96 38.5 -164t84.5 -103
q48 36 86.5 103z" />
    <glyph glyph-name="uni04A9" unicode="&#x4a9;" horiz-adv-x="582" 
d="M592 24q-13 -11 -46 -23t-73 -12q-59 0 -99 28q-42 -28 -98 -28q-65 0 -120 34t-87 94t-32 135q0 69 25.5 124.5t69 91t96.5 46.5v-83q-44 -15 -76.5 -62.5t-32.5 -116.5q0 -56 21.5 -98.5t57.5 -65.5t78 -23q17 0 25 2q-31 29 -57.5 80.5t-26.5 121.5q0 61 21 105t57 67
t80 23t80.5 -23t57.5 -67t21 -105q0 -68 -26.5 -120t-58.5 -82q10 -2 25 -2q29 0 50.5 6t30.5 13zM320.5 358q-21.5 -29 -21.5 -89q0 -61 23.5 -106.5t52.5 -74.5q29 29 52.5 74.5t23.5 106.5q0 60 -21.5 89t-54.5 29t-54.5 -29z" />
    <glyph glyph-name="uni04AA" unicode="&#x4aa;" horiz-adv-x="711" 
d="M675 238q-23 -94 -92 -162.5t-165 -82.5v-143h-92v142q-78 12 -143.5 61.5t-103.5 127t-38 169.5q0 101 45 183.5t121 130t164 47.5q74 0 136.5 -33.5t104.5 -90.5t58 -126h-94q-22 70 -75 116.5t-130 46.5q-63 0 -117.5 -35t-87.5 -97.5t-33 -141.5t33 -141.5
t87.5 -97.5t117.5 -35q79 0 133 46t77 116h94z" />
    <glyph glyph-name="uni04AB" unicode="&#x4ab;" horiz-adv-x="537" 
d="M369.5 101.5q35.5 31.5 49.5 80.5h86q-12 -67 -60.5 -120t-118.5 -68v-122h-85v120q-57 10 -103.5 46t-73.5 92t-27 122q0 73 33 133t88.5 94.5t121.5 34.5q58 0 105.5 -27t78.5 -71t41 -95h-86q-14 49 -49.5 80.5t-89.5 31.5q-42 0 -78 -23t-57.5 -64t-21.5 -94
t21.5 -94.5t57 -64.5t78.5 -23q54 0 89.5 31.5z" />
    <glyph glyph-name="uni04AC" unicode="&#x4ac;" horiz-adv-x="548" 
d="M408 -150h-92v150h-88v613h-212v87h516v-87h-212v-526h88v-237z" />
    <glyph glyph-name="uni04AD" unicode="&#x4ad;" horiz-adv-x="429" 
d="M336 -128h-85v128h-80v422h-157v81h401v-81h-157v-341h78v-209z" />
    <glyph glyph-name="uni04AE" unicode="&#x4ae;" horiz-adv-x="551" 
d="M277 364l176 336h98l-230 -430v-270h-92v270l-229 430h101z" />
    <glyph glyph-name="uni04AF" unicode="&#x4af;" horiz-adv-x="490" 
d="M247 104l149 399h89l-196 -498v-185h-87v185l-197 498h92z" />
    <glyph glyph-name="uni04B0" unicode="&#x4b0;" horiz-adv-x="551" 
d="M453 700h98l-225 -421h134v-80h-139v-199h-92v199h-138v80h133l-224 421h101l176 -336z" />
    <glyph glyph-name="uni04B1" unicode="&#x4b1;" horiz-adv-x="490" 
d="M396 503h89l-191 -485h94v-71h-99v-127h-87v127h-99v71h94l-192 485h92l150 -399z" />
    <glyph glyph-name="uni04B2" unicode="&#x4b2;" horiz-adv-x="597" 
d="M348 355l173 -268h81v-237h-92v150h-40l-177 283l-179 -283h-102l229 355l-218 345h105l168 -273l167 273h103z" />
    <glyph glyph-name="uni04B3" unicode="&#x4b3;" horiz-adv-x="479" 
d="M289 257l120 -176h75v-209h-85v128h-37l-129 196l-129 -196h-96l173 257l-162 246h98l120 -187l119 187h95z" />
    <glyph glyph-name="uni04B4" unicode="&#x4b4;" horiz-adv-x="826" 
d="M806 -150h-92v150h-503v613h-195v87h480v-87h-193v-526h323v613h92v-613h88v-237z" />
    <glyph glyph-name="uni04B5" unicode="&#x4b5;" horiz-adv-x="662" 
d="M643 -128h-85v128h-403v423h-141v80h367v-80h-140v-342h238v422h86v-422h78v-209z" />
    <glyph glyph-name="uni04B6" unicode="&#x4b6;" horiz-adv-x="671" 
d="M563 87h88v-237h-92v150h-88v263q-33 -21 -77.5 -35.5t-94.5 -14.5q-106 0 -168.5 63t-62.5 174v250h92v-245q0 -75 39 -115t108 -40q48 0 90.5 14.5t73.5 35.5v350h92v-613z" />
    <glyph glyph-name="uni04B7" unicode="&#x4b7;" horiz-adv-x="549" 
d="M453 81h78v-209h-85v128h-80v185q-24 -14 -58.5 -25t-74.5 -11q-52 0 -93.5 22.5t-65.5 64.5t-24 96v171h86v-166q0 -51 30.5 -79.5t83.5 -28.5q35 0 64.5 11.5t51.5 27.5v235h87v-422z" />
    <glyph glyph-name="uni04B8" unicode="&#x4b8;" horiz-adv-x="647" 
d="M471 700h92v-700h-92v263q-58 -35 -119 -45v-109h-71v104q-99 6 -156 68.5t-57 168.5v250h92v-245q0 -68 32 -107t89 -46v102h71v-100q65 10 119 46v350z" />
    <glyph glyph-name="uni04B9" unicode="&#x4b9;" horiz-adv-x="521" 
d="M366 503h87v-503h-87v185q-37 -23 -87 -32v-99h-56v95q-76 4 -124.5 54t-48.5 129v171h86v-166q0 -44 23 -71.5t64 -34.5v92h56v-92q44 7 87 37v235z" />
    <glyph glyph-name="uni04BA" unicode="&#x4ba;" horiz-adv-x="647" 
d="M515.5 424q62.5 -63 62.5 -174v-250h-92v245q0 75 -39 115t-108 40q-49 0 -91 -15t-73 -36v-349h-92v700h92v-264q32 21 76.5 36t95.5 15q106 0 168.5 -63z" />
    <glyph glyph-name="uni04BB" unicode="&#x4bb;" horiz-adv-x="570" 
d="M73 0v700h86v-260h5q18 27 56.5 50.5t88.5 23.5q56 0 101 -27.5t71 -77.5t26 -116v-293h-87v290q0 65 -36 104t-92 39q-59 0 -96 -39t-37 -104v-290h-86z" />
    <glyph glyph-name="uni04BC" unicode="&#x4bc;" horiz-adv-x="838" 
d="M795 319h-560q6 -70 39.5 -125.5t85.5 -86.5t112 -31q69 0 123.5 36t83.5 98h94q-20 -64 -65 -114.5t-106.5 -78.5t-129.5 -28q-83 0 -156 43t-119.5 118.5t-53.5 168.5h-18q-61 0 -95.5 33.5t-34.5 92.5v30h81v-26q0 -51 52 -51h17q10 89 57 160.5t118 112t152 40.5
q86 0 161 -47t119.5 -129t44.5 -182q0 -19 -2 -34zM365 595.5q-50 -28.5 -84 -80t-44 -117.5h464q-5 62 -37 114t-83 82t-109 30q-57 0 -107 -28.5z" />
    <glyph glyph-name="uni04BD" unicode="&#x4bd;" horiz-adv-x="645" 
d="M603 215h-383q10 -68 52.5 -107.5t104.5 -39.5q84 0 124 67h89q-23 -61 -81.5 -103.5t-132.5 -42.5q-61 0 -113.5 29t-86 80t-41.5 117h-9q-60 0 -93 31t-33 85v20h74v-20q0 -26 12 -37t40 -11h9q7 65 41 118t86.5 83t113.5 30q65 0 118 -33t83.5 -90t30.5 -127
q0 -31 -5 -49zM273 393q-44 -42 -53 -110h303q-7 67 -48 109.5t-99 42.5q-59 0 -103 -42z" />
    <glyph glyph-name="uni04BE" unicode="&#x4be;" horiz-adv-x="838" 
d="M795 319h-560q6 -70 39.5 -125.5t85.5 -86.5t112 -31q69 0 123.5 36t83.5 98h94q-27 -86 -96.5 -145t-158.5 -73v-142h-92v143q-74 11 -136 55.5t-101.5 115t-45.5 155.5h-18q-61 0 -95.5 33.5t-34.5 92.5v30h81v-26q0 -51 52 -51h17q10 89 57 160.5t118 112t152 40.5
q86 0 161 -47t119.5 -129t44.5 -182q0 -19 -2 -34zM365 595.5q-50 -28.5 -84 -80t-44 -117.5h464q-5 62 -37 114t-83 82t-109 30q-57 0 -107 -28.5z" />
    <glyph glyph-name="uni04BF" unicode="&#x4bf;" horiz-adv-x="645" 
d="M603 215h-383q10 -68 52.5 -107.5t104.5 -39.5q84 0 124 67h89q-20 -51 -65.5 -90.5t-106.5 -51.5v-121h-85v121q-79 14 -133.5 74t-64.5 148h-9q-60 0 -93 31t-33 85v20h74v-20q0 -26 12 -37t40 -11h9q7 65 41 118t86.5 83t113.5 30q65 0 118 -33t83.5 -90t30.5 -127
q0 -31 -5 -49zM273 393q-44 -42 -53 -110h303q-7 67 -48 109.5t-99 42.5q-59 0 -103 -42z" />
    <glyph glyph-name="uni04C0" unicode="&#x4c0;" horiz-adv-x="259" 
d="M175 0h-92v700h92v-700z" />
    <glyph glyph-name="uni04C1" unicode="&#x4c1;" horiz-adv-x="808" 
d="M541 359l277 -359h-112l-257 342v-342h-90v342l-257 -342h-111l276 359l-259 341h104l247 -332v332h90v-332l248 332h103zM300.5 797q-39.5 37 -43.5 91h68q4 -31 23.5 -49t55.5 -18t55.5 18t23.5 49h68q-4 -54 -43.5 -91t-103.5 -37t-103.5 37z" />
    <glyph glyph-name="uni04C2" unicode="&#x4c2;" horiz-adv-x="659" 
d="M462 266l206 -266h-105l-191 254v-254h-85v254l-192 -254h-104l205 266l-185 237h99l177 -233v233h85v-233l176 233h99zM227.5 606q-38.5 37 -42.5 93h67q3 -32 22.5 -50.5t55.5 -18.5q35 0 54.5 18.5t23.5 50.5h66q-3 -55 -42 -92.5t-102 -37.5q-64 0 -102.5 37z" />
    <glyph glyph-name="uni04C3" unicode="&#x4c3;" horiz-adv-x="639" 
d="M468 373q56 -31 88.5 -88.5t32.5 -134.5t-32.5 -137t-88.5 -92.5t-126 -32.5v86q43 0 78 21t55.5 60.5t20.5 92.5q0 79 -44 125.5t-114 46.5q-73 0 -118 -42.5t-45 -110.5v-167h-92v700h92v-348l273 348h110l-240 -297l25 1q69 0 125 -31z" />
    <glyph glyph-name="uni04C4" unicode="&#x4c4;" horiz-adv-x="509" 
d="M389 251q45 -28 71 -80.5t26 -122.5q0 -69 -28 -122.5t-77 -83t-109 -29.5v81q57 0 92 39.5t35 113.5q0 72 -34 112t-85 40q-54 0 -90 -37t-36 -96v-66h-86v503h86v-250l190 250h104l-179 -225q8 1 22 1q53 0 98 -28z" />
    <glyph glyph-name="uni04C5" unicode="&#x4c5;" horiz-adv-x="707" 
d="M548 -150l40 150h-81v613h-258l-32 -410q-8 -104 -56.5 -159t-123.5 -55q-31 0 -45 6v85h18q51 0 81 32t35 99l38 489h435v-613h103v-16l-82 -221h-72z" />
    <glyph glyph-name="uni04C6" unicode="&#x4c6;" horiz-adv-x="569" 
d="M420 -128l30 128h-64v422h-180l-21 -257q-7 -88 -46.5 -132t-103.5 -44q-18 0 -38 6v77h18q39 0 60.5 24.5t25.5 80.5l27 326h345v-422h83v-15l-68 -194h-68z" />
    <glyph glyph-name="uni04C7" unicode="&#x4c7;" horiz-adv-x="690" 
d="M514 700h92v-723q0 -85 -43.5 -131.5t-120.5 -46.5q-36 0 -59 9v82q21 -7 42 -7q45 0 67 23t22 72v336h-339v-314h-92v700h92v-299h339v299z" />
    <glyph glyph-name="uni04C8" unicode="&#x4c8;" horiz-adv-x="562" 
d="M407 503h87v-523q0 -76 -40.5 -120.5t-103.5 -44.5q-34 0 -55 9v75q12 -5 33 -5q37 0 58 22t21 65v231h-253v-212h-86v503h86v-210h253v210z" />
    <glyph glyph-name="uni04C9" unicode="&#x4c9;" horiz-adv-x="714" 
d="M606 700v-613h103v-16l-82 -221h-71l40 150h-82v314h-339v-314h-92v700h92v-299h339v299h92z" />
    <glyph glyph-name="uni04CA" unicode="&#x4ca;" horiz-adv-x="590" 
d="M494 503v-422h83v-15l-68 -194h-68l30 128h-64v212h-253v-212h-86v503h86v-210h253v210h87z" />
    <glyph glyph-name="uni04CB" unicode="&#x4cb;" horiz-adv-x="647" 
d="M471 700h92v-700h-82v-150h-92v233h82v180q-33 -21 -77.5 -35.5t-94.5 -14.5q-106 0 -168.5 63t-62.5 174v250h92v-245q0 -75 39 -115t108 -40q48 0 90.5 14.5t73.5 35.5v350z" />
    <glyph glyph-name="uni04CC" unicode="&#x4cc;" horiz-adv-x="521" 
d="M366 503h87v-503h-75v-128h-84v198h72v115q-24 -14 -58.5 -25t-74.5 -11q-52 0 -93.5 22.5t-65.5 64.5t-24 96v171h86v-166q0 -51 30.5 -79.5t83.5 -28.5q35 0 64.5 11.5t51.5 27.5v235z" />
    <glyph glyph-name="uni04CD" unicode="&#x4cd;" horiz-adv-x="864" 
d="M756 700v-613h103v-16l-82 -221h-72l40 150h-79v490l-220 -490h-54l-218 486v-486h-91v700h87l251 -563l252 563h83z" />
    <glyph glyph-name="uni04CE" unicode="&#x4ce;" horiz-adv-x="693" 
d="M596 503v-422h83v-15l-68 -194h-68l31 128h-63v329l-154 -329h-50l-154 329v-329h-85v503h89l177 -389l176 389h86z" />
    <glyph glyph-name="uni04CF" unicode="&#x4cf;" horiz-adv-x="233" 
d="M159 0h-86v700h86v-700z" />
    <glyph glyph-name="uni04D0" unicode="&#x4d0;" horiz-adv-x="620" 
d="M618 0h-98l-61 168h-302l-61 -168h-94l264 700h88zM427 253l-119 323l-119 -323h238zM206.5 797q-39.5 37 -43.5 91h68q4 -31 23.5 -49t55.5 -18t55.5 18t23.5 49h68q-4 -54 -43.5 -91t-103.5 -37t-103.5 37z" />
    <glyph glyph-name="uni04D1" unicode="&#x4d1;" horiz-adv-x="506" 
d="M350 489.5q44 -24.5 68.5 -69t24.5 -101.5v-319h-65l-18 63h-5q-20 -28 -58 -51t-93 -23q-50 0 -88 20t-59 54.5t-21 76.5q0 47 28.5 83.5t80 56.5t117.5 20h94v23q0 51 -29.5 81.5t-77.5 30.5q-45 0 -71 -23t-33 -59h-87q5 43 29.5 80t66.5 59t95 22q57 0 101 -24.5z
M318 101.5q38 36.5 38 91.5v38h-88q-70 0 -108 -23t-38 -64q0 -36 25 -57.5t71 -21.5q62 0 100 36.5zM149.5 606q-38.5 37 -42.5 93h67q3 -32 22.5 -50.5t55.5 -18.5q35 0 54.5 18.5t23.5 50.5h66q-3 -55 -42 -92.5t-102 -37.5q-64 0 -102.5 37z" />
    <glyph glyph-name="uni04D2" unicode="&#x4d2;" horiz-adv-x="620" 
d="M618 0h-98l-61 168h-302l-61 -168h-94l264 700h88zM427 253l-119 323l-119 -323h238zM184 787q-15 15 -15 36q0 22 15 37t36 15q22 0 37 -15t15 -37t-15 -36.5t-37 -14.5q-21 0 -36 15zM364.5 787q-15.5 15 -15.5 36q0 22 15.5 37t36.5 15q20 0 35.5 -15t15.5 -37
q0 -21 -15 -36t-36 -15t-36.5 15z" />
    <glyph glyph-name="uni04D3" unicode="&#x4d3;" horiz-adv-x="506" 
d="M350 489.5q44 -24.5 68.5 -69t24.5 -101.5v-319h-65l-18 63h-5q-20 -28 -58 -51t-93 -23q-50 0 -88 20t-59 54.5t-21 76.5q0 47 28.5 83.5t80 56.5t117.5 20h94v23q0 51 -29.5 81.5t-77.5 30.5q-45 0 -71 -23t-33 -59h-87q5 43 29.5 80t66.5 59t95 22q57 0 101 -24.5z
M318 101.5q38 36.5 38 91.5v38h-88q-70 0 -108 -23t-38 -64q0 -36 25 -57.5t71 -21.5q62 0 100 36.5zM132 597q-15 15 -15 36t15 36t36 15t36 -14.5t15 -36.5t-15 -36.5t-36 -14.5t-36 15zM300 596.5q-15 14.5 -15 36.5t15 36.5t36 14.5t36 -15t15 -36t-15 -36t-36 -15
t-36 14.5z" />
    <glyph glyph-name="uni04D4" unicode="&#x4d4;" horiz-adv-x="891" 
d="M513 317v-231h335v-86h-425v168h-259l-94 -168h-101l397 700h472v-86h-325v-212h287v-85h-287zM413 614l-202 -361h212v361h-10z" />
    <glyph glyph-name="uni04D5" unicode="&#x4d5;" horiz-adv-x="833" 
d="M791 221h-353q7 -71 46 -112t96 -41q76 0 110 67h89q-23 -64 -74.5 -105t-122.5 -41q-62 0 -109.5 29.5t-72.5 76.5q-22 -48 -69.5 -77t-122.5 -29q-53 0 -92 20t-59.5 53t-20.5 73q0 71 61 113.5t167 42.5h94v34q0 50 -29.5 80t-77.5 30q-47 0 -73 -22.5t-33 -59.5h-87
q5 43 30 80t67 59t97 22q57 0 98 -28t59 -67q24 41 68 68t104 27q62 0 111 -31t76.5 -87.5t27.5 -129.5q0 -32 -5 -45zM487 395.5q-39 -39.5 -48 -105.5h273q-5 62 -40 103.5t-93 41.5q-53 0 -92 -39.5zM320 102q38 37 38 94v26h-89q-147 0 -147 -84q0 -32 25 -52.5
t71 -20.5q64 0 102 37z" />
    <glyph glyph-name="uni04D6" unicode="&#x4d6;" horiz-adv-x="583" 
d="M175 317v-231h365v-86h-457v700h447v-86h-355v-212h317v-85h-317zM203.5 797q-39.5 37 -43.5 91h68q4 -31 23.5 -49t55.5 -18t55.5 18t23.5 49h68q-4 -54 -43.5 -91t-103.5 -37t-103.5 37z" />
    <glyph glyph-name="uni04D7" unicode="&#x4d7;" horiz-adv-x="548" 
d="M507 214h-382q10 -68 52 -107t104 -39q82 0 124 67h89q-24 -61 -82 -103.5t-132 -42.5q-67 0 -123 34t-88 94t-32 135q0 73 33 133t88.5 94.5t120.5 34.5t118 -33t83.5 -90t30.5 -127q0 -34 -4 -50zM177.5 393.5q-43.5 -41.5 -53.5 -108.5h303q-8 66 -48.5 108t-99.5 42
q-58 0 -101.5 -41.5zM175.5 606q-38.5 37 -42.5 93h67q3 -32 22.5 -50.5t55.5 -18.5q35 0 54.5 18.5t23.5 50.5h66q-3 -55 -42 -92.5t-102 -37.5q-64 0 -102.5 37z" />
    <glyph glyph-name="uni04D8" unicode="&#x4d8;" horiz-adv-x="737" 
d="M529 663.5q76 -47.5 121.5 -130t45.5 -183.5t-45.5 -183.5t-121.5 -130t-164 -47.5q-86 0 -160.5 47t-119 129t-44.5 182q0 20 2 34h560q-7 71 -40.5 126t-85.5 86t-112 31q-69 0 -123 -36t-84 -98h-93q20 64 64.5 114.5t106 78.5t129.5 28q88 0 164 -47.5zM472.5 104.5
q50.5 28.5 84.5 80t44 117.5h-464q5 -62 37 -114t82.5 -82t108.5 -30q57 0 107.5 28.5z" />
    <glyph glyph-name="uni04D9" unicode="&#x4d9;" horiz-adv-x="548" 
d="M391 480q56 -34 88 -93.5t32 -134.5q0 -73 -33 -133.5t-88.5 -95t-120.5 -34.5t-118 33t-83.5 90t-30.5 127q0 34 4 50h382q-10 68 -51.5 107t-103.5 39q-83 0 -125 -67h-88q23 61 81 103.5t132 42.5q67 0 123 -34zM370.5 109.5q43.5 41.5 53.5 108.5h-303
q8 -66 48.5 -108t99.5 -42q58 0 101.5 41.5z" />
    <glyph glyph-name="uni04DA" unicode="&#x4da;" horiz-adv-x="737" 
d="M529 663.5q76 -47.5 121.5 -130t45.5 -183.5t-45.5 -183.5t-121.5 -130t-164 -47.5q-86 0 -160.5 47t-119 129t-44.5 182q0 20 2 34h560q-7 71 -40.5 126t-85.5 86t-112 31q-69 0 -123 -36t-84 -98h-93q20 64 64.5 114.5t106 78.5t129.5 28q88 0 164 -47.5zM472.5 104.5
q50.5 28.5 84.5 80t44 117.5h-464q5 -62 37 -114t82.5 -82t108.5 -30q57 0 107.5 28.5zM239 787q-15 15 -15 36q0 22 15 37t36 15q22 0 37 -15t15 -37t-15 -36.5t-37 -14.5q-21 0 -36 15zM419.5 787q-15.5 15 -15.5 36q0 22 15.5 37t36.5 15q20 0 35.5 -15t15.5 -37
q0 -21 -15 -36t-36 -15t-36.5 15z" />
    <glyph glyph-name="uni04DB" unicode="&#x4db;" horiz-adv-x="548" 
d="M391 480q56 -34 88 -93.5t32 -134.5q0 -73 -33 -133.5t-88.5 -95t-120.5 -34.5t-118 33t-83.5 90t-30.5 127q0 34 4 50h382q-10 68 -51.5 107t-103.5 39q-83 0 -125 -67h-88q23 61 81 103.5t132 42.5q67 0 123 -34zM370.5 109.5q43.5 41.5 53.5 108.5h-303
q8 -66 48.5 -108t99.5 -42q58 0 101.5 41.5zM149 597q-15 15 -15 36t15 36t36 15t36 -14.5t15 -36.5t-15 -36.5t-36 -14.5t-36 15zM317 596.5q-15 14.5 -15 36.5t15 36.5t36 14.5t36 -15t15 -36t-15 -36t-36 -15t-36 14.5z" />
    <glyph glyph-name="uni04DC" unicode="&#x4dc;" horiz-adv-x="808" 
d="M541 359l277 -359h-112l-257 342v-342h-90v342l-257 -342h-111l276 359l-259 341h104l247 -332v332h90v-332l248 332h103zM278 787q-15 15 -15 36q0 22 15 37t36 15q22 0 37 -15t15 -37t-15 -36.5t-37 -14.5q-21 0 -36 15zM458.5 787q-15.5 15 -15.5 36q0 22 15.5 37
t36.5 15q20 0 35.5 -15t15.5 -37q0 -21 -15 -36t-36 -15t-36.5 15z" />
    <glyph glyph-name="uni04DD" unicode="&#x4dd;" horiz-adv-x="659" 
d="M462 266l206 -266h-105l-191 254v-254h-85v254l-192 -254h-104l205 266l-185 237h99l177 -233v233h85v-233l176 233h99zM210 597q-15 15 -15 36t15 36t36 15t36 -14.5t15 -36.5t-15 -36.5t-36 -14.5t-36 15zM378 596.5q-15 14.5 -15 36.5t15 36.5t36 14.5t36 -15t15 -36
t-15 -36t-36 -15t-36 14.5z" />
    <glyph glyph-name="uni04DE" unicode="&#x4de;" horiz-adv-x="547" 
d="M469 303q38 -43 38 -114q0 -52 -29.5 -98t-83.5 -74t-123 -28q-71 0 -124.5 27.5t-84.5 74.5t-37 106h91q9 -54 48.5 -88.5t104.5 -34.5q67 0 106.5 33.5t39.5 85.5q0 55 -39.5 89.5t-108.5 34.5h-54v80h54q61 0 96 31.5t35 81.5t-35.5 83t-96.5 33q-58 0 -94.5 -33.5
t-41.5 -85.5h-92q5 56 35 102.5t80 74t113 27.5q65 0 116.5 -27t79.5 -72.5t28 -97.5q0 -54 -33 -92.5t-76 -56.5q50 -19 88 -62zM143 787q-15 15 -15 36q0 22 15 37t36 15q22 0 37 -15t15 -37t-15 -36.5t-37 -14.5q-21 0 -36 15zM323.5 787q-15.5 15 -15.5 36q0 22 15.5 37
t36.5 15q20 0 35.5 -15t15.5 -37q0 -21 -15 -36t-36 -15t-36.5 15z" />
    <glyph glyph-name="uni04DF" unicode="&#x4df;" horiz-adv-x="443" 
d="M382.5 216q23.5 -31 23.5 -77q0 -40 -22 -74.5t-64.5 -55t-100.5 -20.5q-89 0 -140.5 46.5t-58.5 117.5h85q3 -39 31 -63t81 -24q51 0 77.5 20.5t26.5 56.5t-26 58t-74 22h-57v70h54q44 0 67.5 19t23.5 49q0 32 -25.5 54t-68.5 22q-45 0 -70.5 -22.5t-30.5 -58.5h-84
q6 68 55.5 113t134.5 45q52 0 91.5 -20.5t61 -55t21.5 -74.5t-20 -65t-47 -39q32 -13 55.5 -44zM98 597q-15 15 -15 36t15 36t36 15t36 -14.5t15 -36.5t-15 -36.5t-36 -14.5t-36 15zM266 596.5q-15 14.5 -15 36.5t15 36.5t36 14.5t36 -15t15 -36t-15 -36t-36 -15t-36 14.5z
" />
    <glyph glyph-name="uni04E0" unicode="&#x4e0;" horiz-adv-x="567" 
d="M307 426q60 -2 110.5 -30t80 -77t29.5 -110t-31 -111.5t-88 -79.5t-133 -29q-112 0 -177.5 57.5t-77.5 153.5h91q8 -56 50.5 -91t113.5 -35q73 0 116.5 38.5t43.5 97.5q0 60 -43 98t-116 38h-87v71l199 198h-331v85h445v-82z" />
    <glyph glyph-name="uni04E1" unicode="&#x4e1;" horiz-adv-x="484" 
d="M247 222q57 0 104.5 -27t75 -74t27.5 -106t-28 -105.5t-78.5 -73t-115.5 -26.5q-98 0 -157.5 54t-67.5 145h86q8 -57 42.5 -87.5t96.5 -30.5q60 0 98 35.5t38 91.5q0 58 -38 94t-99 36h-93v65l191 211h-284v79h387v-77l-187 -204h2z" />
    <glyph glyph-name="uni04E2" unicode="&#x4e2;" horiz-adv-x="699" 
d="M174 154l355 546h87v-700h-91v546l-355 -546h-87v700h91v-546zM491 789h-271v69h271v-69z" />
    <glyph glyph-name="uni04E3" unicode="&#x4e3;" horiz-adv-x="566" 
d="M153 134l269 369h76v-503h-85v369l-269 -369h-76v503h85v-369zM421 601h-264v66h264v-66z" />
    <glyph glyph-name="uni04E4" unicode="&#x4e4;" horiz-adv-x="699" 
d="M174 154l355 546h87v-700h-91v546l-355 -546h-87v700h91v-546zM229 787q-15 15 -15 36q0 22 15 37t36 15q22 0 37 -15t15 -37t-15 -36.5t-37 -14.5q-21 0 -36 15zM409.5 787q-15.5 15 -15.5 36q0 22 15.5 37t36.5 15q20 0 35.5 -15t15.5 -37q0 -21 -15 -36t-36 -15
t-36.5 15z" />
    <glyph glyph-name="uni04E5" unicode="&#x4e5;" horiz-adv-x="566" 
d="M153 134l269 369h76v-503h-85v369l-269 -369h-76v503h85v-369zM168 597q-15 15 -15 36t15 36t36 15t36 -14.5t15 -36.5t-15 -36.5t-36 -14.5t-36 15zM336 596.5q-15 14.5 -15 36.5t15 36.5t36 14.5t36 -15t15 -36t-15 -36t-36 -15t-36 14.5z" />
    <glyph glyph-name="uni04E6" unicode="&#x4e6;" horiz-adv-x="742" 
d="M207 36.5q-76 47.5 -121 130t-45 183.5t45 183.5t121 130t164 47.5t164 -47.5t121 -130t45 -183.5t-45 -183.5t-121 -130t-164 -47.5t-164 47.5zM489 111q55 35 87.5 97.5t32.5 141.5t-32.5 141.5t-87.5 97.5t-118 35t-117.5 -35t-87.5 -97.5t-33 -141.5t33 -141.5
t87.5 -97.5t117.5 -35t118 35zM244 787q-15 15 -15 36q0 22 15 37t36 15q22 0 37 -15t15 -37t-15 -36.5t-37 -14.5q-21 0 -36 15zM424.5 787q-15.5 15 -15.5 36q0 22 15.5 37t36.5 15q20 0 35.5 -15t15.5 -37q0 -21 -15 -36t-36 -15t-36.5 15z" />
    <glyph glyph-name="uni04E7" unicode="&#x4e7;" horiz-adv-x="559" 
d="M158.5 23.5q-55.5 34.5 -88.5 95t-33 133.5t33 133t88.5 94.5t121.5 34.5q65 0 121 -34.5t89 -94.5t33 -133t-33 -133.5t-89 -95t-121 -34.5q-66 0 -121.5 34.5zM358 93q36 23 57 64.5t21 94.5t-21 94t-57 64t-78 23t-78 -23t-57.5 -64t-21.5 -94t21.5 -94.5t57 -64.5
t78.5 -23q42 0 78 23zM160 597q-15 15 -15 36t15 36t36 15t36 -14.5t15 -36.5t-15 -36.5t-36 -14.5t-36 15zM328 596.5q-15 14.5 -15 36.5t15 36.5t36 14.5t36 -15t15 -36t-15 -36t-36 -15t-36 14.5z" />
    <glyph glyph-name="uni04E8" unicode="&#x4e8;" horiz-adv-x="742" 
d="M535 663.5q76 -47.5 121 -130t45 -183.5t-45 -183.5t-121 -130t-164 -47.5t-164 47.5t-121 130t-45 183.5t45 183.5t121 130t164 47.5t164 -47.5zM261.5 595.5q-51.5 -29.5 -86 -83t-42.5 -122.5h476q-8 69 -42.5 122.5t-86 83t-109.5 29.5t-109.5 -29.5zM480.5 104.5
q51.5 29.5 86 83t42.5 122.5h-476q8 -69 42.5 -122.5t86 -83t109.5 -29.5t109.5 29.5z" />
    <glyph glyph-name="uni04E9" unicode="&#x4e9;" horiz-adv-x="559" 
d="M401 479.5q56 -34.5 89 -94.5t33 -133t-33 -133.5t-89 -95t-121 -34.5q-66 0 -121.5 34.5t-88.5 95t-33 133.5t33 133t88.5 94.5t121.5 34.5q65 0 121 -34.5zM177 394q-44 -41 -54 -108h313q-10 67 -53.5 108t-102.5 41t-103 -41zM382.5 109q43.5 41 53.5 108h-312
q10 -67 53.5 -108t102.5 -41t102.5 41z" />
    <glyph glyph-name="uni04EA" unicode="&#x4ea;" horiz-adv-x="742" 
d="M535 663.5q76 -47.5 121 -130t45 -183.5t-45 -183.5t-121 -130t-164 -47.5t-164 47.5t-121 130t-45 183.5t45 183.5t121 130t164 47.5t164 -47.5zM261.5 595.5q-51.5 -29.5 -86 -83t-42.5 -122.5h476q-8 69 -42.5 122.5t-86 83t-109.5 29.5t-109.5 -29.5zM480.5 104.5
q51.5 29.5 86 83t42.5 122.5h-476q8 -69 42.5 -122.5t86 -83t109.5 -29.5t109.5 29.5zM244 787q-15 15 -15 36q0 22 15 37t36 15q22 0 37 -15t15 -37t-15 -36.5t-37 -14.5q-21 0 -36 15zM424.5 787q-15.5 15 -15.5 36q0 22 15.5 37t36.5 15q20 0 35.5 -15t15.5 -37
q0 -21 -15 -36t-36 -15t-36.5 15z" />
    <glyph glyph-name="uni04EB" unicode="&#x4eb;" horiz-adv-x="559" 
d="M401 479.5q56 -34.5 89 -94.5t33 -133t-33 -133.5t-89 -95t-121 -34.5q-66 0 -121.5 34.5t-88.5 95t-33 133.5t33 133t88.5 94.5t121.5 34.5q65 0 121 -34.5zM177 394q-44 -41 -54 -108h313q-10 67 -53.5 108t-102.5 41t-103 -41zM382.5 109q43.5 41 53.5 108h-312
q10 -67 53.5 -108t102.5 -41t102.5 41zM160 597q-15 15 -15 36t15 36t36 15t36 -14.5t15 -36.5t-15 -36.5t-36 -14.5t-36 15zM328 596.5q-15 14.5 -15 36.5t15 36.5t36 14.5t36 -15t15 -36t-15 -36t-36 -15t-36 14.5z" />
    <glyph glyph-name="uni04EC" unicode="&#x4ec;" horiz-adv-x="699" 
d="M492 663.5q76 -47.5 121.5 -130.5t45.5 -183t-45.5 -183t-121.5 -130.5t-163 -47.5q-74 0 -136.5 32.5t-105 86t-58.5 115.5h94q22 -61 76.5 -104t129.5 -43q57 0 108 29t85 82.5t43 121.5h-278v82h278q-9 68 -43 121.5t-85 82.5t-108 29q-73 0 -126 -43t-76 -104h-94
q16 61 58 115t103.5 86.5t134.5 32.5q87 0 163 -47.5zM204 787q-15 15 -15 36q0 22 15 37t36 15q22 0 37 -15t15 -37t-15 -36.5t-37 -14.5q-21 0 -36 15zM384.5 787q-15.5 15 -15.5 36q0 22 15.5 37t36.5 15q20 0 35.5 -15t15.5 -37q0 -21 -15 -36t-36 -15t-36.5 15z" />
    <glyph glyph-name="uni04ED" unicode="&#x4ed;" horiz-adv-x="531" 
d="M372.5 479.5q55.5 -34.5 88.5 -94.5t33 -133t-33 -133.5t-88.5 -95t-121.5 -34.5q-58 0 -105.5 26.5t-79 70t-41.5 93.5h87q14 -49 49 -80t90 -31q58 0 101 41t53 108h-178v69h179q-10 67 -53.5 108t-101.5 41q-54 0 -89.5 -31.5t-49.5 -78.5h-87q10 49 41.5 92.5t79 70
t105.5 26.5q66 0 121.5 -34.5zM131 597q-15 15 -15 36t15 36t36 15t36 -14.5t15 -36.5t-15 -36.5t-36 -14.5t-36 15zM299 596.5q-15 14.5 -15 36.5t15 36.5t36 14.5t36 -15t15 -36t-15 -36t-36 -15t-36 14.5z" />
    <glyph glyph-name="uni04EE" unicode="&#x4ee;" horiz-adv-x="565" 
d="M471 700h95l-247 -549q-38 -86 -78 -124t-100 -38q-17 0 -32 3.5t-24 7.5v82q19 -8 41 -8q36 0 61.5 24t45.5 67l14 31l-237 504h100l184 -406zM426 789h-271v69h271v-69z" />
    <glyph glyph-name="uni04EF" unicode="&#x4ef;" horiz-adv-x="487" 
d="M393 503h89l-216 -542q-33 -83 -67 -114.5t-79 -31.5q-20 0 -47 9v78q17 -6 33 -6q27 0 45.5 15t32.5 50l20 51l-199 491h93l149 -384zM378 601h-264v66h264v-66z" />
    <glyph glyph-name="uni04F0" unicode="&#x4f0;" horiz-adv-x="565" 
d="M471 700h95l-247 -549q-38 -86 -78 -124t-100 -38q-17 0 -32 3.5t-24 7.5v82q19 -8 41 -8q36 0 61.5 24t45.5 67l14 31l-237 504h100l184 -406zM164 787q-15 15 -15 36q0 22 15 37t36 15q22 0 37 -15t15 -37t-15 -36.5t-37 -14.5q-21 0 -36 15zM344.5 787
q-15.5 15 -15.5 36q0 22 15.5 37t36.5 15q20 0 35.5 -15t15.5 -37q0 -21 -15 -36t-36 -15t-36.5 15z" />
    <glyph glyph-name="uni04F1" unicode="&#x4f1;" horiz-adv-x="487" 
d="M393 503h89l-216 -542q-33 -83 -67 -114.5t-79 -31.5q-20 0 -47 9v78q17 -6 33 -6q27 0 45.5 15t32.5 50l20 51l-199 491h93l149 -384zM125 597q-15 15 -15 36t15 36t36 15t36 -14.5t15 -36.5t-15 -36.5t-36 -14.5t-36 15zM293 596.5q-15 14.5 -15 36.5t15 36.5t36 14.5
t36 -15t15 -36t-15 -36t-36 -15t-36 14.5z" />
    <glyph glyph-name="uni04F2" unicode="&#x4f2;" horiz-adv-x="565" 
d="M471 700h95l-247 -549q-38 -86 -78 -124t-100 -38q-17 0 -32 3.5t-24 7.5v82q19 -8 41 -8q36 0 61.5 24t45.5 67l14 31l-237 504h100l184 -406zM252 755h-66l83 137h93zM396 755h-66l83 137h94z" />
    <glyph glyph-name="uni04F3" unicode="&#x4f3;" horiz-adv-x="487" 
d="M393 503h89l-216 -542q-33 -83 -67 -114.5t-79 -31.5q-20 0 -47 9v78q17 -6 33 -6q27 0 45.5 15t32.5 50l20 51l-199 491h93l149 -384zM206 563h-64l78 142h91zM349 563h-65l78 142h92z" />
    <glyph glyph-name="uni04F4" unicode="&#x4f4;" horiz-adv-x="647" 
d="M471 700h92v-700h-92v263q-33 -21 -77.5 -35.5t-94.5 -14.5q-106 0 -168.5 63t-62.5 174v250h92v-245q0 -75 39 -115t108 -40q48 0 90.5 14.5t73.5 35.5v350zM190 787q-15 15 -15 36q0 22 15 37t36 15q22 0 37 -15t15 -37t-15 -36.5t-37 -14.5q-21 0 -36 15zM370.5 787
q-15.5 15 -15.5 36q0 22 15.5 37t36.5 15q20 0 35.5 -15t15.5 -37q0 -21 -15 -36t-36 -15t-36.5 15z" />
    <glyph glyph-name="uni04F5" unicode="&#x4f5;" horiz-adv-x="521" 
d="M366 503h87v-503h-87v185q-24 -14 -58.5 -25t-74.5 -11q-52 0 -93.5 22.5t-65.5 64.5t-24 96v171h86v-166q0 -51 30.5 -79.5t83.5 -28.5q35 0 64.5 11.5t51.5 27.5v235zM132 597q-15 15 -15 36t15 36t36 15t36 -14.5t15 -36.5t-15 -36.5t-36 -14.5t-36 15zM300 596.5
q-15 14.5 -15 36.5t15 36.5t36 14.5t36 -15t15 -36t-15 -36t-36 -15t-36 14.5z" />
    <glyph glyph-name="uni04F6" unicode="&#x4f6;" horiz-adv-x="506" 
d="M263 -150h-92v150h-88v700h412v-87h-320v-526h88v-237z" />
    <glyph glyph-name="uni04F7" unicode="&#x4f7;" horiz-adv-x="409" 
d="M232 -128h-85v128h-79v503h331v-81h-245v-341h78v-209z" />
    <glyph glyph-name="uni04F8" unicode="&#x4f8;" horiz-adv-x="804" 
d="M314 443q65 0 117 -28.5t81.5 -79t29.5 -113.5t-29.5 -113.5t-81.5 -79.5t-117 -29h-231v700h92v-257h139zM629 0v700h92v-700h-92zM313 87q61 0 99 37t38 98q0 60 -38 97t-99 37h-138v-269h138zM275 787q-15 15 -15 36q0 22 15 37t36 15q22 0 37 -15t15 -37t-15 -36.5
t-37 -14.5q-21 0 -36 15zM455.5 787q-15.5 15 -15.5 36q0 22 15.5 37t36.5 15q20 0 35.5 -15t15.5 -37q0 -21 -15 -36t-36 -15t-36.5 15z" />
    <glyph glyph-name="uni04F9" unicode="&#x4f9;" horiz-adv-x="667" 
d="M267 328q78 0 126.5 -45.5t48.5 -118.5t-48.5 -118.5t-126.5 -45.5h-199v503h86v-175h113zM512 0v503h86v-503h-86zM260 77q45 0 70.5 23t25.5 64t-25.5 64.5t-70.5 23.5h-106v-175h106zM213 597q-15 15 -15 36t15 36t36 15t36 -14.5t15 -36.5t-15 -36.5t-36 -14.5
t-36 15zM381 596.5q-15 14.5 -15 36.5t15 36.5t36 14.5t36 -15t15 -36t-15 -36t-36 -15t-36 14.5z" />
    <glyph glyph-name="uni04FA" unicode="&#x4fa;" horiz-adv-x="541" 
d="M523 613h-320v-236h232v-86h-232v-209h119v-114q0 -80 -41.5 -124.5t-109.5 -44.5q-35 0 -60 9v82q19 -7 43 -7q36 0 56 21t20 64v32h-119v291h-93v86h93v323h412v-87z" />
    <glyph glyph-name="uni04FB" unicode="&#x4fb;" horiz-adv-x="433" 
d="M418 422h-245v-164h180v-74h-180v-112h99v-105q0 -45 -17.5 -79.5t-47.5 -53.5t-65 -19q-31 0 -55 9v75q13 -5 33 -5q29 0 47.5 19.5t18.5 54.5v32h-99v184h-79v74h79v245h331v-81z" />
    <glyph glyph-name="uni04FC" unicode="&#x4fc;" horiz-adv-x="589" 
d="M520 88q28 -44 42.5 -77t14.5 -69q0 -63 -41 -103t-107 -40q-33 0 -55 9v82q21 -7 41 -7q35 0 52.5 17t17.5 46q0 21 -10 42t-32 56l-150 239l-179 -283h-102l229 355l-218 345h105l168 -273l167 273h103l-218 -345z" />
    <glyph glyph-name="uni04FD" unicode="&#x4fd;" horiz-adv-x="470" 
d="M420 64q44 -65 44 -121t-37.5 -92t-92.5 -36q-31 0 -55 9v75q13 -5 34 -5q31 0 48 14t17 40q0 18 -8 36t-28 47l-109 165l-129 -196h-96l173 257l-162 246h98l120 -187l119 187h95l-162 -246z" />
    <glyph glyph-name="uni04FE" unicode="&#x4fe;" horiz-adv-x="589" 
d="M373 316l204 -316h-107l-177 283l-179 -283h-102l204 316h-142v80h141l-192 304h105l168 -273l167 273h103l-192 -304h141v-80h-142z" />
    <glyph glyph-name="uni04FF" unicode="&#x4ff;" horiz-adv-x="470" 
d="M313 222l150 -222h-101l-129 196l-129 -196h-96l149 222h-103v69h105l-140 212h98l120 -187l119 187h95l-140 -212h105v-69h-103z" />
    <glyph glyph-name="uni0510" unicode="&#x510;" horiz-adv-x="547" 
d="M523 197q-7 -59 -37.5 -106t-84 -74.5t-125.5 -27.5q-69 0 -123 28t-83.5 74t-29.5 98q0 71 38 114t89 62q-44 18 -77 56.5t-33 92.5q0 52 28 97.5t79.5 72.5t116.5 27q63 0 113.5 -27.5t80 -74t34.5 -102.5h-92q-4 51 -41 85t-94 34q-61 0 -97 -33t-36 -83t35 -81.5
t96 -31.5h54v-80h-54q-69 0 -108 -34.5t-39 -89.5q0 -52 39 -85.5t106 -33.5q65 0 105 34.5t48 88.5h92z" />
    <glyph glyph-name="uni0511" unicode="&#x511;" horiz-adv-x="443" 
d="M422 153q-6 -71 -58 -117.5t-140 -46.5q-58 0 -100.5 20.5t-64.5 55t-22 74.5q0 46 23.5 77t55.5 44q-27 14 -47 39t-20 65t21.5 74.5t61 55t91.5 20.5q85 0 134.5 -45t55.5 -113h-85q-4 36 -29.5 58.5t-70.5 22.5q-43 0 -68.5 -22t-25.5 -54q0 -30 23.5 -49t67.5 -19h53
v-70h-56q-48 0 -74 -22t-26 -58t26 -56.5t78 -20.5q53 0 80.5 24t31.5 63h84z" />
    <glyph glyph-name="uni0512" unicode="&#x512;" horiz-adv-x="682" 
d="M375 -192v82q22 -7 43 -7q89 0 89 95v635h-258l-32 -410q-8 -104 -56.5 -159t-123.5 -55q-31 0 -45 6v85h18q51 0 81 32t35 99l38 489h435v-723q0 -85 -44 -131.5t-121 -46.5q-36 0 -59 9z" />
    <glyph glyph-name="uni0513" unicode="&#x513;" horiz-adv-x="541" 
d="M274 -176v75q12 -5 33 -5q37 0 58 22t21 65v441h-180l-21 -257q-7 -88 -46.5 -132t-103.5 -44q-18 0 -38 6v77h18q39 0 60.5 24.5t25.5 80.5l27 326h345v-523q0 -76 -40.5 -120.5t-103.5 -44.5q-34 0 -55 9z" />
    <glyph glyph-name="uni051A" unicode="&#x51a;" horiz-adv-x="742" 
d="M678.5 219q-22.5 -62 -62.5 -111l67 -66l-56 -59l-70 69q-40 -30 -88 -46.5t-98 -16.5q-88 0 -164 47.5t-121 130t-45 183.5t45 183.5t121 130t164 47.5t164 -47.5t121 -130t45 -183.5q0 -69 -22.5 -131zM495 113l-100 99l56 58l103 -101q57 77 57 181q0 79 -33 142
t-88 98t-119 35t-119 -35t-88 -98t-33 -142t33 -142t88 -98t119 -35q65 0 124 38z" />
    <glyph glyph-name="uni051B" unicode="&#x51b;" horiz-adv-x="580" 
d="M426 -180v241h-5q-16 -23 -58 -47.5t-94 -24.5q-63 0 -116 34t-84.5 94t-31.5 135t31.5 135t84.5 93.5t116 33.5q54 0 95.5 -25t59.5 -49h5l19 63h64v-683h-86zM350 93q35 23 55.5 64.5t20.5 94.5t-20.5 94t-55.5 64t-76 23t-75.5 -23t-55 -64t-20.5 -94t20.5 -94.5
t55 -64.5t75.5 -23t76 23z" />
    <glyph glyph-name="uni051C" unicode="&#x51c;" horiz-adv-x="884" 
d="M628 174l154 526h92l-213 -700h-70l-149 513l-148 -513h-71l-213 700h95l154 -526l150 526h67z" />
    <glyph glyph-name="uni051D" unicode="&#x51d;" horiz-adv-x="701" 
d="M494 138l115 365h87l-167 -503h-68l-111 354l-110 -354h-68l-167 503h91l114 -363l113 363h57z" />
    <glyph glyph-name="uni0524" unicode="&#x524;" horiz-adv-x="714" 
d="M694 -150h-92v150h-88v613h-339v-613h-92v700h523v-613h88v-237z" />
    <glyph glyph-name="uni0525" unicode="&#x525;" horiz-adv-x="582" 
d="M563 -128h-85v128h-79v422h-245v-422h-86v503h417v-422h78v-209z" />
    <glyph glyph-name="uni0526" unicode="&#x526;" horiz-adv-x="686" 
d="M578 87h88v-237h-92v150h-88v245q0 75 -39 115t-108 40q-49 0 -91 -15t-73 -36v-349h-92v700h92v-264q32 21 76.5 36t95.5 15q106 0 168.5 -63t62.5 -174v-163z" />
    <glyph glyph-name="uni0527" unicode="&#x527;" horiz-adv-x="603" 
d="M500 -128v128h-80v290q0 65 -36 104t-92 39q-59 0 -96 -39t-37 -104v-290h-86v700h86v-260h5q18 27 56.5 50.5t88.5 23.5q56 0 101 -27.5t71 -77.5t26 -116v-212h77v-209h-84z" />
    <glyph glyph-name="uni0528" unicode="&#x528;" horiz-adv-x="690" 
d="M514 700h92v-700h-92v314h-339v-337q0 -85 -43.5 -131.5t-120.5 -46.5q-36 0 -59 9v82q21 -7 42 -7q45 0 67 23t22 72v722h92v-299h339v299z" />
    <glyph glyph-name="uni0529" unicode="&#x529;" horiz-adv-x="562" 
d="M407 503h87v-503h-87v212h-253v-232q0 -76 -40.5 -120.5t-102.5 -44.5q-32 0 -56 9v75q13 -5 34 -5q37 0 58 22t21 65v522h86v-210h253v210z" />
    <glyph glyph-name="uni052E" unicode="&#x52e;" horiz-adv-x="707" 
d="M595 -150v150h-88v613h-258l-32 -410q-8 -104 -56.5 -159t-123.5 -55q-31 0 -45 6v85h18q51 0 81 32t35 99l38 489h435v-613h88v-237h-92z" />
    <glyph glyph-name="uni052F" unicode="&#x52f;" horiz-adv-x="569" 
d="M466 -128v128h-80v422h-180l-21 -257q-7 -88 -46.5 -132t-103.5 -44q-18 0 -38 6v77h18q39 0 60.5 24.5t25.5 80.5l27 326h345v-422h78v-209h-85z" />
    <glyph glyph-name="Wgrave" unicode="&#x1e80;" horiz-adv-x="884" 
d="M628 174l154 526h92l-213 -700h-70l-149 513l-148 -513h-71l-213 700h95l154 -526l150 526h67zM491 755h-70l-102 137h97z" />
    <glyph glyph-name="wgrave" unicode="&#x1e81;" horiz-adv-x="701" 
d="M494 138l115 365h87l-167 -503h-68l-111 354l-110 -354h-68l-167 503h91l114 -363l113 363h57zM396 563h-66l-97 142h94z" />
    <glyph glyph-name="Wacute" unicode="&#x1e82;" horiz-adv-x="884" 
d="M628 174l154 526h92l-213 -700h-70l-149 513l-148 -513h-71l-213 700h95l154 -526l150 526h67zM466 755h-70l74 137h97z" />
    <glyph glyph-name="wacute" unicode="&#x1e83;" horiz-adv-x="701" 
d="M494 138l115 365h87l-167 -503h-68l-111 354l-110 -354h-68l-167 503h91l114 -363l113 363h57zM374 563h-67l69 142h94z" />
    <glyph glyph-name="Wdieresis" unicode="&#x1e84;" horiz-adv-x="884" 
d="M628 174l154 526h92l-213 -700h-70l-149 513l-148 -513h-71l-213 700h95l154 -526l150 526h67zM316 787q-15 15 -15 36q0 22 15 37t36 15q22 0 37 -15t15 -37t-15 -36.5t-37 -14.5q-21 0 -36 15zM496.5 787q-15.5 15 -15.5 36q0 22 15.5 37t36.5 15q20 0 35.5 -15
t15.5 -37q0 -21 -15 -36t-36 -15t-36.5 15z" />
    <glyph glyph-name="wdieresis" unicode="&#x1e85;" horiz-adv-x="701" 
d="M494 138l115 365h87l-167 -503h-68l-111 354l-110 -354h-68l-167 503h91l114 -363l113 363h57zM232 597q-15 15 -15 36t15 36t36 15t36 -14.5t15 -36.5t-15 -36.5t-36 -14.5t-36 15zM400 596.5q-15 14.5 -15 36.5t15 36.5t36 14.5t36 -15t15 -36t-15 -36t-36 -15
t-36 14.5z" />
    <glyph glyph-name="uni1E9E" unicode="&#x1e9e;" horiz-adv-x="661" 
d="M420 400q54 0 100 -25.5t73.5 -71t27.5 -101.5q0 -57 -27 -103.5t-75 -72.5t-109 -26h-112v87h111q53 0 86.5 32.5t33.5 84.5q0 51 -34.5 84.5t-85.5 33.5h-103v79l159 214h-177q-49 0 -83.5 -35t-34.5 -88v-492h-92v492q0 60 27 107.5t75 74t108 26.5h283v-74l-170 -226
h19z" />
    <glyph glyph-name="uni1EA0" unicode="&#x1ea0;" horiz-adv-x="620" 
d="M618 0h-98l-61 168h-302l-61 -168h-94l264 700h88zM427 253l-119 323l-119 -323h238zM271.5 -168.5q-15.5 15.5 -15.5 38.5q0 24 15.5 39.5t38.5 15.5t39 -15.5t16 -39.5q0 -23 -16 -38.5t-39 -15.5t-38.5 15.5z" />
    <glyph glyph-name="uni1EA1" unicode="&#x1ea1;" horiz-adv-x="506" 
d="M350 489.5q44 -24.5 68.5 -69t24.5 -101.5v-319h-65l-18 63h-5q-20 -28 -58 -51t-93 -23q-50 0 -88 20t-59 54.5t-21 76.5q0 47 28.5 83.5t80 56.5t117.5 20h94v23q0 51 -29.5 81.5t-77.5 30.5q-45 0 -71 -23t-33 -59h-87q5 43 29.5 80t66.5 59t95 22q57 0 101 -24.5z
M318 101.5q38 36.5 38 91.5v38h-88q-70 0 -108 -23t-38 -64q0 -36 25 -57.5t71 -21.5q62 0 100 36.5zM216.5 -168.5q-15.5 15.5 -15.5 38.5q0 24 15.5 39.5t38.5 15.5t39 -15.5t16 -39.5q0 -23 -16 -38.5t-39 -15.5t-38.5 15.5z" />
    <glyph glyph-name="uni1EA2" unicode="&#x1ea2;" horiz-adv-x="620" 
d="M618 0h-98l-61 168h-302l-61 -168h-94l264 700h88zM427 253l-119 323l-119 -323h238zM289 752q21 29 21 59q0 22 -13.5 35t-37.5 13q-18 0 -31 -4v58q18 7 50 7q46 0 73 -23.5t27 -63.5q0 -45 -30 -81h-59z" />
    <glyph glyph-name="uni1EA3" unicode="&#x1ea3;" horiz-adv-x="506" 
d="M350 489.5q44 -24.5 68.5 -69t24.5 -101.5v-319h-65l-18 63h-5q-20 -28 -58 -51t-93 -23q-50 0 -88 20t-59 54.5t-21 76.5q0 47 28.5 83.5t80 56.5t117.5 20h94v23q0 51 -29.5 81.5t-77.5 30.5q-45 0 -71 -23t-33 -59h-87q5 43 29.5 80t66.5 59t95 22q57 0 101 -24.5z
M318 101.5q38 36.5 38 91.5v38h-88q-70 0 -108 -23t-38 -64q0 -36 25 -57.5t71 -21.5q62 0 100 36.5zM226 560q22 30 22 61q0 54 -53 54q-15 0 -28 -4v56q19 7 47 7q46 0 72.5 -24.5t26.5 -66.5t-30 -83h-57z" />
    <glyph glyph-name="uni1EA4" unicode="&#x1ea4;" horiz-adv-x="620" 
d="M618 0h-98l-61 168h-302l-61 -168h-94l264 700h88zM427 253l-119 323l-119 -323h238zM421 830l61 121h89l-85 -121h-65zM162 746l110 137h78l110 -137h-83l-67 85l-67 -85h-81z" />
    <glyph glyph-name="uni1EA5" unicode="&#x1ea5;" horiz-adv-x="506" 
d="M350 489.5q44 -24.5 68.5 -69t24.5 -101.5v-319h-65l-18 63h-5q-20 -28 -58 -51t-93 -23q-50 0 -88 20t-59 54.5t-21 76.5q0 47 28.5 83.5t80 56.5t117.5 20h94v23q0 51 -29.5 81.5t-77.5 30.5q-45 0 -71 -23t-33 -59h-87q5 43 29.5 80t66.5 59t95 22q57 0 101 -24.5z
M318 101.5q38 36.5 38 91.5v38h-88q-70 0 -108 -23t-38 -64q0 -36 25 -57.5t71 -21.5q62 0 100 36.5zM360 635l64 132h90l-89 -132h-65zM108 552l106 142h76l105 -142h-81l-63 90l-63 -90h-80z" />
    <glyph glyph-name="uni1EA6" unicode="&#x1ea6;" horiz-adv-x="620" 
d="M618 0h-98l-61 168h-302l-61 -168h-94l264 700h88zM427 253l-119 323l-119 -323h238zM454 951l60 -121h-64l-85 121h89zM162 746l110 137h78l110 -137h-83l-67 85l-67 -85h-81z" />
    <glyph glyph-name="uni1EA7" unicode="&#x1ea7;" horiz-adv-x="506" 
d="M350 489.5q44 -24.5 68.5 -69t24.5 -101.5v-319h-65l-18 63h-5q-20 -28 -58 -51t-93 -23q-50 0 -88 20t-59 54.5t-21 76.5q0 47 28.5 83.5t80 56.5t117.5 20h94v23q0 51 -29.5 81.5t-77.5 30.5q-45 0 -71 -23t-33 -59h-87q5 43 29.5 80t66.5 59t95 22q57 0 101 -24.5z
M318 101.5q38 36.5 38 91.5v38h-88q-70 0 -108 -23t-38 -64q0 -36 25 -57.5t71 -21.5q62 0 100 36.5zM387 767l63 -132h-64l-90 132h91zM108 552l106 142h76l105 -142h-81l-63 90l-63 -90h-80z" />
    <glyph glyph-name="uni1EA8" unicode="&#x1ea8;" horiz-adv-x="620" 
d="M618 0h-98l-61 168h-302l-61 -168h-94l264 700h88zM427 253l-119 323l-119 -323h238zM491.5 960.5q24.5 -21.5 24.5 -56.5q0 -20 -8.5 -40t-22.5 -34h-59q23 29 23 52q0 18 -11.5 29t-31.5 11q-18 0 -31 -4v57q23 7 51 7q41 0 65.5 -21.5zM162 746l110 137h78l110 -137
h-83l-67 85l-67 -85h-81z" />
    <glyph glyph-name="uni1EA9" unicode="&#x1ea9;" horiz-adv-x="506" 
d="M350 489.5q44 -24.5 68.5 -69t24.5 -101.5v-319h-65l-18 63h-5q-20 -28 -58 -51t-93 -23q-50 0 -88 20t-59 54.5t-21 76.5q0 47 28.5 83.5t80 56.5t117.5 20h94v23q0 51 -29.5 81.5t-77.5 30.5q-45 0 -71 -23t-33 -59h-87q5 43 29.5 80t66.5 59t95 22q57 0 101 -24.5z
M318 101.5q38 36.5 38 91.5v38h-88q-70 0 -108 -23t-38 -64q0 -36 25 -57.5t71 -21.5q62 0 100 36.5zM421 769q25 -23 25 -58t-27 -74h-57q19 29 19 53q0 20 -12.5 31.5t-31.5 11.5q-15 0 -28 -4v56q19 7 46 7q41 0 66 -23zM108 552l106 142h76l105 -142h-81l-63 90l-63 -90
h-80z" />
    <glyph glyph-name="uni1EAA" unicode="&#x1eaa;" horiz-adv-x="620" 
d="M618 0h-98l-61 168h-302l-61 -168h-94l264 700h88zM427 253l-119 323l-119 -323h238zM235.5 943q-10.5 -14 -10.5 -36h-61q0 53 26 83t62 30q23 0 39 -9.5t32 -25.5q12 -11 19 -16t16 -5q14 0 25 13.5t11 36.5h60q0 -53 -26 -83t-62 -30q-23 0 -39 9.5t-32 25.5
q-12 11 -19 16t-16 5q-14 0 -24.5 -14zM349 883l110 -137h-83l-67 85l-67 -85h-81l110 137h78z" />
    <glyph glyph-name="uni1EAB" unicode="&#x1eab;" horiz-adv-x="506" 
d="M350 489.5q44 -24.5 68.5 -69t24.5 -101.5v-319h-65l-18 63h-5q-20 -28 -58 -51t-93 -23q-50 0 -88 20t-59 54.5t-21 76.5q0 47 28.5 83.5t80 56.5t117.5 20h94v23q0 51 -29.5 81.5t-77.5 30.5q-45 0 -71 -23t-33 -59h-87q5 43 29.5 80t66.5 59t95 22q57 0 101 -24.5z
M318 101.5q38 36.5 38 91.5v38h-88q-70 0 -108 -23t-38 -64q0 -36 25 -57.5t71 -21.5q62 0 100 36.5zM174.5 756q-10.5 -14 -10.5 -37h-60q0 53 26 83.5t62 30.5q23 0 38 -9t32 -26q12 -12 19.5 -17t16.5 -5q14 0 24.5 14t10.5 37h61q0 -53 -26.5 -83t-62.5 -30
q-22 0 -36.5 8.5t-33.5 25.5q-12 12 -19.5 17t-16.5 5q-14 0 -24.5 -14zM290 694l105 -142h-81l-63 90l-63 -90h-80l106 142h76z" />
    <glyph glyph-name="uni1EAC" unicode="&#x1eac;" horiz-adv-x="620" 
d="M618 0h-98l-61 168h-302l-61 -168h-94l264 700h88zM427 253l-119 323l-119 -323h238zM271.5 -168.5q-15.5 15.5 -15.5 38.5q0 24 15.5 39.5t38.5 15.5t39 -15.5t16 -39.5q0 -23 -16 -38.5t-39 -15.5t-38.5 15.5zM350 892l110 -137h-83l-67 85l-67 -85h-81l110 137h78z
" />
    <glyph glyph-name="uni1EAD" unicode="&#x1ead;" horiz-adv-x="506" 
d="M350 489.5q44 -24.5 68.5 -69t24.5 -101.5v-319h-65l-18 63h-5q-20 -28 -58 -51t-93 -23q-50 0 -88 20t-59 54.5t-21 76.5q0 47 28.5 83.5t80 56.5t117.5 20h94v23q0 51 -29.5 81.5t-77.5 30.5q-45 0 -71 -23t-33 -59h-87q5 43 29.5 80t66.5 59t95 22q57 0 101 -24.5z
M318 101.5q38 36.5 38 91.5v38h-88q-70 0 -108 -23t-38 -64q0 -36 25 -57.5t71 -21.5q62 0 100 36.5zM216.5 -168.5q-15.5 15.5 -15.5 38.5q0 24 15.5 39.5t38.5 15.5t39 -15.5t16 -39.5q0 -23 -16 -38.5t-39 -15.5t-38.5 15.5zM290 705l105 -142h-81l-63 91l-63 -91h-80
l106 142h76z" />
    <glyph glyph-name="uni1EAE" unicode="&#x1eae;" horiz-adv-x="620" 
d="M618 0h-98l-61 168h-302l-61 -168h-94l264 700h88zM427 253l-119 323l-119 -323h238zM340 879h-64l61 120h89zM209.5 785q-38.5 37 -42.5 91h68q4 -30 22.5 -48.5t52.5 -18.5t52.5 18.5t22.5 48.5h68q-4 -54 -42.5 -91t-100.5 -37t-100.5 37z" />
    <glyph glyph-name="uni1EAF" unicode="&#x1eaf;" horiz-adv-x="506" 
d="M350 489.5q44 -24.5 68.5 -69t24.5 -101.5v-319h-65l-18 63h-5q-20 -28 -58 -51t-93 -23q-50 0 -88 20t-59 54.5t-21 76.5q0 47 28.5 83.5t80 56.5t117.5 20h94v23q0 51 -29.5 81.5t-77.5 30.5q-45 0 -71 -23t-33 -59h-87q5 43 29.5 80t66.5 59t95 22q57 0 101 -24.5z
M318 101.5q38 36.5 38 91.5v38h-88q-70 0 -108 -23t-38 -64q0 -36 25 -57.5t71 -21.5q62 0 100 36.5zM282 689h-64l63 131h91zM154 593.5q-38 37.5 -42 92.5h67q3 -32 21.5 -51t52.5 -19q33 0 51.5 19t22.5 51h66q-3 -55 -41.5 -92.5t-98.5 -37.5q-61 0 -99 37.5z" />
    <glyph glyph-name="uni1EB0" unicode="&#x1eb0;" horiz-adv-x="620" 
d="M618 0h-98l-61 168h-302l-61 -168h-94l264 700h88zM427 253l-119 323l-119 -323h238zM344 879h-65l-85 120h89zM209.5 785q-38.5 37 -42.5 91h68q4 -30 22.5 -48.5t52.5 -18.5t52.5 18.5t22.5 48.5h68q-4 -54 -42.5 -91t-100.5 -37t-100.5 37z" />
    <glyph glyph-name="uni1EB1" unicode="&#x1eb1;" horiz-adv-x="506" 
d="M350 489.5q44 -24.5 68.5 -69t24.5 -101.5v-319h-65l-18 63h-5q-20 -28 -58 -51t-93 -23q-50 0 -88 20t-59 54.5t-21 76.5q0 47 28.5 83.5t80 56.5t117.5 20h94v23q0 51 -29.5 81.5t-77.5 30.5q-45 0 -71 -23t-33 -59h-87q5 43 29.5 80t66.5 59t95 22q57 0 101 -24.5z
M318 101.5q38 36.5 38 91.5v38h-88q-70 0 -108 -23t-38 -64q0 -36 25 -57.5t71 -21.5q62 0 100 36.5zM287 689h-64l-90 131h91zM154 593.5q-38 37.5 -42 92.5h67q3 -32 21.5 -51t52.5 -19q33 0 51.5 19t22.5 51h66q-3 -55 -41.5 -92.5t-98.5 -37.5q-61 0 -99 37.5z" />
    <glyph glyph-name="uni1EB2" unicode="&#x1eb2;" horiz-adv-x="620" 
d="M618 0h-98l-61 168h-302l-61 -168h-94l264 700h88zM427 253l-119 323l-119 -323h238zM281 879q22 30 22 52q0 18 -11 29t-32 11q-9 0 -31 -4v57q23 7 51 7q41 0 65.5 -21.5t24.5 -56.5q0 -21 -8.5 -40.5t-22.5 -33.5h-58zM209.5 785q-38.5 37 -42.5 91h68
q4 -30 22.5 -48.5t52.5 -18.5t52.5 18.5t22.5 48.5h68q-4 -54 -42.5 -91t-100.5 -37t-100.5 37z" />
    <glyph glyph-name="uni1EB3" unicode="&#x1eb3;" horiz-adv-x="506" 
d="M350 489.5q44 -24.5 68.5 -69t24.5 -101.5v-319h-65l-18 63h-5q-20 -28 -58 -51t-93 -23q-50 0 -88 20t-59 54.5t-21 76.5q0 47 28.5 83.5t80 56.5t117.5 20h94v23q0 51 -29.5 81.5t-77.5 30.5q-45 0 -71 -23t-33 -59h-87q5 43 29.5 80t66.5 59t95 22q57 0 101 -24.5z
M318 101.5q38 36.5 38 91.5v38h-88q-70 0 -108 -23t-38 -64q0 -36 25 -57.5t71 -21.5q62 0 100 36.5zM224 689q19 27 19 52q0 22 -12.5 34.5t-31.5 12.5q-15 0 -28 -4v56q26 7 46 7q41 0 66 -23.5t25 -60.5q0 -35 -27 -74h-57zM154 593.5q-38 37.5 -42 92.5h67
q3 -32 21.5 -51t52.5 -19q33 0 51.5 19t22.5 51h66q-3 -55 -41.5 -92.5t-98.5 -37.5q-61 0 -99 37.5z" />
    <glyph glyph-name="uni1EB4" unicode="&#x1eb4;" horiz-adv-x="620" 
d="M618 0h-98l-61 168h-302l-61 -168h-94l264 700h88zM427 253l-119 323l-119 -323h238zM327.5 907.5q-15.5 9.5 -31.5 25.5q-12 11 -19 16t-16 5q-14 0 -25 -14t-11 -36h-60q0 53 26 83t62 30q23 0 39 -9.5t32 -25.5q12 -11 19 -16t16 -5q14 0 24.5 13.5t10.5 36.5h61
q0 -53 -26.5 -83t-62.5 -30q-23 0 -38.5 9.5zM209.5 785q-38.5 37 -42.5 91h68q4 -30 22.5 -48.5t52.5 -18.5t52.5 18.5t22.5 48.5h68q-4 -54 -42.5 -91t-100.5 -37t-100.5 37z" />
    <glyph glyph-name="uni1EB5" unicode="&#x1eb5;" horiz-adv-x="506" 
d="M350 489.5q44 -24.5 68.5 -69t24.5 -101.5v-319h-65l-18 63h-5q-20 -28 -58 -51t-93 -23q-50 0 -88 20t-59 54.5t-21 76.5q0 47 28.5 83.5t80 56.5t117.5 20h94v23q0 51 -29.5 81.5t-77.5 30.5q-45 0 -71 -23t-33 -59h-87q5 43 29.5 80t66.5 59t95 22q57 0 101 -24.5z
M318 101.5q38 36.5 38 91.5v38h-88q-70 0 -108 -23t-38 -64q0 -36 25 -57.5t71 -21.5q62 0 100 36.5zM274.5 715.5q-14.5 8.5 -33.5 25.5q-11 11 -19 16.5t-17 5.5q-14 0 -24.5 -14t-10.5 -37h-60q0 53 26 83.5t62 30.5q23 0 38 -9t32 -26q11 -11 19 -16.5t17 -5.5
q14 0 24.5 14t10.5 37h61q0 -53 -26.5 -83t-62.5 -30q-22 0 -36.5 8.5zM152.5 593.5q-38.5 37.5 -41.5 92.5h66q4 -32 22.5 -51t51.5 -19q34 0 52.5 19t22.5 51h66q-4 -55 -42 -92.5t-99 -37.5q-60 0 -98.5 37.5z" />
    <glyph glyph-name="uni1EB6" unicode="&#x1eb6;" horiz-adv-x="620" 
d="M618 0h-98l-61 168h-302l-61 -168h-94l264 700h88zM427 253l-119 323l-119 -323h238zM271.5 -168.5q-15.5 15.5 -15.5 38.5q0 24 15.5 39.5t38.5 15.5t39 -15.5t16 -39.5q0 -23 -16 -38.5t-39 -15.5t-38.5 15.5zM209.5 797q-38.5 37 -42.5 91h68q4 -31 22.5 -49.5
t52.5 -18.5t52.5 18.5t22.5 49.5h68q-4 -54 -42.5 -91t-100.5 -37t-100.5 37z" />
    <glyph glyph-name="uni1EB7" unicode="&#x1eb7;" horiz-adv-x="506" 
d="M350 489.5q44 -24.5 68.5 -69t24.5 -101.5v-319h-65l-18 63h-5q-20 -28 -58 -51t-93 -23q-50 0 -88 20t-59 54.5t-21 76.5q0 47 28.5 83.5t80 56.5t117.5 20h94v23q0 51 -29.5 81.5t-77.5 30.5q-45 0 -71 -23t-33 -59h-87q5 43 29.5 80t66.5 59t95 22q57 0 101 -24.5z
M318 101.5q38 36.5 38 91.5v38h-88q-70 0 -108 -23t-38 -64q0 -36 25 -57.5t71 -21.5q62 0 100 36.5zM216.5 -168.5q-15.5 15.5 -15.5 38.5q0 24 15.5 39.5t38.5 15.5t39 -15.5t16 -39.5q0 -23 -16 -38.5t-39 -15.5t-38.5 15.5zM153 606.5q-38 37.5 -42 92.5h67
q3 -32 21.5 -51t52.5 -19q33 0 51.5 19t22.5 51h66q-3 -55 -41.5 -92.5t-98.5 -37.5q-61 0 -99 37.5z" />
    <glyph glyph-name="uni1EB8" unicode="&#x1eb8;" horiz-adv-x="583" 
d="M175 317v-231h365v-86h-457v700h447v-86h-355v-212h317v-85h-317zM273.5 -168.5q-15.5 15.5 -15.5 38.5q0 24 15.5 39.5t38.5 15.5t39 -15.5t16 -39.5q0 -23 -16 -38.5t-39 -15.5t-38.5 15.5z" />
    <glyph glyph-name="uni1EB9" unicode="&#x1eb9;" horiz-adv-x="548" 
d="M507 214h-382q10 -68 52 -107t104 -39q82 0 124 67h89q-24 -61 -82 -103.5t-132 -42.5q-67 0 -123 34t-88 94t-32 135q0 73 33 133t88.5 94.5t120.5 34.5t118 -33t83.5 -90t30.5 -127q0 -34 -4 -50zM177.5 393.5q-43.5 -41.5 -53.5 -108.5h303q-8 66 -48.5 108t-99.5 42
q-58 0 -101.5 -41.5zM239.5 -168.5q-15.5 15.5 -15.5 38.5q0 24 15.5 39.5t38.5 15.5t39 -15.5t16 -39.5q0 -23 -16 -38.5t-39 -15.5t-38.5 15.5z" />
    <glyph glyph-name="uni1EBA" unicode="&#x1eba;" horiz-adv-x="583" 
d="M175 317v-231h365v-86h-457v700h447v-86h-355v-212h317v-85h-317zM286 752q21 29 21 59q0 22 -13.5 35t-37.5 13q-18 0 -31 -4v58q18 7 50 7q46 0 73 -23.5t27 -63.5q0 -45 -30 -81h-59z" />
    <glyph glyph-name="uni1EBB" unicode="&#x1ebb;" horiz-adv-x="548" 
d="M507 214h-382q10 -68 52 -107t104 -39q82 0 124 67h89q-24 -61 -82 -103.5t-132 -42.5q-67 0 -123 34t-88 94t-32 135q0 73 33 133t88.5 94.5t120.5 34.5t118 -33t83.5 -90t30.5 -127q0 -34 -4 -50zM177.5 393.5q-43.5 -41.5 -53.5 -108.5h303q-8 66 -48.5 108t-99.5 42
q-58 0 -101.5 -41.5zM252 560q22 30 22 61q0 54 -53 54q-15 0 -28 -4v56q19 7 47 7q46 0 72.5 -24.5t26.5 -66.5t-30 -83h-57z" />
    <glyph glyph-name="uni1EBC" unicode="&#x1ebc;" horiz-adv-x="583" 
d="M175 317v-231h365v-86h-457v700h447v-86h-355v-212h317v-85h-317zM328.5 770.5q-16.5 9.5 -35.5 27.5q-13 12 -22 18t-20 6q-16 0 -27 -15t-11 -40h-61q0 58 26.5 88.5t66.5 30.5q25 0 42 -10t35 -27q14 -12 22.5 -17.5t18.5 -5.5q17 0 28 14.5t11 39.5h60
q0 -57 -26.5 -88t-65.5 -31q-25 0 -41.5 9.5z" />
    <glyph glyph-name="uni1EBD" unicode="&#x1ebd;" horiz-adv-x="548" 
d="M507 214h-382q10 -68 52 -107t104 -39q82 0 124 67h89q-24 -61 -82 -103.5t-132 -42.5q-67 0 -123 34t-88 94t-32 135q0 73 33 133t88.5 94.5t120.5 34.5t118 -33t83.5 -90t30.5 -127q0 -34 -4 -50zM177.5 393.5q-43.5 -41.5 -53.5 -108.5h303q-8 66 -48.5 108t-99.5 42
q-58 0 -101.5 -41.5zM299 580.5q-16 10.5 -35 29.5q-13 13 -22 19.5t-18 6.5q-16 0 -27 -15.5t-11 -45.5h-60q0 62 26 93.5t65 31.5q23 0 39.5 -10.5t34.5 -29.5q14 -14 22.5 -20t18.5 -6q15 0 26 16t11 44h60q0 -61 -25.5 -92.5t-64.5 -31.5q-24 0 -40 10.5z" />
    <glyph glyph-name="uni1EBE" unicode="&#x1ebe;" horiz-adv-x="583" 
d="M175 317v-231h365v-86h-457v700h447v-86h-355v-212h317v-85h-317zM418 830l61 121h89l-85 -121h-65zM159 746l110 137h78l110 -137h-83l-67 85l-67 -85h-81z" />
    <glyph glyph-name="uni1EBF" unicode="&#x1ebf;" horiz-adv-x="548" 
d="M507 214h-382q10 -68 52 -107t104 -39q82 0 124 67h89q-24 -61 -82 -103.5t-132 -42.5q-67 0 -123 34t-88 94t-32 135q0 73 33 133t88.5 94.5t120.5 34.5t118 -33t83.5 -90t30.5 -127q0 -34 -4 -50zM177.5 393.5q-43.5 -41.5 -53.5 -108.5h303q-8 66 -48.5 108t-99.5 42
q-58 0 -101.5 -41.5zM386 635l64 132h90l-89 -132h-65zM134 552l106 142h76l105 -142h-81l-63 90l-63 -90h-80z" />
    <glyph glyph-name="uni1EC0" unicode="&#x1ec0;" horiz-adv-x="583" 
d="M175 317v-231h365v-86h-457v700h447v-86h-355v-212h317v-85h-317zM451 951l60 -121h-64l-85 121h89zM159 746l110 137h78l110 -137h-83l-67 85l-67 -85h-81z" />
    <glyph glyph-name="uni1EC1" unicode="&#x1ec1;" horiz-adv-x="548" 
d="M507 214h-382q10 -68 52 -107t104 -39q82 0 124 67h89q-24 -61 -82 -103.5t-132 -42.5q-67 0 -123 34t-88 94t-32 135q0 73 33 133t88.5 94.5t120.5 34.5t118 -33t83.5 -90t30.5 -127q0 -34 -4 -50zM177.5 393.5q-43.5 -41.5 -53.5 -108.5h303q-8 66 -48.5 108t-99.5 42
q-58 0 -101.5 -41.5zM413 767l63 -132h-64l-90 132h91zM134 552l106 142h76l105 -142h-81l-63 90l-63 -90h-80z" />
    <glyph glyph-name="uni1EC2" unicode="&#x1ec2;" horiz-adv-x="583" 
d="M175 317v-231h365v-86h-457v700h447v-86h-355v-212h317v-85h-317zM488.5 960.5q24.5 -21.5 24.5 -56.5q0 -20 -8.5 -40t-22.5 -34h-59q23 29 23 52q0 18 -11.5 29t-31.5 11q-18 0 -31 -4v57q23 7 51 7q41 0 65.5 -21.5zM159 746l110 137h78l110 -137h-83l-67 85l-67 -85
h-81z" />
    <glyph glyph-name="uni1EC3" unicode="&#x1ec3;" horiz-adv-x="548" 
d="M507 214h-382q10 -68 52 -107t104 -39q82 0 124 67h89q-24 -61 -82 -103.5t-132 -42.5q-67 0 -123 34t-88 94t-32 135q0 73 33 133t88.5 94.5t120.5 34.5t118 -33t83.5 -90t30.5 -127q0 -34 -4 -50zM177.5 393.5q-43.5 -41.5 -53.5 -108.5h303q-8 66 -48.5 108t-99.5 42
q-58 0 -101.5 -41.5zM447 769q25 -23 25 -58t-27 -74h-57q19 29 19 53q0 20 -12.5 31.5t-31.5 11.5q-15 0 -28 -4v56q19 7 46 7q41 0 66 -23zM134 552l106 142h76l105 -142h-81l-63 90l-63 -90h-80z" />
    <glyph glyph-name="uni1EC4" unicode="&#x1ec4;" horiz-adv-x="583" 
d="M175 317v-231h365v-86h-457v700h447v-86h-355v-212h317v-85h-317zM232.5 943q-10.5 -14 -10.5 -36h-61q0 53 26 83t62 30q23 0 39 -9.5t32 -25.5q12 -11 19 -16t16 -5q14 0 25 13.5t11 36.5h60q0 -53 -26 -83t-62 -30q-23 0 -39 9.5t-32 25.5q-12 11 -19 16t-16 5
q-14 0 -24.5 -14zM346 883l110 -137h-83l-67 85l-67 -85h-81l110 137h78z" />
    <glyph glyph-name="uni1EC5" unicode="&#x1ec5;" horiz-adv-x="548" 
d="M507 214h-382q10 -68 52 -107t104 -39q82 0 124 67h89q-24 -61 -82 -103.5t-132 -42.5q-67 0 -123 34t-88 94t-32 135q0 73 33 133t88.5 94.5t120.5 34.5t118 -33t83.5 -90t30.5 -127q0 -34 -4 -50zM177.5 393.5q-43.5 -41.5 -53.5 -108.5h303q-8 66 -48.5 108t-99.5 42
q-58 0 -101.5 -41.5zM199.5 756q-10.5 -14 -10.5 -37h-60q0 53 26 83.5t62 30.5q23 0 38 -9t32 -26q12 -12 19.5 -17t16.5 -5q14 0 24.5 14t10.5 37h61q0 -53 -26.5 -83t-62.5 -30q-22 0 -36.5 8.5t-33.5 25.5q-12 12 -19.5 17t-16.5 5q-14 0 -24.5 -14zM315 694l105 -142
h-81l-63 90l-63 -90h-80l106 142h76z" />
    <glyph glyph-name="uni1EC6" unicode="&#x1ec6;" horiz-adv-x="583" 
d="M175 317v-231h365v-86h-457v700h447v-86h-355v-212h317v-85h-317zM273.5 -168.5q-15.5 15.5 -15.5 38.5q0 24 15.5 39.5t38.5 15.5t39 -15.5t16 -39.5q0 -23 -16 -38.5t-39 -15.5t-38.5 15.5zM347 892l110 -137h-83l-67 85l-67 -85h-81l110 137h78z" />
    <glyph glyph-name="uni1EC7" unicode="&#x1ec7;" horiz-adv-x="548" 
d="M507 214h-382q10 -68 52 -107t104 -39q82 0 124 67h89q-24 -61 -82 -103.5t-132 -42.5q-67 0 -123 34t-88 94t-32 135q0 73 33 133t88.5 94.5t120.5 34.5t118 -33t83.5 -90t30.5 -127q0 -34 -4 -50zM177.5 393.5q-43.5 -41.5 -53.5 -108.5h303q-8 66 -48.5 108t-99.5 42
q-58 0 -101.5 -41.5zM239.5 -168.5q-15.5 15.5 -15.5 38.5q0 24 15.5 39.5t38.5 15.5t39 -15.5t16 -39.5q0 -23 -16 -38.5t-39 -15.5t-38.5 15.5zM316 705l105 -142h-81l-63 91l-63 -91h-80l106 142h76z" />
    <glyph glyph-name="uni1EC8" unicode="&#x1ec8;" horiz-adv-x="259" 
d="M175 0h-92v700h92v-700zM108 752q21 29 21 59q0 22 -13.5 35t-37.5 13q-18 0 -31 -4v58q18 7 50 7q46 0 73 -23.5t27 -63.5q0 -45 -30 -81h-59z" />
    <glyph glyph-name="uni1EC9" unicode="&#x1ec9;" horiz-adv-x="223" 
d="M154 0h-86v503h86v-503zM86 560q22 30 22 61q0 54 -53 54q-15 0 -28 -4v56q19 7 47 7q46 0 72.5 -24.5t26.5 -66.5t-30 -83h-57z" />
    <glyph glyph-name="uni1ECA" unicode="&#x1eca;" horiz-adv-x="259" 
d="M175 0h-92v700h92v-700zM90.5 -168.5q-15.5 15.5 -15.5 38.5q0 24 15.5 39.5t38.5 15.5t39 -15.5t16 -39.5q0 -23 -16 -38.5t-39 -15.5t-38.5 15.5z" />
    <glyph glyph-name="uni1ECB" unicode="&#x1ecb;" horiz-adv-x="223" 
d="M154 0h-86v503h86v-503zM72.5 594q-15.5 16 -15.5 39q0 24 15.5 39t38.5 15q24 0 39.5 -15t15.5 -39q0 -23 -16 -39t-39 -16t-38.5 16zM72.5 -168.5q-15.5 15.5 -15.5 38.5q0 24 15.5 39.5t38.5 15.5t39 -15.5t16 -39.5q0 -23 -16 -38.5t-39 -15.5t-38.5 15.5z" />
    <glyph glyph-name="uni1ECC" unicode="&#x1ecc;" horiz-adv-x="742" 
d="M207 36.5q-76 47.5 -121 130t-45 183.5t45 183.5t121 130t164 47.5t164 -47.5t121 -130t45 -183.5t-45 -183.5t-121 -130t-164 -47.5t-164 47.5zM489 111q55 35 87.5 97.5t32.5 141.5t-32.5 141.5t-87.5 97.5t-118 35t-117.5 -35t-87.5 -97.5t-33 -141.5t33 -141.5
t87.5 -97.5t117.5 -35t118 35zM331.5 -168.5q-15.5 15.5 -15.5 38.5q0 24 15.5 39.5t38.5 15.5t39 -15.5t16 -39.5q0 -23 -16 -38.5t-39 -15.5t-38.5 15.5z" />
    <glyph glyph-name="uni1ECD" unicode="&#x1ecd;" horiz-adv-x="559" 
d="M158.5 23.5q-55.5 34.5 -88.5 95t-33 133.5t33 133t88.5 94.5t121.5 34.5q65 0 121 -34.5t89 -94.5t33 -133t-33 -133.5t-89 -95t-121 -34.5q-66 0 -121.5 34.5zM358 93q36 23 57 64.5t21 94.5t-21 94t-57 64t-78 23t-78 -23t-57.5 -64t-21.5 -94t21.5 -94.5t57 -64.5
t78.5 -23q42 0 78 23zM240.5 -168.5q-15.5 15.5 -15.5 38.5q0 24 15.5 39.5t38.5 15.5t39 -15.5t16 -39.5q0 -23 -16 -38.5t-39 -15.5t-38.5 15.5z" />
    <glyph glyph-name="uni1ECE" unicode="&#x1ece;" horiz-adv-x="742" 
d="M207 36.5q-76 47.5 -121 130t-45 183.5t45 183.5t121 130t164 47.5t164 -47.5t121 -130t45 -183.5t-45 -183.5t-121 -130t-164 -47.5t-164 47.5zM489 111q55 35 87.5 97.5t32.5 141.5t-32.5 141.5t-87.5 97.5t-118 35t-117.5 -35t-87.5 -97.5t-33 -141.5t33 -141.5
t87.5 -97.5t117.5 -35t118 35zM350 752q21 29 21 59q0 22 -13.5 35t-37.5 13q-18 0 -31 -4v58q18 7 50 7q46 0 73 -23.5t27 -63.5q0 -45 -30 -81h-59z" />
    <glyph glyph-name="uni1ECF" unicode="&#x1ecf;" horiz-adv-x="559" 
d="M158.5 23.5q-55.5 34.5 -88.5 95t-33 133.5t33 133t88.5 94.5t121.5 34.5q65 0 121 -34.5t89 -94.5t33 -133t-33 -133.5t-89 -95t-121 -34.5q-66 0 -121.5 34.5zM358 93q36 23 57 64.5t21 94.5t-21 94t-57 64t-78 23t-78 -23t-57.5 -64t-21.5 -94t21.5 -94.5t57 -64.5
t78.5 -23q42 0 78 23zM254 560q22 30 22 61q0 54 -53 54q-15 0 -28 -4v56q19 7 47 7q46 0 72.5 -24.5t26.5 -66.5t-30 -83h-57z" />
    <glyph glyph-name="uni1ED0" unicode="&#x1ed0;" horiz-adv-x="742" 
d="M207 36.5q-76 47.5 -121 130t-45 183.5t45 183.5t121 130t164 47.5t164 -47.5t121 -130t45 -183.5t-45 -183.5t-121 -130t-164 -47.5t-164 47.5zM489 111q55 35 87.5 97.5t32.5 141.5t-32.5 141.5t-87.5 97.5t-118 35t-117.5 -35t-87.5 -97.5t-33 -141.5t33 -141.5
t87.5 -97.5t117.5 -35t118 35zM481 830l61 121h89l-85 -121h-65zM222 746l110 137h78l110 -137h-83l-67 85l-67 -85h-81z" />
    <glyph glyph-name="uni1ED1" unicode="&#x1ed1;" horiz-adv-x="559" 
d="M158.5 23.5q-55.5 34.5 -88.5 95t-33 133.5t33 133t88.5 94.5t121.5 34.5q65 0 121 -34.5t89 -94.5t33 -133t-33 -133.5t-89 -95t-121 -34.5q-66 0 -121.5 34.5zM358 93q36 23 57 64.5t21 94.5t-21 94t-57 64t-78 23t-78 -23t-57.5 -64t-21.5 -94t21.5 -94.5t57 -64.5
t78.5 -23q42 0 78 23zM388 635l64 132h90l-89 -132h-65zM136 552l106 142h76l105 -142h-81l-63 90l-63 -90h-80z" />
    <glyph glyph-name="uni1ED2" unicode="&#x1ed2;" horiz-adv-x="742" 
d="M207 36.5q-76 47.5 -121 130t-45 183.5t45 183.5t121 130t164 47.5t164 -47.5t121 -130t45 -183.5t-45 -183.5t-121 -130t-164 -47.5t-164 47.5zM489 111q55 35 87.5 97.5t32.5 141.5t-32.5 141.5t-87.5 97.5t-118 35t-117.5 -35t-87.5 -97.5t-33 -141.5t33 -141.5
t87.5 -97.5t117.5 -35t118 35zM514 951l60 -121h-64l-85 121h89zM222 746l110 137h78l110 -137h-83l-67 85l-67 -85h-81z" />
    </font>
</defs>
</svg>
