<?xml version="1.0" standalone="no"?>
<!DOCTYPE svg PUBLIC "-//W3C//DTD SVG 1.1//EN" "http://www.w3.org/Graphics/SVG/1.1/DTD/svg11.dtd" >
<svg xmlns="http://www.w3.org/2000/svg" xmlns:xlink="http://www.w3.org/1999/xlink" version="1.1">
<metadata>
Created by FontForge 20201107 at Mon Mar  6 10:17:17 2023
 By 
Copyright (c) 2018-2021 by TypeType. All rights reserved.
</metadata>
<defs>
<font id="TTCommonsProTrial-Normal" horiz-adv-x="0" >
  <font-face 
    font-family="TT Commons Pro Trial Normal"
    font-weight="450"
    font-stretch="normal"
    units-per-em="1000"
    panose-1="2 11 1 3 3 1 2 2 2 4"
    ascent="800"
    descent="-200"
    x-height="502"
    cap-height="700"
    bbox="-420 -362 1438 1066"
    underline-thickness="54"
    underline-position="-235"
    unicode-range="U+0020-FB06"
  />
<missing-glyph horiz-adv-x="900" 
d="M100 284h45v-139h33v139h50v31h-128v126l19 -61h23l34 106l33 -106h23l54 170h-32l-34 -110l-35 110h-19l-35 -110l-31 103v157h700v-150h-110v-170h110v-91q-6 13 -19.5 20t-30.5 7q-27 0 -43.5 -14.5t-16.5 -34.5q0 -22 14.5 -32.5t39.5 -17.5q17 -5 25.5 -9.5
t8.5 -13.5q0 -21 -28 -21q-14 0 -21 7t-7 18h-33q0 -24 17 -39.5t44 -15.5q17 0 30.5 6.5t19.5 13.5v-163h-700v284zM344 380v62h24l35 -62h37l-40 67q36 17 36 50q0 22 -16 37.5t-41 15.5h-68v-170h33zM469 380h33v170h-33v-170zM580 380h32v139h50v31h-132v-31h50v-139z
M379 519q10 0 17 -6.5t7 -16.5q0 -12 -7.5 -17.5t-16.5 -5.5h-35v46h35zM722 483v36h78v-36h-78zM722 411v41h78v-41h-78zM387.5 167.5q22.5 24.5 22.5 61.5t-23 62t-59 25t-59 -25t-23 -62t22.5 -61.5t59.5 -24.5t59.5 24.5zM549 315h-32v-106q0 -28 19.5 -47t48.5 -19
t48 19t19 47v106h-32v-106q0 -15 -9.5 -25t-25.5 -10q-17 0 -26.5 10.5t-9.5 24.5v106zM800 224q-15 14 -46 22q-16 5 -23 9t-7 12q0 9 7.5 14.5t18.5 5.5q10 0 18 -7t8 -18h24v-38zM291.5 190q-14.5 16 -14.5 39q0 25 14 40.5t37 15.5q24 0 37.5 -15.5t13.5 -40.5
q0 -23 -14.5 -39t-36.5 -16t-36.5 16z" />
    <glyph glyph-name="f_f.liga" unicode="ff" horiz-adv-x="567" 
d="M460.5 616q-21.5 -23 -21.5 -70v-44h116v-71h-115v-431h-78v431h-186v-431h-78v431h-71v71h71v24q0 77 40.5 121t103.5 44q22 0 49 -9v-69q-16 6 -35 6q-38 0 -59.5 -23t-21.5 -71v-23h187v44q0 77 40.5 121t103.5 44q22 0 49 -9v-69q-17 6 -35 6q-38 0 -59.5 -23z" />
    <glyph glyph-name="fi.liga" unicode="fi" horiz-adv-x="505" 
d="M175 502h265v-502h-78v431h-186v-431h-78v431h-71v71h71v11q0 93 56.5 146t152.5 53q52 0 94 -19v-68q-44 16 -93 16q-62 0 -97.5 -33t-35.5 -96v-10z" />
    <glyph glyph-name="fl.liga" unicode="fl" horiz-adv-x="515" 
d="M374 705.5q37 -6.5 66 -18.5v-687h-78v634q-27 7 -59 7q-59 0 -93.5 -33.5t-34.5 -95.5v-10h115v-71h-114v-431h-78v431h-71v71h71v11q0 93 55.5 146t148.5 53q35 0 72 -6.5z" />
    <glyph glyph-name="f_f_i.liga" unicode="ffi" horiz-adv-x="769" 
d="M439 502h265v-502h-78v431h-186v-431h-78v431h-186v-431h-78v431h-71v71h71v24q0 77 40.5 121t103.5 44q22 0 49 -9v-69q-16 6 -35 6q-38 0 -59.5 -23t-21.5 -71v-23h187v11q0 93 56.5 146t152.5 53q52 0 94 -19v-68q-21 8 -46 12t-46 4q-63 0 -98.5 -33t-35.5 -96v-10z
" />
    <glyph glyph-name="f_f_l.liga" unicode="ffl" horiz-adv-x="779" 
d="M638 705.5q37 -6.5 66 -18.5v-687h-78v634q-27 7 -59 7q-59 0 -93.5 -33.5t-34.5 -95.5v-10h115v-71h-114v-431h-78v431h-186v-431h-78v431h-71v71h71v24q0 77 40.5 121t103.5 44q22 0 49 -9v-69q-16 6 -35 6q-38 0 -59.5 -23t-21.5 -71v-23h187v11q0 93 55.5 146
t148.5 53q35 0 72 -6.5z" />
    <glyph glyph-name="f_f_j.liga" unicode="ffj" horiz-adv-x="769" 
d="M439 502h265v-523q0 -76 -40 -120t-104 -44q-28 0 -48 9v70q17 -6 34 -6q38 0 59 23.5t21 69.5v450h-186v-431h-78v431h-186v-431h-78v431h-71v71h71v24q0 77 40.5 121t103.5 44q22 0 49 -9v-69q-16 6 -35 6q-38 0 -59.5 -23t-21.5 -71v-23h187v11q0 93 56.5 146
t152.5 53q52 0 94 -19v-68q-21 8 -46 12t-46 4q-63 0 -98.5 -33t-35.5 -96v-10z" />
    <glyph glyph-name="f_j.liga" unicode="fj" horiz-adv-x="505" 
d="M175 502h265v-523q0 -76 -40 -120t-104 -44q-27 0 -49 9v70q18 -6 35 -6q38 0 59 23.5t21 69.5v450h-186v-431h-78v431h-71v71h71v11q0 93 56.5 146t152.5 53q52 0 94 -19v-68q-44 16 -93 16q-62 0 -97.5 -33t-35.5 -96v-10z" />
    <glyph glyph-name=".notdef" horiz-adv-x="900" 
d="M100 284h45v-139h33v139h50v31h-128v126l19 -61h23l34 106l33 -106h23l54 170h-32l-34 -110l-35 110h-19l-35 -110l-31 103v157h700v-150h-110v-170h110v-91q-6 13 -19.5 20t-30.5 7q-27 0 -43.5 -14.5t-16.5 -34.5q0 -22 14.5 -32.5t39.5 -17.5q17 -5 25.5 -9.5
t8.5 -13.5q0 -21 -28 -21q-14 0 -21 7t-7 18h-33q0 -24 17 -39.5t44 -15.5q17 0 30.5 6.5t19.5 13.5v-163h-700v284zM344 380v62h24l35 -62h37l-40 67q36 17 36 50q0 22 -16 37.5t-41 15.5h-68v-170h33zM469 380h33v170h-33v-170zM580 380h32v139h50v31h-132v-31h50v-139z
M379 519q10 0 17 -6.5t7 -16.5q0 -12 -7.5 -17.5t-16.5 -5.5h-35v46h35zM722 483v36h78v-36h-78zM722 411v41h78v-41h-78zM387.5 167.5q22.5 24.5 22.5 61.5t-23 62t-59 25t-59 -25t-23 -62t22.5 -61.5t59.5 -24.5t59.5 24.5zM549 315h-32v-106q0 -28 19.5 -47t48.5 -19
t48 19t19 47v106h-32v-106q0 -15 -9.5 -25t-25.5 -10q-17 0 -26.5 10.5t-9.5 24.5v106zM800 224q-15 14 -46 22q-16 5 -23 9t-7 12q0 9 7.5 14.5t18.5 5.5q10 0 18 -7t8 -18h24v-38zM291.5 190q-14.5 16 -14.5 39q0 25 14 40.5t37 15.5q24 0 37.5 -15.5t13.5 -40.5
q0 -23 -14.5 -39t-36.5 -16t-36.5 16z" />
    <glyph glyph-name=".null" 
 />
    <glyph glyph-name="nonmarkingreturn" 
 />
    <glyph glyph-name="space" unicode=" " horiz-adv-x="240" 
 />
    <glyph glyph-name="exclam" unicode="!" horiz-adv-x="285" 
d="M174 180h-63l-16 520h96zM102.5 6q-16.5 17 -16.5 40q0 24 16.5 40.5t40.5 16.5t40.5 -16.5t16.5 -40.5q0 -23 -16.5 -40t-40.5 -17t-40.5 17z" />
    <glyph glyph-name="quotedbl" unicode="&#x22;" horiz-adv-x="322" 
d="M120 477h-69v223h69v-223zM271 477h-69v223h69v-223z" />
    <glyph glyph-name="numbersign" unicode="#" horiz-adv-x="679" 
d="M655 501l-17 -69h-126l-34 -164h131l-17 -69h-128l-42 -199h-74l41 199h-161l-42 -199h-74l41 199h-130l18 69h126l34 164h-131l17 69h128l41 199h76l-42 -199h161l41 199h76l-42 -199h129zM242 268h161l34 164h-161z" />
    <glyph glyph-name="dollar" unicode="$" horiz-adv-x="560" 
d="M462.5 52q-50.5 -52 -142.5 -61v-96h-80v97q-89 12 -141 70t-57 145h83q5 -67 46.5 -104t112.5 -37q70 0 108 32t38 83q0 40 -22 65.5t-54.5 41t-89.5 34.5q-66 22 -107 42.5t-69.5 58.5t-28.5 99q0 75 48 126t133 61v96h80v-97q82 -13 130.5 -70.5t52.5 -139.5h-83
q-4 62 -42.5 99t-101.5 37t-98.5 -31.5t-35.5 -80.5q0 -37 21 -61.5t52.5 -38.5t86.5 -32q68 -23 110 -43.5t71.5 -60t29.5 -104.5q0 -78 -50.5 -130z" />
    <glyph glyph-name="percent" unicode="%" horiz-adv-x="693" 
d="M107 429.5q-34 19.5 -54.5 53.5t-20.5 77t20.5 77.5t54.5 54t73 19.5t73 -19.5t54.5 -54t20.5 -77.5t-20.5 -77t-54.5 -53.5t-73 -19.5t-73 19.5zM171 0h-74l426 700h73zM242 491.5q26 25.5 26 68.5t-26 68.5t-62 25.5t-61.5 -25.5t-25.5 -68.5q0 -42 26 -68t61 -26
q36 0 62 25.5zM440 8.5q-34 19.5 -54.5 54t-20.5 77.5t20.5 77t54.5 53.5t73 19.5t73 -19.5t54.5 -53.5t20.5 -77t-20.5 -77.5t-54.5 -54t-73 -19.5t-73 19.5zM574.5 71.5q25.5 25.5 25.5 68.5t-25.5 68.5t-61.5 25.5t-61.5 -25.5t-25.5 -68.5t25.5 -68.5t61.5 -25.5
t61.5 25.5z" />
    <glyph glyph-name="ampersand" unicode="&#x26;" horiz-adv-x="584" 
d="M611 0h-103l-82 92q-91 -103 -197 -103q-54 0 -96 21t-66 59t-24 85q0 59 30 107.5t87 93.5l19 15l-11 13q-45 50 -64 88t-19 79q0 45 20.5 82t57.5 58t83 21q44 0 81 -21.5t58.5 -58.5t21.5 -81q0 -40 -22.5 -81t-63.5 -78l-33 -30l136 -152l80 113h86l-116 -169z
M181 491.5q17 -29.5 59 -76.5l24 22q63 57 63 112q0 38 -23 62.5t-58 24.5q-36 0 -59 -24.5t-23 -62.5q0 -28 17 -57.5zM306.5 86q35.5 21 70.5 62l-150 168l-17 -14q-44 -34 -65.5 -66.5t-21.5 -75.5q0 -44 29.5 -69.5t77.5 -25.5q41 0 76.5 21z" />
    <glyph glyph-name="quotesingle" unicode="'" horiz-adv-x="171" 
d="M120 477h-69v223h69v-223z" />
    <glyph glyph-name="parenleft" unicode="(" horiz-adv-x="305" 
d="M219 -217q-51 67 -103 189t-52 278t52 278t103 189l57 -38q-41 -61 -86 -177t-45 -252t45 -252t86 -177z" />
    <glyph glyph-name="parenright" unicode=")" horiz-adv-x="305" 
d="M29 -179q41 61 86 177t45 252t-45 252t-86 177l57 38q51 -67 103 -189t52 -278t-52 -278t-103 -189z" />
    <glyph glyph-name="asterisk" unicode="*" horiz-adv-x="365" 
d="M316 615l20 -60l-115 -30l80 -101l-51 -37l-68 111l-67 -111l-51 37l80 101l-115 30l20 60l109 -44l-7 129h63l-7 -129z" />
    <glyph glyph-name="plus" unicode="+" horiz-adv-x="570" 
d="M323 139h-75v186h-176v71h176v186h75v-186h176v-71h-176v-186z" />
    <glyph glyph-name="comma" unicode="," horiz-adv-x="191" 
d="M136 85.5q16 -17.5 16 -47.5q0 -53 -27.5 -99t-59.5 -77l-19 24q39 51 44 103q-22 2 -37 18.5t-15 38.5q0 24 16.5 40.5t40.5 16.5q25 0 41 -17.5z" />
    <glyph glyph-name="hyphen" unicode="-" horiz-adv-x="395" 
d="M356 230h-316v73h316v-73z" />
    <glyph glyph-name="period" unicode="." horiz-adv-x="191" 
d="M54.5 6q-16.5 17 -16.5 40q0 24 16.5 40.5t40.5 16.5t40.5 -16.5t16.5 -40.5q0 -23 -16.5 -40t-40.5 -17t-40.5 17z" />
    <glyph glyph-name="slash" unicode="/" horiz-adv-x="362" 
d="M74 -200h-74l288 900h74z" />
    <glyph glyph-name="zero" unicode="0" horiz-adv-x="602" 
d="M171 30.5q-59 41.5 -94 123t-35 196.5t35 196.5t94 123t130 41.5t130 -41.5t94 -123t35 -196.5t-35 -196.5t-94 -123t-130 -41.5t-130 41.5zM389.5 97.5q39.5 30.5 63.5 94t24 158.5t-24 158.5t-63.5 94t-88.5 30.5t-88.5 -30.5t-63.5 -94t-24 -158.5t24 -158.5t63.5 -94
t88.5 -30.5t88.5 30.5z" />
    <glyph glyph-name="one" unicode="1" horiz-adv-x="339" 
d="M22 580l170 120h61v-700h-83v595l-109 -78z" />
    <glyph glyph-name="two" unicode="2" horiz-adv-x="532" 
d="M156 78h328v-78h-445v67l263 269q50 51 74.5 88.5t24.5 85.5q0 55 -38 89.5t-103 34.5t-104.5 -38t-42.5 -99h-82q2 59 31.5 108t81 77.5t116.5 28.5q66 0 117 -26.5t79 -72.5t28 -101q0 -60 -32.5 -113t-90.5 -112z" />
    <glyph glyph-name="three" unicode="3" horiz-adv-x="536" 
d="M458 299q36 -42 36 -111q0 -53 -29 -98.5t-82 -73t-119 -27.5q-68 0 -119 27t-81.5 71t-37.5 95h83q5 -28 24.5 -55t53 -44t77.5 -17q67 0 107 35t40 90q0 56 -41 92t-110 36h-42v73h37q63 0 101 33t38 85q0 55 -36.5 89.5t-98.5 34.5q-38 0 -68 -16t-47.5 -42.5
t-20.5 -55.5h-83q4 50 33 94t77.5 70.5t108.5 26.5q63 0 113 -26.5t77.5 -72t27.5 -99.5q0 -55 -31.5 -92t-76.5 -59q53 -21 89 -63z" />
    <glyph glyph-name="four" unicode="4" horiz-adv-x="540" 
d="M425 228h77v-77h-77v-151h-82v151h-321v70l303 479h100v-472zM343 228v357l-227 -357h227z" />
    <glyph glyph-name="five" unicode="5" horiz-adv-x="555" 
d="M402.5 432.5q51.5 -30.5 81.5 -84.5t30 -122t-30.5 -122t-85 -84.5t-123.5 -30.5q-63 0 -112.5 27t-79.5 71t-37 94h83q4 -27 23.5 -53.5t51 -44t71.5 -17.5q44 0 79.5 20.5t56 57t20.5 82.5q0 47 -20.5 84t-56 57.5t-79.5 20.5q-57 0 -89.5 -28.5t-48.5 -62.5h-75
l44 403h358v-77h-289l-24 -212q22 21 58.5 36.5t78.5 15.5q63 0 114.5 -30.5z" />
    <glyph glyph-name="six" unicode="6" horiz-adv-x="556" 
d="M401 437.5q54 -31.5 85.5 -86.5t31.5 -123q0 -66 -31.5 -121t-86.5 -86.5t-121 -31.5t-120.5 31.5t-86 86.5t-31.5 121q0 55 18.5 98.5t45.5 83.5l195 290h89l-162 -239q28 8 55 8q65 0 119 -31.5zM358 86.5q36 20.5 56.5 58t20.5 85.5t-20.5 85t-56.5 57.5t-79 20.5
q-44 0 -79.5 -20.5t-55.5 -57.5t-20 -85q0 -49 20 -86t55.5 -57.5t79.5 -20.5q43 0 79 20.5z" />
    <glyph glyph-name="seven" unicode="7" horiz-adv-x="494" 
d="M24 622v78h437v-62l-270 -638h-89l264 622h-342z" />
    <glyph glyph-name="eight" unicode="8" horiz-adv-x="562" 
d="M484.5 309.5q35.5 -44.5 35.5 -110.5q0 -57 -29.5 -105t-83.5 -76.5t-126 -28.5t-126 28.5t-83.5 76.5t-29.5 105q0 66 35.5 110.5t80.5 65.5q-36 23 -62 59.5t-26 88.5q0 51 26.5 94.5t75 68.5t109.5 25t109 -25.5t75 -68.5t27 -94q0 -52 -26 -88.5t-62 -59.5
q45 -21 80.5 -65.5zM187.5 603q-35.5 -32 -35.5 -82q0 -49 35.5 -81t93.5 -32t93.5 32t35.5 81t-35.5 81.5t-93.5 32.5t-93.5 -32zM395.5 103.5q42.5 38.5 42.5 96.5q0 57 -42.5 95t-114.5 38t-114.5 -38t-42.5 -95q0 -58 42.5 -96.5t114.5 -38.5t114.5 38.5z" />
    <glyph glyph-name="nine" unicode="9" horiz-adv-x="556" 
d="M397.5 679.5q54.5 -31.5 86 -86t31.5 -121.5q0 -55 -18.5 -98.5t-45.5 -83.5l-195 -290h-89l163 239q-28 -8 -56 -8q-65 0 -119 31.5t-85.5 86.5t-31.5 123q0 66 31.5 121t86 86.5t120.5 31.5q67 0 121.5 -31.5zM388 352q44 45 44 118t-44 118.5t-112 45.5
q-43 0 -78.5 -20.5t-56 -58t-20.5 -85.5t20.5 -85t56 -57.5t78.5 -20.5q68 0 112 45z" />
    <glyph glyph-name="colon" unicode=":" horiz-adv-x="191" 
d="M54.5 404.5q-16.5 16.5 -16.5 40.5t16.5 40.5t40.5 16.5t40.5 -16.5t16.5 -40.5t-16.5 -40.5t-40.5 -16.5t-40.5 16.5zM54.5 6q-16.5 17 -16.5 40q0 24 16.5 40.5t40.5 16.5t40.5 -16.5t16.5 -40.5q0 -23 -16.5 -40t-40.5 -17t-40.5 17z" />
    <glyph glyph-name="semicolon" unicode=";" horiz-adv-x="191" 
d="M54.5 404.5q-16.5 16.5 -16.5 40.5t16.5 40.5t40.5 16.5t40.5 -16.5t16.5 -40.5t-16.5 -40.5t-40.5 -16.5t-40.5 16.5zM136 85.5q16 -17.5 16 -47.5q0 -53 -27.5 -99t-59.5 -77l-19 24q39 51 44 103q-22 2 -37 18.5t-15 38.5q0 24 16.5 40.5t40.5 16.5q25 0 41 -17.5z
" />
    <glyph glyph-name="less" unicode="&#x3c;" horiz-adv-x="570" 
d="M84 387l388 196v-78l-295 -145l295 -146v-78l-388 197v54z" />
    <glyph glyph-name="equal" unicode="=" horiz-adv-x="570" 
d="M499 429h-427v71h427v-71zM499 219h-427v71h427v-71z" />
    <glyph glyph-name="greater" unicode="&#x3e;" horiz-adv-x="570" 
d="M98 505v78l388 -197v-54l-388 -196v78l295 145z" />
    <glyph glyph-name="question" unicode="?" horiz-adv-x="480" 
d="M190 193q0 50 13 86t31 58.5t49 52.5q36 34 53.5 61t17.5 69q0 51 -31.5 82.5t-82.5 31.5q-55 0 -89.5 -39.5t-34.5 -101.5v-12h-83v12q0 61 27 111t74 78.5t106 28.5q56 0 101 -25t70.5 -68t25.5 -96q0 -41 -11.5 -70.5t-28 -49.5t-44.5 -47t-44 -46.5t-27 -48
t-11 -67.5v-13h-81v13zM191.5 6q-16.5 17 -16.5 40q0 24 16.5 40.5t40.5 16.5t40.5 -17t16.5 -40t-16.5 -40t-40.5 -17t-40.5 17z" />
    <glyph glyph-name="at" unicode="@" horiz-adv-x="823" 
d="M226.5 -72.5q-85.5 48.5 -135 133t-49.5 189.5q0 104 49.5 189t135 133.5t187.5 48.5q103 0 188.5 -48t135.5 -130.5t50 -181.5q0 -63 -20.5 -108.5t-55 -69t-75.5 -23.5q-47 0 -75 24.5t-37 45.5h-5q-14 -22 -46.5 -46t-82.5 -24q-44 0 -82 23.5t-61 66.5t-23 99t23 99
t61 66.5t81 23.5q45 0 74 -21.5t42 -42.5h5l18 58h43v-218q0 -92 65 -92q37 0 60.5 34.5t23.5 104.5q0 82 -41 150.5t-111.5 108.5t-154.5 40q-83 0 -153 -40.5t-111 -111.5t-41 -158q0 -88 41 -158.5t111 -111t154 -40.5q56 0 97.5 14.5t65.5 31.5l31 -53
q-28 -19 -79 -36.5t-115 -17.5q-103 0 -188.5 48.5zM475.5 157q30.5 35 30.5 92t-30.5 92t-75.5 35q-46 0 -77 -35t-31 -92t31 -92t77 -35q45 0 75.5 35z" />
    <glyph glyph-name="A" unicode="A" horiz-adv-x="614" 
d="M611 0h-88l-64 172h-307l-64 -172h-85l265 700h79zM430 249l-124 337l-125 -337h249z" />
    <glyph glyph-name="B" unicode="B" horiz-adv-x="618" 
d="M537.5 316q39.5 -43 39.5 -114q0 -57 -28 -103t-79 -72.5t-116 -26.5h-268v700h257q60 0 107 -24t73 -66t26 -92q0 -57 -29.5 -92.5t-69.5 -50.5q48 -16 87.5 -59zM169 625v-219h171q58 0 92 30.5t34 79.5t-34 79t-92 30h-171zM351 75q63 0 103 36.5t40 92.5t-40 92.5
t-103 36.5h-182v-258h182z" />
    <glyph glyph-name="C" unicode="C" horiz-adv-x="708" 
d="M207.5 36.5q-75.5 47.5 -120.5 130t-45 183.5t45 183.5t120.5 130t162.5 47.5q72 0 133.5 -33t103.5 -89.5t59 -125.5h-84q-23 74 -78.5 122t-133.5 48q-65 0 -121.5 -36t-90 -100.5t-33.5 -146.5t33.5 -146.5t90 -100.5t121.5 -36q81 0 137 47.5t80 121.5h84
q-17 -69 -59.5 -125t-105 -89t-136.5 -33q-87 0 -162.5 47.5z" />
    <glyph glyph-name="D" unicode="D" horiz-adv-x="659" 
d="M86 0v700h187q95 0 174 -45.5t124.5 -125.5t45.5 -179t-45.5 -179t-124.5 -125.5t-174 -45.5h-187zM273 78q70 0 130 35.5t95.5 97.5t35.5 139t-35.5 139t-95.5 97.5t-130 35.5h-104v-544h104z" />
    <glyph glyph-name="E" unicode="E" horiz-adv-x="580" 
d="M169 321v-243h368v-78h-451v700h441v-78h-358v-224h320v-77h-320z" />
    <glyph glyph-name="F" unicode="F" horiz-adv-x="557" 
d="M519 700v-78h-350v-237h304v-77h-304v-308h-83v700h433z" />
    <glyph glyph-name="G" unicode="G" horiz-adv-x="747" 
d="M390 347h287v-347h-55l-17 109q-36 -51 -97 -85.5t-138 -34.5q-87 0 -162.5 47.5t-120.5 130t-45 183.5t45 183.5t120.5 130t162.5 47.5q72 0 134.5 -30.5t104.5 -83t57 -114.5h-84q-24 65 -78.5 107.5t-133.5 42.5q-65 0 -121.5 -36t-90 -100.5t-33.5 -146.5
t33.5 -146.5t90 -100.5t121.5 -36q61 0 110.5 27.5t79 74.5t33.5 104h-203v74z" />
    <glyph glyph-name="H" unicode="H" horiz-adv-x="686" 
d="M517 397v303h83v-700h-83v319h-348v-319h-83v700h83v-303h348z" />
    <glyph glyph-name="I" unicode="I" horiz-adv-x="254" 
d="M169 0h-83v700h83v-700z" />
    <glyph glyph-name="J" unicode="J" horiz-adv-x="529" 
d="M118.5 16.5q-49.5 27.5 -76.5 74.5t-27 102h83q0 -32 17 -61t47.5 -47t69.5 -18q61 0 97 38t36 99v496h83v-496q0 -63 -26.5 -111.5t-75.5 -76t-114 -27.5q-64 0 -113.5 27.5z" />
    <glyph glyph-name="K" unicode="K" horiz-adv-x="561" 
d="M262 359l307 -359h-105l-295 348v-348h-83v700h83v-338l284 338h100z" />
    <glyph glyph-name="L" unicode="L" horiz-adv-x="519" 
d="M509 0h-423v700h83v-622h340v-78z" />
    <glyph glyph-name="M" unicode="M" horiz-adv-x="836" 
d="M419 124l256 576h75v-700h-82v503l-225 -503h-51l-224 503v-503h-82v700h77z" />
    <glyph glyph-name="N" unicode="N" horiz-adv-x="695" 
d="M528 148v552h82v-700h-78l-364 551v-551h-82v700h77z" />
    <glyph glyph-name="O" unicode="O" horiz-adv-x="740" 
d="M207.5 36.5q-75.5 47.5 -120.5 130t-45 183.5t45 183.5t120.5 130t162.5 47.5t162.5 -47.5t120.5 -130t45 -183.5t-45 -183.5t-120.5 -130t-162.5 -47.5t-162.5 47.5zM491.5 103q56.5 36 90 100.5t33.5 146.5t-33.5 146.5t-90 100.5t-121.5 36t-121.5 -36t-90 -100.5
t-33.5 -146.5t33.5 -146.5t90 -100.5t121.5 -36t121.5 36z" />
    <glyph glyph-name="P" unicode="P" horiz-adv-x="587" 
d="M316 700q63 0 115 -29.5t82.5 -79.5t30.5 -111t-30.5 -111t-82.5 -79.5t-115 -29.5h-147v-260h-83v700h230zM315 338q62 0 104 40.5t42 101.5t-42 101.5t-104 40.5h-146v-284h146z" />
    <glyph glyph-name="Q" unicode="Q" horiz-adv-x="740" 
d="M675 215.5q-23 -63.5 -65 -111.5l68 -67l-51 -53l-70 69q-41 -31 -88.5 -47.5t-98.5 -16.5q-87 0 -162.5 47.5t-120.5 130t-45 183.5t45 183.5t120.5 130t162.5 47.5t162.5 -47.5t120.5 -130t45 -183.5q0 -71 -23 -134.5zM500 109l-102 100l51 53l104 -103
q30 38 46.5 86.5t16.5 104.5q0 82 -34 146.5t-90.5 100.5t-121.5 36t-121.5 -36t-90.5 -100.5t-34 -146.5t34 -146.5t90.5 -100.5t121.5 -36q71 0 130 42z" />
    <glyph glyph-name="R" unicode="R" horiz-adv-x="612" 
d="M475 0l-162 287h-144v-287h-83v700h251q63 0 113.5 -27.5t79 -75.5t28.5 -106q0 -70 -43.5 -122.5t-115.5 -72.5l172 -296h-96zM169 622v-258h167q61 0 100 36t39 91q0 57 -39 94t-100 37h-167z" />
    <glyph glyph-name="S" unicode="S" horiz-adv-x="560" 
d="M158.5 16.5q-53.5 27.5 -83 77t-33.5 113.5h83q5 -67 46.5 -104t112.5 -37q70 0 108 32t38 83q0 40 -22 65.5t-54.5 41t-89.5 34.5q-66 22 -107 42.5t-69.5 58.5t-28.5 99q0 54 26 97t75 67.5t116 24.5t117 -28t78.5 -76.5t31.5 -108.5h-83q-4 62 -42.5 99t-101.5 37
t-98.5 -31.5t-35.5 -80.5q0 -37 21 -61.5t52.5 -38.5t86.5 -32q68 -23 110 -43.5t71.5 -60t29.5 -104.5q0 -86 -60.5 -139.5t-169.5 -53.5q-71 0 -124.5 27.5z" />
    <glyph glyph-name="T" unicode="T" horiz-adv-x="543" 
d="M313 0h-83v622h-214v78h511v-78h-214v-622z" />
    <glyph glyph-name="U" unicode="U" horiz-adv-x="673" 
d="M202 23q-58 34 -89.5 94t-31.5 137v446h83v-446q0 -85 47 -136t125 -51t125.5 51t47.5 136v446h83v-446q0 -77 -32 -137t-90 -94t-134 -34t-134 34z" />
    <glyph glyph-name="V" unicode="V" horiz-adv-x="617" 
d="M311 106l211 594h85l-255 -700h-87l-254 700h88z" />
    <glyph glyph-name="W" unicode="W" horiz-adv-x="876" 
d="M625 160l157 540h83l-212 -700h-62l-153 527l-153 -527h-63l-211 700h86l158 -540l153 540h60z" />
    <glyph glyph-name="X" unicode="X" horiz-adv-x="582" 
d="M338 355l230 -355h-96l-183 289l-184 -289h-92l230 355l-219 345h95l173 -279l173 279h92z" />
    <glyph glyph-name="Y" unicode="Y" horiz-adv-x="544" 
d="M274 357l182 343h87l-230 -428v-272h-83v272l-229 428h91z" />
    <glyph glyph-name="Z" unicode="Z" horiz-adv-x="549" 
d="M498 644l-357 -567h370v-77h-473v56l357 567h-346v77h449v-56z" />
    <glyph glyph-name="bracketleft" unicode="[" horiz-adv-x="313" 
d="M288 -200h-202v900h202v-72h-126v-756h126v-72z" />
    <glyph glyph-name="backslash" unicode="\" horiz-adv-x="362" 
d="M362 -200h-74l-288 900h74z" />
    <glyph glyph-name="bracketright" unicode="]" horiz-adv-x="313" 
d="M227 -200h-203v72h126v756h-126v72h203v-900z" />
    <glyph glyph-name="asciicircum" unicode="^" horiz-adv-x="410" 
d="M227 700l150 -317h-72l-101 218l-101 -218h-70l150 317h44z" />
    <glyph glyph-name="underscore" unicode="_" horiz-adv-x="302" 
d="M322 -184h-342v71h342v-71z" />
    <glyph glyph-name="grave" unicode="`" horiz-adv-x="215" 
d="M185 562h-61l-94 139h86z" />
    <glyph glyph-name="a" unicode="a" horiz-adv-x="502" 
d="M345.5 488q43.5 -24 67.5 -67.5t24 -99.5v-321h-57l-18 65h-5q-20 -29 -58 -52.5t-94 -23.5q-50 0 -88 20.5t-58.5 55t-20.5 75.5q0 46 28 82t78.5 56t115.5 20h100v26q0 53 -31 85t-82 32q-47 0 -75 -24.5t-34 -62.5h-78q5 42 29.5 78.5t65.5 58t92 21.5q55 0 98.5 -24z
M320.5 97.5q39.5 38.5 39.5 96.5v40h-92q-73 0 -113 -24t-40 -68q0 -37 26.5 -60t74.5 -23q65 0 104.5 38.5z" />
    <glyph glyph-name="b" unicode="b" horiz-adv-x="581" 
d="M216 15q-43 26 -61 50h-5l-18 -65h-57v700h77v-262h5q9 13 31 30.5t54.5 30.5t70.5 13q62 0 115 -33.5t84.5 -93t31.5 -134.5t-31.5 -135t-84.5 -93.5t-115 -33.5q-54 0 -97 26zM387.5 86q35.5 24 57 67t21.5 98t-21.5 98t-57 67t-78.5 24t-78.5 -24t-57 -67t-21.5 -98
t21.5 -98t57 -67t78.5 -24t78.5 24z" />
    <glyph glyph-name="c" unicode="c" horiz-adv-x="533" 
d="M157 23q-55 34 -87 94t-32 134t32 133.5t87 93.5t120 34q57 0 104.5 -26.5t78 -70t40.5 -93.5h-78q-15 53 -52 85.5t-93 32.5q-43 0 -80.5 -24t-59.5 -67.5t-22 -97.5q0 -55 22 -98t59 -67t81 -24q56 0 93 32.5t52 85.5h78q-10 -51 -40.5 -94.5t-78 -70t-104.5 -26.5
q-65 0 -120 34z" />
    <glyph glyph-name="d" unicode="d" horiz-adv-x="581" 
d="M153 22.5q-53 33.5 -84 93.5t-31 135t31 134.5t84 93t116 33.5q37 0 69.5 -13t54.5 -30.5t31 -30.5h5v262h78v-700h-58l-18 65h-5q-18 -24 -61 -50t-96 -26q-63 0 -116 33.5zM350.5 86q35.5 24 57 67t21.5 98t-21.5 98t-57 67t-78.5 24t-78.5 -24t-57 -67t-21.5 -98
t21.5 -98t57 -67t78.5 -24t78.5 24z" />
    <glyph glyph-name="e" unicode="e" horiz-adv-x="544" 
d="M501 216h-384q9 -72 53 -113.5t109 -41.5q87 0 130 72h79q-23 -61 -80.5 -102.5t-130.5 -41.5q-67 0 -121.5 33.5t-86 93.5t-31.5 135q0 74 32 133.5t87 93.5t120 34q64 0 116.5 -32.5t82.5 -89t30 -125.5q0 -29 -5 -49zM171 397q-45 -44 -54 -115h312q-6 70 -48.5 114.5
t-103.5 44.5t-106 -44z" />
    <glyph glyph-name="f" unicode="f" horiz-adv-x="303" 
d="M196.5 614.5q-21.5 -23.5 -21.5 -70.5v-42h116v-72h-115v-430h-78v430h-71v72h71v44q0 77 40.5 121t103.5 44q22 0 49 -9v-70q-16 6 -35 6q-38 0 -59.5 -23.5z" />
    <glyph glyph-name="g" unicode="g" horiz-adv-x="565" 
d="M132.5 -146q-57.5 44 -72.5 109h78q13 -37 49 -59t88 -22q65 0 104 37.5t39 100.5v73h-5q-17 -25 -57.5 -50.5t-92.5 -25.5q-61 0 -112.5 32.5t-82 89t-30.5 125.5q0 70 30.5 127t82 89t112.5 32q53 0 94 -25.5t58 -49.5h5l18 65h57v-481q0 -63 -27 -111t-77 -74
t-115 -26q-86 0 -143.5 44zM341.5 112q34.5 23 55.5 63t21 89q0 50 -21 90.5t-55.5 63.5t-74.5 23q-41 0 -76 -23t-55.5 -63.5t-20.5 -90.5q0 -49 20.5 -89t55.5 -63t76 -23q40 0 74.5 23z" />
    <glyph glyph-name="h" unicode="h" horiz-adv-x="566" 
d="M75 0v700h77v-263h5q18 28 57 51.5t89 23.5q56 0 101.5 -27t71 -77t25.5 -116v-292h-78v290q0 69 -37 109.5t-96 40.5q-62 0 -100 -40.5t-38 -109.5v-290h-77z" />
    <glyph glyph-name="i" unicode="i" horiz-adv-x="217" 
d="M147 0h-77v502h77v-502zM72.5 593.5q-14.5 14.5 -14.5 36.5t14.5 36t36.5 14q21 0 35.5 -14t14.5 -36t-14.5 -36.5t-35.5 -14.5q-22 0 -36.5 14.5z" />
    <glyph glyph-name="j" unicode="j" horiz-adv-x="217" 
d="M-45 -176v70q17 -6 34 -6q38 0 59.5 23.5t21.5 69.5v521h77v-523q0 -76 -40 -120t-104 -44q-26 0 -48 9zM72.5 593.5q-14.5 14.5 -14.5 36.5t14.5 36t36.5 14q21 0 35.5 -14t14.5 -36t-14.5 -36.5t-35.5 -14.5q-22 0 -36.5 14.5z" />
    <glyph glyph-name="k" unicode="k" horiz-adv-x="466" 
d="M240 260l235 -260h-100l-223 252v-252h-77v700h77v-438l207 240h94z" />
    <glyph glyph-name="l" unicode="l" horiz-adv-x="227" 
d="M152 0h-77v700h77v-700z" />
    <glyph glyph-name="m" unicode="m" horiz-adv-x="800" 
d="M652.5 487q38.5 -25 60.5 -72t22 -109v-306h-77v305q0 64 -29 99.5t-77 35.5q-47 0 -79 -37.5t-32 -97.5v-305h-77v305q0 64 -29.5 99.5t-76.5 35.5t-79 -37.5t-32 -97.5v-305h-77v502h57l18 -65h5q17 28 48 51.5t75 23.5q56 0 92.5 -29.5t51.5 -64.5q20 36 57 65t93 29
q47 0 85.5 -25z" />
    <glyph glyph-name="n" unicode="n" horiz-adv-x="561" 
d="M70 0v502h57l18 -65h5q18 28 57 51.5t89 23.5q57 0 102.5 -27t71.5 -77t26 -116v-292h-78v290q0 69 -37 109.5t-96 40.5q-62 0 -100 -40.5t-38 -109.5v-290h-77z" />
    <glyph glyph-name="o" unicode="o" horiz-adv-x="555" 
d="M157 23q-55 34 -87 94t-32 134t32 133.5t87 93.5t120 34t120.5 -34t87.5 -93.5t32 -133.5t-32.5 -134t-87.5 -94t-120 -34t-120 34zM358 86q37 24 59 67t22 98t-22 98t-59 67t-81 24q-43 0 -80.5 -24t-59.5 -67.5t-22 -97.5q0 -55 22 -98t59 -67t81 -24t81 24z" />
    <glyph glyph-name="p" unicode="p" horiz-adv-x="576" 
d="M70 -180v682h57l18 -65h5q18 24 61 49.5t97 25.5q62 0 115 -33.5t84.5 -93t31.5 -134.5t-31.5 -135t-84.5 -93.5t-115 -33.5q-37 0 -70 13.5t-55 31t-31 30.5h-5v-244h-77zM382.5 86q35.5 24 57 67t21.5 98t-21.5 98t-57 67t-78.5 24t-78.5 -24t-57 -67t-21.5 -98
t21.5 -98t57 -67t78.5 -24t78.5 24z" />
    <glyph glyph-name="q" unicode="q" horiz-adv-x="576" 
d="M429 -180v244h-5q-9 -13 -31 -30.5t-54.5 -31t-69.5 -13.5q-63 0 -116 33.5t-84 93.5t-31 135t31 134.5t84 93t116 33.5q54 0 96.5 -25.5t60.5 -49.5h5l18 65h58v-682h-78zM350.5 86q35.5 24 57 67t21.5 98t-21.5 98t-57 67t-78.5 24t-78.5 -24t-57 -67t-21.5 -98
t21.5 -98t57 -67t78.5 -24t78.5 24z" />
    <glyph glyph-name="r" unicode="r" horiz-adv-x="329" 
d="M70 0v502h57l18 -65h5q18 27 54 51t78 24q23 0 38 -4v-78q-15 5 -37 5q-60 0 -98 -40.5t-38 -110.5v-284h-77z" />
    <glyph glyph-name="s" unicode="s" horiz-adv-x="442" 
d="M131 11q-42 22 -66.5 58.5t-27.5 78.5h77q4 -40 33.5 -64.5t78.5 -24.5q47 0 73 21.5t26 53.5q0 24 -15.5 40.5t-38.5 26.5t-63 23q-51 16 -82.5 31t-53.5 42.5t-22 72.5q0 39 21 71.5t59 51.5t89 19q50 0 89 -20.5t62 -55.5t26 -77h-78q-4 40 -29.5 62t-69.5 22
q-43 0 -67.5 -20t-24.5 -50q0 -23 15 -39t37 -25.5t62 -22.5q52 -17 84 -32t54.5 -44t22.5 -75q0 -63 -47 -104.5t-129 -41.5q-53 0 -95 22z" />
    <glyph glyph-name="t" unicode="t" horiz-adv-x="329" 
d="M142.5 33q-40.5 44 -40.5 121v276h-87v70h38q61 0 61 60v74h66v-132h115v-72h-115v-274q0 -47 21.5 -70.5t59.5 -23.5q19 0 34 7v-71q-27 -9 -49 -9q-63 0 -103.5 44z" />
    <glyph glyph-name="u" unicode="u" horiz-adv-x="561" 
d="M162.5 16.5q-45.5 27.5 -71.5 77.5t-26 116v292h77v-290q0 -69 37 -109.5t96 -40.5q62 0 100 40.5t38 109.5v290h78v-502h-58l-17 65h-5q-20 -29 -58 -52.5t-88 -23.5q-57 0 -102.5 27.5z" />
    <glyph glyph-name="v" unicode="v" horiz-adv-x="485" 
d="M244 101l155 401h80l-200 -502h-71l-202 502h83z" />
    <glyph glyph-name="w" unicode="w" horiz-adv-x="691" 
d="M489 130l118 372h79l-167 -502h-60l-114 363l-113 -363h-59l-167 502h82l117 -372l116 372h52z" />
    <glyph glyph-name="x" unicode="x" horiz-adv-x="464" 
d="M280 256l175 -256h-91l-134 202l-134 -202h-87l174 256l-163 246h89l124 -191l124 191h86z" />
    <glyph glyph-name="y" unicode="y" horiz-adv-x="482" 
d="M395 502h81l-218 -546q-33 -81 -66 -111t-76 -30q-23 0 -43 9v70q17 -6 32 -6q25 0 44 15t33 51l23 58l-199 490h83l155 -393z" />
    <glyph glyph-name="z" unicode="z" horiz-adv-x="423" 
d="M383 437l-258 -365h266v-72h-359v65l259 365h-254v72h346v-65z" />
    <glyph glyph-name="braceleft" unicode="{" horiz-adv-x="340" 
d="M196 350q0 -43 -19 -67t-46 -33q27 -9 46 -33t19 -67v-200q0 -38 20 -58t55 -20h44v-72h-46q-71 0 -110.5 38t-39.5 108v201q0 37 -18 53.5t-58 16.5v66q40 0 58 16.5t18 53.5v201q0 70 39.5 108t110.5 38h47v-72h-45q-35 0 -55 -20t-20 -58v-200z" />
    <glyph glyph-name="bar" unicode="|" horiz-adv-x="336" 
d="M205 -180h-74v880h74v-880z" />
    <glyph glyph-name="braceright" unicode="}" horiz-adv-x="340" 
d="M221 353q0 -37 18 -53.5t58 -16.5v-66q-40 0 -58 -16.5t-18 -53.5v-201q0 -70 -39.5 -108t-110.5 -38h-47v72h45q35 0 55 20t20 58v200q0 43 19 67t46 33q-27 9 -46 33t-19 67v200q0 38 -20 58t-55 20h-44v72h46q71 0 110.5 -38t39.5 -108v-201z" />
    <glyph glyph-name="asciitilde" unicode="~" horiz-adv-x="570" 
d="M327 295q-25 12 -57 35q-25 18 -43.5 27t-36.5 9q-26 0 -42 -20t-16 -58h-66q0 71 35 109.5t86 38.5q30 0 54.5 -12t58.5 -35q26 -19 44 -28t36 -9q26 0 42 20t16 59h66q0 -71 -35 -109.5t-86 -38.5q-31 0 -56 12z" />
    <glyph glyph-name="uni00A0" unicode="&#xa0;" horiz-adv-x="240" 
 />
    <glyph glyph-name="exclamdown" unicode="&#xa1;" horiz-adv-x="285" 
d="M102.5 404.5q-16.5 16.5 -16.5 40.5t16.5 40.5t40.5 16.5t40.5 -16.5t16.5 -40.5t-16.5 -40.5t-40.5 -16.5t-40.5 16.5zM191 -180h-96l16 491h63z" />
    <glyph glyph-name="cent" unicode="&#xa2;" horiz-adv-x="533" 
d="M370 94.5q37 32.5 52 85.5h78q-13 -69 -63 -122t-121 -66v-97h-76v97q-57 9 -103 45t-72.5 91.5t-26.5 122.5t26.5 122.5t72.5 91t103 44.5v98h76v-98q71 -13 121 -66t63 -121h-78q-15 53 -52 85.5t-93 32.5q-44 0 -81 -24t-59 -67t-22 -98t22 -98t59 -67t81 -24
q56 0 93 32.5z" />
    <glyph glyph-name="sterling" unicode="&#xa3;" horiz-adv-x="572" 
d="M197 158q0 -52 -39 -80h367v-78h-482v78q31 2 51 23t20 58v132h-71v75h71v133q0 59 28 107.5t76.5 76.5t107.5 28q58 0 104.5 -27t73.5 -73t30 -102h-83q-5 56 -38.5 90t-86.5 34q-55 0 -92 -37.5t-37 -96.5v-133h191v-75h-191v-133z" />
    <glyph glyph-name="currency" unicode="&#xa4;" horiz-adv-x="488" 
d="M383 261l61 -61l-46 -45l-57 57q-42 -31 -97 -31t-97 31l-57 -57l-46 45l61 61q-22 39 -22 88t22 88l-61 61l46 45l57 -57q42 31 97 31t97 -31l57 57l46 -45l-61 -61q22 -39 22 -88t-22 -88zM311.5 273.5q26.5 29.5 26.5 75.5q0 45 -27 75t-67 30q-41 0 -68 -29.5
t-27 -75.5t27 -75.5t68 -29.5t67.5 29.5z" />
    <glyph glyph-name="yen" unicode="&#xa5;" horiz-adv-x="562" 
d="M465 700h87l-195 -364h120v-72h-154v-76h154v-72h-154v-116h-83v116h-155v72h155v76h-155v72h121l-196 364h91l182 -343z" />
    <glyph glyph-name="brokenbar" unicode="&#xa6;" horiz-adv-x="336" 
d="M205 355h-74v345h74v-345zM205 -180h-74v345h74v-345z" />
    <glyph glyph-name="section" unicode="&#xa7;" horiz-adv-x="497" 
d="M411 13q0 -41 -20.5 -74.5t-58 -53t-85.5 -19.5q-77 0 -124 45t-51 112h74q5 -39 31 -63.5t70 -24.5q39 0 64 22t25 56q0 40 -31 63.5t-94 50.5q-53 24 -85 43t-54.5 51t-22.5 78q0 89 99 144q-62 47 -62 120q0 41 20.5 75t58.5 53.5t86 19.5q51 0 89.5 -21.5t60.5 -57
t25 -78.5h-75q-5 39 -31 63.5t-70 24.5q-40 0 -64.5 -22t-24.5 -57q0 -28 16.5 -48t40.5 -33.5t68 -32.5q52 -23 84.5 -42t55.5 -51t23 -78q0 -49 -28.5 -85t-71.5 -60q62 -46 62 -120zM140.5 253q16.5 -20 40.5 -34t68 -33q11 -4 33 -14q91 36 91 104q0 39 -30.5 62.5
t-92.5 50.5l-35 16q-40 -16 -65.5 -41.5t-25.5 -62.5q0 -28 16.5 -48z" />
    <glyph glyph-name="dieresis" unicode="&#xa8;" horiz-adv-x="320" 
d="M44 596q-14 14 -14 34t14 33.5t34 13.5t34 -13.5t14 -33.5t-14 -34t-34 -14t-34 14zM208.5 596q-13.5 14 -13.5 34t13.5 33.5t33.5 13.5t34 -13.5t14 -33.5t-14 -34t-34 -14t-33.5 14z" />
    <glyph glyph-name="copyright" unicode="&#xa9;" horiz-adv-x="787" 
d="M217.5 36.5q-80.5 47.5 -127.5 130t-47 183.5t47 183.5t127.5 130t176.5 47.5t176.5 -47.5t127.5 -130t47 -183.5t-47 -183.5t-127.5 -130t-176.5 -47.5t-176.5 47.5zM539 88.5q65 38.5 102.5 107t37.5 154.5t-37.5 154.5t-102.5 107t-145 38.5t-145.5 -38.5t-103 -107
t-37.5 -154.5t37.5 -154.5t103 -107t145.5 -38.5t145 38.5zM311 190q-39 24 -62.5 66t-23.5 94t23.5 94t62.5 66t83 24q62 0 106.5 -38t55.5 -91h-62q-25 72 -100 72q-28 0 -52.5 -16t-39.5 -45t-15 -66t15 -66t39.5 -45t52.5 -16q75 0 100 72h62q-11 -53 -55.5 -91
t-106.5 -38q-44 0 -83 24z" />
    <glyph glyph-name="ordfeminine" unicode="&#xaa;" horiz-adv-x="305" 
d="M236 678.5q32 -32.5 32 -85.5v-188h-45l-13 34h-5q-34 -40 -81 -40q-41 0 -70.5 24.5t-29.5 63.5q0 41 34 70t96 29h56v6q0 33 -15.5 50.5t-43.5 17.5q-24 0 -38.5 -13t-17.5 -32h-58q7 40 36.5 68t78.5 28q52 0 84 -32.5zM189.5 468.5q20.5 19.5 20.5 55.5v14h-52
q-39 0 -57 -13t-18 -35q0 -19 14 -30t39 -11q33 0 53.5 19.5z" />
    <glyph glyph-name="guillemotleft" unicode="&#xab;" horiz-adv-x="455" 
d="M237 85h-78l-120 180l120 180h78l-120 -180zM416 85h-78l-120 180l120 180h78l-120 -180z" />
    <glyph glyph-name="logicalnot" unicode="&#xac;" horiz-adv-x="570" 
d="M501 254h-72v101h-360v71h432v-172z" />
    <glyph glyph-name="uni00AD" unicode="&#xad;" horiz-adv-x="395" 
d="M356 230h-316v73h316v-73z" />
    <glyph glyph-name="registered" unicode="&#xae;" horiz-adv-x="407" 
d="M288.5 689q39.5 -22 63 -61.5t23.5 -87.5q0 -47 -23.5 -86t-63 -61t-84.5 -22q-46 0 -85.5 22t-63 61t-23.5 86q0 48 23.5 87.5t63 61.5t85.5 22q45 0 84.5 -22zM287 454.5q34 33.5 34 85.5q0 53 -34 86.5t-83 33.5q-50 0 -84 -33t-34 -87q0 -52 34 -85.5t84 -33.5
q49 0 83 33.5zM269 538.5q-9 -13.5 -26 -20.5l40 -59h-54l-35 54h-8v-54h-48v169h77q28 0 45.5 -16.5t17.5 -40.5q0 -19 -9 -32.5zM186 587v-34h22q23 0 23 18q0 16 -23 16h-22z" />
    <glyph glyph-name="macron" unicode="&#xaf;" horiz-adv-x="317" 
d="M287 601h-257v60h257v-60z" />
    <glyph glyph-name="degree" unicode="&#xb0;" horiz-adv-x="357" 
d="M106 434q-34 19 -54 52.5t-20 76.5q0 42 20 76t54 53t73 19t72.5 -19t53.5 -53t20 -76q0 -43 -20 -76.5t-53.5 -52.5t-72.5 -19t-73 19zM236 498q24 24 24 65q0 40 -24 64t-57 24q-34 0 -58 -24t-24 -64q0 -41 24 -65t58 -24q33 0 57 24z" />
    <glyph glyph-name="plusminus" unicode="&#xb1;" horiz-adv-x="570" 
d="M499 403v-72h-176v-181h176v-71h-427v71h176v181h-176v72h176v184h75v-184h176z" />
    <glyph glyph-name="uni00B2" unicode="&#xb2;" horiz-adv-x="303" 
d="M126 518h144v-59h-234v49l130 133q19 20 30 36.5t11 33.5q0 21 -15 33.5t-38 12.5q-28 0 -44 -15.5t-16 -41.5h-64q1 50 36 83t88 33q51 0 84 -30t33 -73q0 -27 -13 -50t-36 -47z" />
    <glyph glyph-name="uni00B3" unicode="&#xb3;" horiz-adv-x="315" 
d="M264.5 612q17.5 -22 17.5 -53q0 -45 -33 -75t-90 -30q-56 0 -91.5 33.5t-37.5 82.5h63q2 -24 19 -41t46 -17q28 0 44.5 13.5t16.5 37.5q0 22 -16.5 36t-45.5 14h-33v53h32q23 0 37 12.5t14 32.5q0 22 -14 34.5t-37 12.5q-25 0 -41 -14.5t-16 -37.5h-63q1 46 34.5 78
t85.5 32q50 0 82 -29t32 -71q0 -47 -47 -71q24 -11 41.5 -33z" />
    <glyph glyph-name="acute" unicode="&#xb4;" horiz-adv-x="214" 
d="M90 562h-60l68 139h86z" />
    <glyph glyph-name="uni00B5" unicode="&#xb5;" horiz-adv-x="561" 
d="M70 -180v682h77v-290q0 -69 37 -109t96 -40q62 0 100 40t38 109v290h78v-502h-58l-17 65h-5q-19 -29 -56 -52t-83 -23q-76 0 -125 51h-5v-221h-77z" />
    <glyph glyph-name="paragraph" unicode="&#xb6;" horiz-adv-x="551" 
d="M466 700v-800h-71v735h-118v-735h-71v464q-75 4 -122 50.5t-47 118.5q0 48 23 86t64 59.5t93 21.5h249z" />
    <glyph glyph-name="periodcentered" unicode="&#xb7;" horiz-adv-x="240" 
d="M79.5 225q-16.5 17 -16.5 40q0 24 16.5 40.5t40.5 16.5t40.5 -16.5t16.5 -40.5q0 -23 -16.5 -40t-40.5 -17t-40.5 17z" />
    <glyph glyph-name="cedilla" unicode="&#xb8;" horiz-adv-x="231" 
d="M110 -42q44 -3 67.5 -24.5t23.5 -54.5q0 -39 -28 -61t-86 -22q-31 0 -57 8v46q24 -6 47 -6q69 0 69 36q0 16 -15 26.5t-47 10.5q-21 0 -38 -5l42 104h49z" />
    <glyph glyph-name="uni00B9" unicode="&#xb9;" horiz-adv-x="238" 
d="M24 744l100 67h50v-352h-65v271l-52 -35z" />
    <glyph glyph-name="ordmasculine" unicode="&#xba;" horiz-adv-x="363" 
d="M107.5 419.5q-34.5 20.5 -55 56t-20.5 79.5t20.5 79.5t55 56t73.5 20.5q40 0 74.5 -20.5t55 -56t20.5 -79.5t-20.5 -79.5t-55 -56t-74.5 -20.5q-39 0 -73.5 20.5zM241.5 484.5q24.5 26.5 24.5 70.5q0 43 -24.5 69.5t-60.5 26.5q-35 0 -59.5 -26.5t-24.5 -69.5
q0 -44 24.5 -70.5t59.5 -26.5q36 0 60.5 26.5z" />
    <glyph glyph-name="guillemotright" unicode="&#xbb;" horiz-adv-x="455" 
d="M117 85h-78l120 180l-120 180h78l120 -180zM296 85h-78l121 180l-121 180h78l120 -180z" />
    <glyph glyph-name="onequarter.dlig" unicode="&#xbc;" horiz-adv-x="626" 
d="M24 633l100 67h50v-352h-65v271l-52 -35zM124 0h-73l426 700h74zM554 125h40v-57h-40v-68h-65v68h-160v50l150 234h75v-227zM491 125v141l-90 -141h90z" />
    <glyph glyph-name="onehalf.dlig" unicode="&#xbd;" horiz-adv-x="667" 
d="M24 633l100 67h50v-352h-65v271l-52 -35zM124 0h-73l426 700h74zM490 59h144v-59h-234v49l130 133q19 20 30 36.5t11 33.5q0 21 -15 33.5t-38 12.5q-28 0 -44 -15.5t-16 -41.5h-64q1 50 36 83t88 33q51 0 84 -30t33 -73q0 -27 -13 -50t-36 -47z" />
    <glyph glyph-name="threequarters.dlig" unicode="&#xbe;" horiz-adv-x="703" 
d="M264.5 501q17.5 -22 17.5 -53q0 -45 -33 -75t-90 -30q-56 0 -91.5 33.5t-37.5 82.5h63q2 -24 19 -41t46 -17q28 0 44.5 13.5t16.5 37.5q0 22 -16.5 36t-45.5 14h-33v53h32q23 0 37 12.5t14 32.5q0 22 -14 34.5t-37 12.5q-25 0 -41 -14.5t-16 -37.5h-63q1 46 34.5 78
t85.5 32q50 0 82 -29t32 -71q0 -47 -47 -71q24 -11 41.5 -33zM201 0h-73l426 700h74zM631 125h40v-57h-40v-68h-65v68h-160v50l150 234h75v-227zM568 125v141l-90 -141h90z" />
    <glyph glyph-name="questiondown" unicode="&#xbf;" horiz-adv-x="480" 
d="M208.5 404.5q-16.5 16.5 -16.5 40.5t16.5 40.5t40.5 16.5t40.5 -16.5t16.5 -40.5t-16.5 -40.5t-40.5 -16.5t-40.5 16.5zM139 -160.5q-45 24.5 -70.5 65.5t-25.5 89q0 38 11.5 66.5t29 48t45.5 44.5q27 25 42.5 43t26.5 43t11 59v13h81v-13q0 -45 -13 -77.5t-30.5 -53.5
t-48.5 -49q-37 -33 -54.5 -58.5t-17.5 -63.5q0 -44 31.5 -74t82.5 -30q55 0 89.5 38.5t34.5 100.5v12h83v-12q0 -60 -26.5 -109.5t-74 -78t-106.5 -28.5q-56 0 -101 24.5z" />
    <glyph glyph-name="Agrave" unicode="&#xc0;" horiz-adv-x="614" 
d="M611 0h-88l-64 172h-307l-64 -172h-85l265 700h79zM430 249l-124 337l-125 -337h249zM351 755h-63l-99 133h89z" />
    <glyph glyph-name="Aacute" unicode="&#xc1;" horiz-adv-x="614" 
d="M611 0h-88l-64 172h-307l-64 -172h-85l265 700h79zM430 249l-124 337l-125 -337h249zM327 755h-63l72 133h90z" />
    <glyph glyph-name="Acircumflex" unicode="&#xc2;" horiz-adv-x="614" 
d="M611 0h-88l-64 172h-307l-64 -172h-85l265 700h79zM430 249l-124 337l-125 -337h249zM344 888l107 -133h-77l-67 84l-67 -84h-76l108 133h72z" />
    <glyph glyph-name="Atilde" unicode="&#xc3;" horiz-adv-x="614" 
d="M611 0h-88l-64 172h-307l-64 -172h-85l265 700h79zM430 249l-124 337l-125 -337h249zM328.5 771.5q-16.5 9.5 -35.5 27.5q-13 12 -22 18t-19 6q-17 0 -28 -15t-11 -41h-56q0 56 26 86t64 30q25 0 41.5 -10t34.5 -28q13 -12 22 -18t19 -6q17 0 28 14.5t11 41.5h56
q0 -55 -26.5 -85t-63.5 -30q-24 0 -40.5 9.5z" />
    <glyph glyph-name="Adieresis" unicode="&#xc4;" horiz-adv-x="614" 
d="M611 0h-88l-64 172h-307l-64 -172h-85l265 700h79zM430 249l-124 337l-125 -337h249zM186 788q-14 14 -14 33q0 20 14 34t34 14t34 -14t14 -34q0 -19 -14 -33t-34 -14t-34 14zM362 788q-14 14 -14 33q0 20 14 34t34 14t34 -14t14 -34q0 -19 -14 -33t-34 -14t-34 14z" />
    <glyph glyph-name="Aring" unicode="&#xc5;" horiz-adv-x="614" 
d="M611 0h-88l-64 172h-307l-64 -172h-85l265 700h79zM430 249l-124 337l-125 -337h249zM238.5 783q-27.5 27 -27.5 66t28 66.5t69 27.5t69 -27.5t28 -66.5t-28 -66t-69 -27q-42 0 -69.5 27zM341 815.5q13 12.5 13 33.5t-13 34t-33 13t-33 -13t-13 -34t13 -33.5t33 -12.5
t33 12.5z" />
    <glyph glyph-name="AE" unicode="&#xc6;" horiz-adv-x="886" 
d="M505 321v-243h338v-78h-420v172h-264l-97 -172h-92l400 700h463v-78h-328v-224h290v-77h-290zM413 623l-211 -374h221v374h-10z" />
    <glyph glyph-name="Ccedilla" unicode="&#xc7;" horiz-adv-x="708" 
d="M671 236q-16 -66 -56 -121t-99 -88.5t-129 -37.5l-15 -31q44 -3 67.5 -24.5t23.5 -54.5q0 -39 -28 -61t-86 -22q-31 0 -57 8v46q24 -6 47 -6q69 0 69 36q0 16 -15 26.5t-47 10.5q-21 0 -38 -5l32 79q-81 8 -149 57t-108.5 128t-40.5 174q0 101 45 183.5t120.5 130
t162.5 47.5q72 0 133.5 -33t103.5 -89.5t59 -125.5h-84q-23 74 -78.5 122t-133.5 48q-65 0 -121.5 -36t-90 -100.5t-33.5 -146.5t33.5 -146.5t90 -100.5t121.5 -36q81 0 137 47.5t80 121.5h84z" />
    <glyph glyph-name="Egrave" unicode="&#xc8;" horiz-adv-x="580" 
d="M169 321v-243h368v-78h-451v700h441v-78h-358v-224h320v-77h-320zM350 755h-63l-99 133h89z" />
    <glyph glyph-name="Eacute" unicode="&#xc9;" horiz-adv-x="580" 
d="M169 321v-243h368v-78h-451v700h441v-78h-358v-224h320v-77h-320zM326 755h-63l72 133h90z" />
    <glyph glyph-name="Ecircumflex" unicode="&#xca;" horiz-adv-x="580" 
d="M169 321v-243h368v-78h-451v700h441v-78h-358v-224h320v-77h-320zM343 888l107 -133h-77l-67 84l-67 -84h-76l108 133h72z" />
    <glyph glyph-name="Edieresis" unicode="&#xcb;" horiz-adv-x="580" 
d="M169 321v-243h368v-78h-451v700h441v-78h-358v-224h320v-77h-320zM185 788q-14 14 -14 33q0 20 14 34t34 14t34 -14t14 -34q0 -19 -14 -33t-34 -14t-34 14zM361 788q-14 14 -14 33q0 20 14 34t34 14t34 -14t14 -34q0 -19 -14 -33t-34 -14t-34 14z" />
    <glyph glyph-name="Igrave" unicode="&#xcc;" horiz-adv-x="254" 
d="M169 0h-83v700h83v-700zM170 755h-63l-99 133h89z" />
    <glyph glyph-name="Iacute" unicode="&#xcd;" horiz-adv-x="254" 
d="M169 0h-83v700h83v-700zM147 755h-63l72 133h90z" />
    <glyph glyph-name="Icircumflex" unicode="&#xce;" horiz-adv-x="254" 
d="M169 0h-83v700h83v-700zM164 888l107 -133h-77l-67 84l-67 -84h-76l108 133h72z" />
    <glyph glyph-name="Idieresis" unicode="&#xcf;" horiz-adv-x="254" 
d="M169 0h-83v700h83v-700zM22 788q-14 14 -14 33q0 20 14 34t34 14t34 -14t14 -34q0 -19 -14 -33t-34 -14t-34 14zM164.5 788q-14.5 14 -14.5 33q0 20 14.5 34t33.5 14q20 0 34 -14t14 -34t-14 -33.5t-34 -13.5q-19 0 -33.5 14z" />
    <glyph glyph-name="Eth" unicode="&#xd0;" horiz-adv-x="686" 
d="M300 700q95 0 174 -45.5t124.5 -125.5t45.5 -179t-45.5 -179t-124.5 -125.5t-174 -45.5h-187v314h-94v73h94v313h187zM300 78q70 0 130 35.5t95.5 97.5t35.5 139t-35.5 139t-95.5 97.5t-130 35.5h-104v-235h149v-73h-149v-236h104z" />
    <glyph glyph-name="Ntilde" unicode="&#xd1;" horiz-adv-x="695" 
d="M528 148v552h82v-700h-78l-364 551v-551h-82v700h77zM373.5 771.5q-16.5 9.5 -35.5 27.5q-13 12 -22 18t-19 6q-17 0 -28 -15t-11 -41h-56q0 56 26 86t64 30q25 0 41.5 -10t34.5 -28q13 -12 22 -18t19 -6q17 0 28 14.5t11 41.5h56q0 -55 -26.5 -85t-63.5 -30
q-24 0 -40.5 9.5z" />
    <glyph glyph-name="Ograve" unicode="&#xd2;" horiz-adv-x="740" 
d="M207.5 36.5q-75.5 47.5 -120.5 130t-45 183.5t45 183.5t120.5 130t162.5 47.5t162.5 -47.5t120.5 -130t45 -183.5t-45 -183.5t-120.5 -130t-162.5 -47.5t-162.5 47.5zM491.5 103q56.5 36 90 100.5t33.5 146.5t-33.5 146.5t-90 100.5t-121.5 36t-121.5 -36t-90 -100.5
t-33.5 -146.5t33.5 -146.5t90 -100.5t121.5 -36t121.5 36zM413 755h-63l-99 133h89z" />
    <glyph glyph-name="Oacute" unicode="&#xd3;" horiz-adv-x="740" 
d="M207.5 36.5q-75.5 47.5 -120.5 130t-45 183.5t45 183.5t120.5 130t162.5 47.5t162.5 -47.5t120.5 -130t45 -183.5t-45 -183.5t-120.5 -130t-162.5 -47.5t-162.5 47.5zM491.5 103q56.5 36 90 100.5t33.5 146.5t-33.5 146.5t-90 100.5t-121.5 36t-121.5 -36t-90 -100.5
t-33.5 -146.5t33.5 -146.5t90 -100.5t121.5 -36t121.5 36zM389 755h-63l72 133h90z" />
    <glyph glyph-name="Ocircumflex" unicode="&#xd4;" horiz-adv-x="740" 
d="M207.5 36.5q-75.5 47.5 -120.5 130t-45 183.5t45 183.5t120.5 130t162.5 47.5t162.5 -47.5t120.5 -130t45 -183.5t-45 -183.5t-120.5 -130t-162.5 -47.5t-162.5 47.5zM491.5 103q56.5 36 90 100.5t33.5 146.5t-33.5 146.5t-90 100.5t-121.5 36t-121.5 -36t-90 -100.5
t-33.5 -146.5t33.5 -146.5t90 -100.5t121.5 -36t121.5 36zM406 888l107 -133h-77l-67 84l-67 -84h-76l108 133h72z" />
    <glyph glyph-name="Otilde" unicode="&#xd5;" horiz-adv-x="740" 
d="M207.5 36.5q-75.5 47.5 -120.5 130t-45 183.5t45 183.5t120.5 130t162.5 47.5t162.5 -47.5t120.5 -130t45 -183.5t-45 -183.5t-120.5 -130t-162.5 -47.5t-162.5 47.5zM491.5 103q56.5 36 90 100.5t33.5 146.5t-33.5 146.5t-90 100.5t-121.5 36t-121.5 -36t-90 -100.5
t-33.5 -146.5t33.5 -146.5t90 -100.5t121.5 -36t121.5 36zM390.5 771.5q-16.5 9.5 -35.5 27.5q-13 12 -22 18t-19 6q-17 0 -28 -15t-11 -41h-56q0 56 26 86t64 30q25 0 41.5 -10t34.5 -28q13 -12 22 -18t19 -6q17 0 28 14.5t11 41.5h56q0 -55 -26.5 -85t-63.5 -30
q-24 0 -40.5 9.5z" />
    <glyph glyph-name="Odieresis" unicode="&#xd6;" horiz-adv-x="740" 
d="M207.5 36.5q-75.5 47.5 -120.5 130t-45 183.5t45 183.5t120.5 130t162.5 47.5t162.5 -47.5t120.5 -130t45 -183.5t-45 -183.5t-120.5 -130t-162.5 -47.5t-162.5 47.5zM491.5 103q56.5 36 90 100.5t33.5 146.5t-33.5 146.5t-90 100.5t-121.5 36t-121.5 -36t-90 -100.5
t-33.5 -146.5t33.5 -146.5t90 -100.5t121.5 -36t121.5 36zM248 788q-14 14 -14 33q0 20 14 34t34 14t34 -14t14 -34q0 -19 -14 -33t-34 -14t-34 14zM424 788q-14 14 -14 33q0 20 14 34t34 14t34 -14t14 -34q0 -19 -14 -33t-34 -14t-34 14z" />
    <glyph glyph-name="multiply" unicode="&#xd7;" horiz-adv-x="570" 
d="M285 310l-135 -135l-49 49l136 136l-136 136l49 49l135 -136l135 136l49 -49l-136 -136l136 -136l-49 -49z" />
    <glyph glyph-name="Oslash" unicode="&#xd8;" horiz-adv-x="740" 
d="M698 656l-73 -79q35 -47 54 -105t19 -122q0 -101 -45 -183.5t-120.5 -130t-162.5 -47.5q-57 0 -110.5 21.5t-97.5 60.5l-70 -77l-50 50l73 79q-35 47 -54 105t-19 122q0 101 45 183.5t120.5 130t162.5 47.5q57 0 110.5 -21.5t97.5 -60.5l70 77zM248.5 597
q-56.5 -36 -90.5 -100.5t-34 -146.5q0 -94 47 -169l354 390q-32 30 -72 46t-83 16q-65 0 -121.5 -36zM491.5 103q56.5 36 90.5 100.5t34 146.5q0 94 -47 169l-354 -390q32 -30 72 -46t83 -16q65 0 121.5 36z" />
    <glyph glyph-name="Ugrave" unicode="&#xd9;" horiz-adv-x="673" 
d="M202 23q-58 34 -89.5 94t-31.5 137v446h83v-446q0 -85 47 -136t125 -51t125.5 51t47.5 136v446h83v-446q0 -77 -32 -137t-90 -94t-134 -34t-134 34zM379 755h-63l-99 133h89z" />
    <glyph glyph-name="Uacute" unicode="&#xda;" horiz-adv-x="673" 
d="M202 23q-58 34 -89.5 94t-31.5 137v446h83v-446q0 -85 47 -136t125 -51t125.5 51t47.5 136v446h83v-446q0 -77 -32 -137t-90 -94t-134 -34t-134 34zM356 755h-63l72 133h90z" />
    <glyph glyph-name="Ucircumflex" unicode="&#xdb;" horiz-adv-x="673" 
d="M202 23q-58 34 -89.5 94t-31.5 137v446h83v-446q0 -85 47 -136t125 -51t125.5 51t47.5 136v446h83v-446q0 -77 -32 -137t-90 -94t-134 -34t-134 34zM373 888l107 -133h-77l-67 84l-67 -84h-76l108 133h72z" />
    <glyph glyph-name="Udieresis" unicode="&#xdc;" horiz-adv-x="673" 
d="M202 23q-58 34 -89.5 94t-31.5 137v446h83v-446q0 -85 47 -136t125 -51t125.5 51t47.5 136v446h83v-446q0 -77 -32 -137t-90 -94t-134 -34t-134 34zM214 788q-14 14 -14 33q0 20 14 34t34 14t34 -14t14 -34q0 -19 -14 -33t-34 -14t-34 14zM390 788q-14 14 -14 33
q0 20 14 34t34 14t34 -14t14 -34q0 -19 -14 -33t-34 -14t-34 14z" />
    <glyph glyph-name="Yacute" unicode="&#xdd;" horiz-adv-x="544" 
d="M274 357l182 343h87l-230 -428v-272h-83v272l-229 428h91zM293 755h-63l72 133h90z" />
    <glyph glyph-name="Thorn" unicode="&#xde;" horiz-adv-x="628" 
d="M365 580q63 0 115.5 -29t83 -78.5t30.5 -107.5q0 -59 -30.5 -108t-83 -78t-115.5 -29h-196v-150h-83v700h83v-120h196zM364 228q64 0 105.5 39t41.5 98t-41.5 98t-105.5 39h-195v-274h195z" />
    <glyph glyph-name="germandbls" unicode="&#xdf;" horiz-adv-x="566" 
d="M489.5 309.5q39.5 -45.5 39.5 -118.5q0 -54 -25.5 -97.5t-70.5 -68.5t-100 -25h-74v73h73q52 0 85.5 33t33.5 87q0 55 -34 89.5t-85 34.5h-68v72h30q28 0 52.5 15.5t39.5 44t15 64.5q0 56 -34 90.5t-89 34.5q-56 0 -91 -37.5t-35 -101.5v-499h-77v499q0 60 27 108.5
t73.5 76t102.5 27.5q58 0 103.5 -25.5t71.5 -70t26 -99.5q0 -51 -23.5 -89t-53.5 -57q48 -15 87.5 -60.5z" />
    <glyph glyph-name="agrave" unicode="&#xe0;" horiz-adv-x="502" 
d="M345.5 488q43.5 -24 67.5 -67.5t24 -99.5v-321h-57l-18 65h-5q-20 -29 -58 -52.5t-94 -23.5q-50 0 -88 20.5t-58.5 55t-20.5 75.5q0 46 28 82t78.5 56t115.5 20h100v26q0 53 -31 85t-82 32q-47 0 -75 -24.5t-34 -62.5h-78q5 42 29.5 78.5t65.5 58t92 21.5q55 0 98.5 -24z
M320.5 97.5q39.5 38.5 39.5 96.5v40h-92q-73 0 -113 -24t-40 -68q0 -37 26.5 -60t74.5 -23q65 0 104.5 38.5zM291 562h-61l-94 139h86z" />
    <glyph glyph-name="aacute" unicode="&#xe1;" horiz-adv-x="502" 
d="M345.5 488q43.5 -24 67.5 -67.5t24 -99.5v-321h-57l-18 65h-5q-20 -29 -58 -52.5t-94 -23.5q-50 0 -88 20.5t-58.5 55t-20.5 75.5q0 46 28 82t78.5 56t115.5 20h100v26q0 53 -31 85t-82 32q-47 0 -75 -24.5t-34 -62.5h-78q5 42 29.5 78.5t65.5 58t92 21.5q55 0 98.5 -24z
M320.5 97.5q39.5 38.5 39.5 96.5v40h-92q-73 0 -113 -24t-40 -68q0 -37 26.5 -60t74.5 -23q65 0 104.5 38.5zM269 562h-60l68 139h86z" />
    <glyph glyph-name="acircumflex" unicode="&#xe2;" horiz-adv-x="502" 
d="M345.5 488q43.5 -24 67.5 -67.5t24 -99.5v-321h-57l-18 65h-5q-20 -29 -58 -52.5t-94 -23.5q-50 0 -88 20.5t-58.5 55t-20.5 75.5q0 46 28 82t78.5 56t115.5 20h100v26q0 53 -31 85t-82 32q-47 0 -75 -24.5t-34 -62.5h-78q5 42 29.5 78.5t65.5 58t92 21.5q55 0 98.5 -24z
M320.5 97.5q39.5 38.5 39.5 96.5v40h-92q-73 0 -113 -24t-40 -68q0 -37 26.5 -60t74.5 -23q65 0 104.5 38.5zM285 701l104 -139h-76l-64 91l-64 -91h-74l104 139h70z" />
    <glyph glyph-name="atilde" unicode="&#xe3;" horiz-adv-x="502" 
d="M345.5 488q43.5 -24 67.5 -67.5t24 -99.5v-321h-57l-18 65h-5q-20 -29 -58 -52.5t-94 -23.5q-50 0 -88 20.5t-58.5 55t-20.5 75.5q0 46 28 82t78.5 56t115.5 20h100v26q0 53 -31 85t-82 32q-47 0 -75 -24.5t-34 -62.5h-78q5 42 29.5 78.5t65.5 58t92 21.5q55 0 98.5 -24z
M320.5 97.5q39.5 38.5 39.5 96.5v40h-92q-73 0 -113 -24t-40 -68q0 -37 26.5 -60t74.5 -23q65 0 104.5 38.5zM270.5 578.5q-15.5 10.5 -34.5 30.5q-15 15 -23 21t-18 6q-15 0 -26 -16t-11 -46h-56q0 60 25 90.5t63 30.5q23 0 39 -10.5t35 -30.5q14 -14 22 -20t18 -6
q16 0 26.5 16t10.5 45h56q0 -59 -25.5 -90t-62.5 -31q-23 0 -38.5 10.5z" />
    <glyph glyph-name="adieresis" unicode="&#xe4;" horiz-adv-x="502" 
d="M345.5 488q43.5 -24 67.5 -67.5t24 -99.5v-321h-57l-18 65h-5q-20 -29 -58 -52.5t-94 -23.5q-50 0 -88 20.5t-58.5 55t-20.5 75.5q0 46 28 82t78.5 56t115.5 20h100v26q0 53 -31 85t-82 32q-47 0 -75 -24.5t-34 -62.5h-78q5 42 29.5 78.5t65.5 58t92 21.5q55 0 98.5 -24z
M320.5 97.5q39.5 38.5 39.5 96.5v40h-92q-73 0 -113 -24t-40 -68q0 -37 26.5 -60t74.5 -23q65 0 104.5 38.5zM134 596q-14 14 -14 34t14 33.5t34 13.5t34 -13.5t14 -33.5t-14 -34t-34 -14t-34 14zM298.5 596q-13.5 14 -13.5 34t13.5 33.5t33.5 13.5t34 -13.5t14 -33.5
t-14 -34t-34 -14t-33.5 14z" />
    <glyph glyph-name="aring" unicode="&#xe5;" horiz-adv-x="502" 
d="M345.5 488q43.5 -24 67.5 -67.5t24 -99.5v-321h-57l-18 65h-5q-20 -29 -58 -52.5t-94 -23.5q-50 0 -88 20.5t-58.5 55t-20.5 75.5q0 46 28 82t78.5 56t115.5 20h100v26q0 53 -31 85t-82 32q-47 0 -75 -24.5t-34 -62.5h-78q5 42 29.5 78.5t65.5 58t92 21.5q55 0 98.5 -24z
M320.5 97.5q39.5 38.5 39.5 96.5v40h-92q-73 0 -113 -24t-40 -68q0 -37 26.5 -60t74.5 -23q65 0 104.5 38.5zM182 577.5q-27 26.5 -27 66.5q0 39 27.5 65.5t67.5 26.5t67.5 -26.5t27.5 -65.5q0 -40 -27 -66.5t-68 -26.5t-68 26.5zM284 610q13 13 13 34q0 20 -13 33.5
t-34 13.5q-20 0 -33.5 -13.5t-13.5 -33.5q0 -21 13.5 -34t33.5 -13q21 0 34 13z" />
    <glyph glyph-name="ae" unicode="&#xe6;" horiz-adv-x="833" 
d="M791 223h-356q7 -75 48 -118.5t101 -43.5q79 0 115 72h79q-24 -65 -74 -104.5t-119 -39.5q-63 0 -111.5 30.5t-73.5 78.5q-22 -49 -69.5 -79t-122.5 -30q-52 0 -90.5 20t-59 53t-20.5 72q0 70 60 112t164 42h99v38q0 51 -31 83t-80 32t-77 -24t-35 -63h-78q5 43 30 79
t66 57.5t94 21.5q59 0 101 -29.5t58 -69.5q24 43 68.5 71t105.5 28q62 0 110.5 -31t75.5 -86.5t27 -127.5q0 -24 -5 -44zM486.5 399.5q-40.5 -41.5 -50.5 -111.5h284q-4 64 -40.5 108.5t-96.5 44.5q-56 0 -96.5 -41.5zM321.5 97.5q39.5 38.5 39.5 97.5v28h-93
q-153 0 -153 -87q0 -34 26 -55.5t75 -21.5q66 0 105.5 38.5z" />
    <glyph glyph-name="ccedilla" unicode="&#xe7;" horiz-adv-x="533" 
d="M370 94.5q37 32.5 52 85.5h78q-9 -48 -37.5 -90.5t-72.5 -69.5t-98 -31l-15 -31q44 -3 67.5 -24.5t23.5 -54.5q0 -39 -28 -61t-86 -22q-31 0 -57 8v46q24 -6 47 -6q69 0 69 36q0 16 -15 26.5t-47 10.5q-21 0 -38 -5l32 79q-58 8 -105 44t-74.5 92t-27.5 124
q0 74 32 133.5t87 93.5t120 34q57 0 104.5 -26.5t78 -70t40.5 -93.5h-78q-15 53 -52 85.5t-93 32.5q-43 0 -80.5 -24t-59.5 -67.5t-22 -97.5q0 -55 22 -98t59 -67t81 -24q56 0 93 32.5z" />
    <glyph glyph-name="egrave" unicode="&#xe8;" horiz-adv-x="544" 
d="M501 216h-384q9 -72 53 -113.5t109 -41.5q87 0 130 72h79q-23 -61 -80.5 -102.5t-130.5 -41.5q-67 0 -121.5 33.5t-86 93.5t-31.5 135q0 74 32 133.5t87 93.5t120 34q64 0 116.5 -32.5t82.5 -89t30 -125.5q0 -29 -5 -49zM171 397q-45 -44 -54 -115h312q-6 70 -48.5 114.5
t-103.5 44.5t-106 -44zM317 562h-61l-94 139h86z" />
    <glyph glyph-name="eacute" unicode="&#xe9;" horiz-adv-x="544" 
d="M501 216h-384q9 -72 53 -113.5t109 -41.5q87 0 130 72h79q-23 -61 -80.5 -102.5t-130.5 -41.5q-67 0 -121.5 33.5t-86 93.5t-31.5 135q0 74 32 133.5t87 93.5t120 34q64 0 116.5 -32.5t82.5 -89t30 -125.5q0 -29 -5 -49zM171 397q-45 -44 -54 -115h312q-6 70 -48.5 114.5
t-103.5 44.5t-106 -44zM294 562h-60l68 139h86z" />
    <glyph glyph-name="ecircumflex" unicode="&#xea;" horiz-adv-x="544" 
d="M501 216h-384q9 -72 53 -113.5t109 -41.5q87 0 130 72h79q-23 -61 -80.5 -102.5t-130.5 -41.5q-67 0 -121.5 33.5t-86 93.5t-31.5 135q0 74 32 133.5t87 93.5t120 34q64 0 116.5 -32.5t82.5 -89t30 -125.5q0 -29 -5 -49zM171 397q-45 -44 -54 -115h312q-6 70 -48.5 114.5
t-103.5 44.5t-106 -44zM310 701l104 -139h-76l-64 91l-64 -91h-74l104 139h70z" />
    <glyph glyph-name="edieresis" unicode="&#xeb;" horiz-adv-x="544" 
d="M501 216h-384q9 -72 53 -113.5t109 -41.5q87 0 130 72h79q-23 -61 -80.5 -102.5t-130.5 -41.5q-67 0 -121.5 33.5t-86 93.5t-31.5 135q0 74 32 133.5t87 93.5t120 34q64 0 116.5 -32.5t82.5 -89t30 -125.5q0 -29 -5 -49zM171 397q-45 -44 -54 -115h312q-6 70 -48.5 114.5
t-103.5 44.5t-106 -44zM159 596q-14 14 -14 34t14 33.5t34 13.5t34 -13.5t14 -33.5t-14 -34t-34 -14t-34 14zM323.5 596q-13.5 14 -13.5 34t13.5 33.5t33.5 13.5t34 -13.5t14 -33.5t-14 -34t-34 -14t-33.5 14z" />
    <glyph glyph-name="igrave" unicode="&#xec;" horiz-adv-x="217" 
d="M147 0h-77v502h77v-502zM150 562h-61l-94 139h86z" />
    <glyph glyph-name="iacute" unicode="&#xed;" horiz-adv-x="217" 
d="M147 0h-77v502h77v-502zM128 562h-60l68 139h86z" />
    <glyph glyph-name="icircumflex" unicode="&#xee;" horiz-adv-x="217" 
d="M147 0h-77v502h77v-502zM144 701l104 -139h-76l-64 91l-64 -91h-74l104 139h70z" />
    <glyph glyph-name="idieresis" unicode="&#xef;" horiz-adv-x="217" 
d="M147 0h-77v502h77v-502zM10 596q-14 14 -14 34t14 33.5t34 13.5t34 -13.5t14 -33.5t-14 -34t-34 -14t-34 14zM141 596q-14 14 -14 34t14 33.5t34 13.5t34 -13.5t14 -33.5t-14 -34t-34 -14t-34 14z" />
    <glyph glyph-name="eth" unicode="&#xf0;" horiz-adv-x="565" 
d="M369 625q71 -65 110 -154t39 -196q0 -89 -31.5 -154t-86.5 -98.5t-123 -33.5q-65 0 -120 32t-87 88.5t-32 126.5q0 69 32 126t85 89.5t114 32.5q58 0 97.5 -24t55.5 -49h5q-32 104 -114 174l-90 -63l-38 50l73 52q-52 30 -115 47l23 65q83 -23 152 -70l99 70l38 -50z
M357 83.5q37 22.5 59.5 62t22.5 90.5t-22.5 91t-59.5 62.5t-80 22.5q-44 0 -81 -22.5t-59 -62.5t-22 -91t22 -90.5t59.5 -62t80.5 -22.5t80 22.5z" />
    <glyph glyph-name="ntilde" unicode="&#xf1;" horiz-adv-x="561" 
d="M70 0v502h57l18 -65h5q18 28 57 51.5t89 23.5q57 0 102.5 -27t71.5 -77t26 -116v-292h-78v290q0 69 -37 109.5t-96 40.5q-62 0 -100 -40.5t-38 -109.5v-290h-77zM309.5 578.5q-15.5 10.5 -34.5 30.5q-15 15 -23 21t-18 6q-15 0 -26 -16t-11 -46h-56q0 60 25 90.5t63 30.5
q23 0 39 -10.5t35 -30.5q14 -14 22 -20t18 -6q16 0 26.5 16t10.5 45h56q0 -59 -25.5 -90t-62.5 -31q-23 0 -38.5 10.5z" />
    <glyph glyph-name="ograve" unicode="&#xf2;" horiz-adv-x="555" 
d="M157 23q-55 34 -87 94t-32 134t32 133.5t87 93.5t120 34t120.5 -34t87.5 -93.5t32 -133.5t-32.5 -134t-87.5 -94t-120 -34t-120 34zM358 86q37 24 59 67t22 98t-22 98t-59 67t-81 24q-43 0 -80.5 -24t-59.5 -67.5t-22 -97.5q0 -55 22 -98t59 -67t81 -24t81 24zM319 562
h-61l-94 139h86z" />
    <glyph glyph-name="oacute" unicode="&#xf3;" horiz-adv-x="555" 
d="M157 23q-55 34 -87 94t-32 134t32 133.5t87 93.5t120 34t120.5 -34t87.5 -93.5t32 -133.5t-32.5 -134t-87.5 -94t-120 -34t-120 34zM358 86q37 24 59 67t22 98t-22 98t-59 67t-81 24q-43 0 -80.5 -24t-59.5 -67.5t-22 -97.5q0 -55 22 -98t59 -67t81 -24t81 24zM296 562
h-60l68 139h86z" />
    <glyph glyph-name="ocircumflex" unicode="&#xf4;" horiz-adv-x="555" 
d="M157 23q-55 34 -87 94t-32 134t32 133.5t87 93.5t120 34t120.5 -34t87.5 -93.5t32 -133.5t-32.5 -134t-87.5 -94t-120 -34t-120 34zM358 86q37 24 59 67t22 98t-22 98t-59 67t-81 24q-43 0 -80.5 -24t-59.5 -67.5t-22 -97.5q0 -55 22 -98t59 -67t81 -24t81 24zM313 701
l104 -139h-76l-64 91l-64 -91h-74l104 139h70z" />
    <glyph glyph-name="otilde" unicode="&#xf5;" horiz-adv-x="555" 
d="M157 23q-55 34 -87 94t-32 134t32 133.5t87 93.5t120 34t120.5 -34t87.5 -93.5t32 -133.5t-32.5 -134t-87.5 -94t-120 -34t-120 34zM358 86q37 24 59 67t22 98t-22 98t-59 67t-81 24q-43 0 -80.5 -24t-59.5 -67.5t-22 -97.5q0 -55 22 -98t59 -67t81 -24t81 24z
M298.5 578.5q-15.5 10.5 -34.5 30.5q-15 15 -23 21t-18 6q-15 0 -26 -16t-11 -46h-56q0 60 25 90.5t63 30.5q23 0 39 -10.5t35 -30.5q14 -14 22 -20t18 -6q16 0 26.5 16t10.5 45h56q0 -59 -25.5 -90t-62.5 -31q-23 0 -38.5 10.5z" />
    <glyph glyph-name="odieresis" unicode="&#xf6;" horiz-adv-x="555" 
d="M157 23q-55 34 -87 94t-32 134t32 133.5t87 93.5t120 34t120.5 -34t87.5 -93.5t32 -133.5t-32.5 -134t-87.5 -94t-120 -34t-120 34zM358 86q37 24 59 67t22 98t-22 98t-59 67t-81 24q-43 0 -80.5 -24t-59.5 -67.5t-22 -97.5q0 -55 22 -98t59 -67t81 -24t81 24zM161 596
q-14 14 -14 34t14 33.5t34 13.5t34 -13.5t14 -33.5t-14 -34t-34 -14t-34 14zM325.5 596q-13.5 14 -13.5 34t13.5 33.5t33.5 13.5t34 -13.5t14 -33.5t-14 -34t-34 -14t-33.5 14z" />
    <glyph glyph-name="divide" unicode="&#xf7;" horiz-adv-x="570" 
d="M245.5 495.5q-16.5 16.5 -16.5 39.5t16.5 39.5t39.5 16.5t39.5 -16.5t16.5 -39.5t-16.5 -39.5t-39.5 -16.5t-39.5 16.5zM494 325h-418v70h418v-70zM245.5 145.5q-16.5 16.5 -16.5 39.5t16.5 39.5t39.5 16.5t39.5 -16.5t16.5 -39.5t-16.5 -39.5t-39.5 -16.5t-39.5 16.5z
" />
    <glyph glyph-name="oslash" unicode="&#xf8;" horiz-adv-x="555" 
d="M517 464l-49 -52q49 -70 49 -161q0 -74 -32.5 -134t-87.5 -94t-120 -34q-42 0 -80 14t-69 41l-47 -50l-43 44l49 52q-49 70 -49 161q0 74 32 133.5t87 93.5t120 34q84 0 150 -55l47 50zM195.5 417q-37.5 -24 -59.5 -67.5t-22 -98.5q0 -57 26 -106l238 258q-44 38 -101 38
q-44 0 -81.5 -24zM359.5 85q37.5 24 59.5 67.5t22 98.5q0 57 -26 106l-239 -258q44 -38 101 -38q45 0 82.5 24z" />
    <glyph glyph-name="ugrave" unicode="&#xf9;" horiz-adv-x="561" 
d="M162.5 16.5q-45.5 27.5 -71.5 77.5t-26 116v292h77v-290q0 -69 37 -109.5t96 -40.5q62 0 100 40.5t38 109.5v290h78v-502h-58l-17 65h-5q-20 -29 -58 -52.5t-88 -23.5q-57 0 -102.5 27.5zM319 562h-61l-94 139h86z" />
    <glyph glyph-name="uacute" unicode="&#xfa;" horiz-adv-x="561" 
d="M162.5 16.5q-45.5 27.5 -71.5 77.5t-26 116v292h77v-290q0 -69 37 -109.5t96 -40.5q62 0 100 40.5t38 109.5v290h78v-502h-58l-17 65h-5q-20 -29 -58 -52.5t-88 -23.5q-57 0 -102.5 27.5zM297 562h-60l68 139h86z" />
    <glyph glyph-name="ucircumflex" unicode="&#xfb;" horiz-adv-x="561" 
d="M162.5 16.5q-45.5 27.5 -71.5 77.5t-26 116v292h77v-290q0 -69 37 -109.5t96 -40.5q62 0 100 40.5t38 109.5v290h78v-502h-58l-17 65h-5q-20 -29 -58 -52.5t-88 -23.5q-57 0 -102.5 27.5zM313 701l104 -139h-76l-64 91l-64 -91h-74l104 139h70z" />
    <glyph glyph-name="udieresis" unicode="&#xfc;" horiz-adv-x="561" 
d="M162.5 16.5q-45.5 27.5 -71.5 77.5t-26 116v292h77v-290q0 -69 37 -109.5t96 -40.5q62 0 100 40.5t38 109.5v290h78v-502h-58l-17 65h-5q-20 -29 -58 -52.5t-88 -23.5q-57 0 -102.5 27.5zM162 596q-14 14 -14 34t14 33.5t34 13.5t34 -13.5t14 -33.5t-14 -34t-34 -14
t-34 14zM326.5 596q-13.5 14 -13.5 34t13.5 33.5t33.5 13.5t34 -13.5t14 -33.5t-14 -34t-34 -14t-33.5 14z" />
    <glyph glyph-name="yacute" unicode="&#xfd;" horiz-adv-x="482" 
d="M395 502h81l-218 -546q-33 -81 -66 -111t-76 -30q-23 0 -43 9v70q17 -6 32 -6q25 0 44 15t33 51l23 58l-199 490h83l155 -393zM261 562h-60l68 139h86z" />
    <glyph glyph-name="thorn" unicode="&#xfe;" horiz-adv-x="581" 
d="M75 -180v880h77v-262h5q18 24 60 49t96 25q62 0 115 -33.5t84.5 -93t31.5 -134.5t-31.5 -135t-84.5 -93.5t-115 -33.5q-37 0 -70 13.5t-55 31t-31 30.5h-5v-244h-77zM387.5 86q35.5 24 57 67t21.5 98t-21.5 98t-57 67t-78.5 24t-78.5 -24t-57 -67t-21.5 -98t21.5 -98
t57 -67t78.5 -24t78.5 24z" />
    <glyph glyph-name="ydieresis" unicode="&#xff;" horiz-adv-x="482" 
d="M395 502h81l-218 -546q-33 -81 -66 -111t-76 -30q-23 0 -43 9v70q17 -6 32 -6q25 0 44 15t33 51l23 58l-199 490h83l155 -393zM126 596q-14 14 -14 34t14 33.5t34 13.5t34 -13.5t14 -33.5t-14 -34t-34 -14t-34 14zM290.5 596q-13.5 14 -13.5 34t13.5 33.5t33.5 13.5
t34 -13.5t14 -33.5t-14 -34t-34 -14t-33.5 14z" />
    <glyph glyph-name="Amacron" unicode="&#x100;" horiz-adv-x="614" 
d="M611 0h-88l-64 172h-307l-64 -172h-85l265 700h79zM430 249l-124 337l-125 -337h249zM440 790h-264v63h264v-63z" />
    <glyph glyph-name="amacron" unicode="&#x101;" horiz-adv-x="502" 
d="M345.5 488q43.5 -24 67.5 -67.5t24 -99.5v-321h-57l-18 65h-5q-20 -29 -58 -52.5t-94 -23.5q-50 0 -88 20.5t-58.5 55t-20.5 75.5q0 46 28 82t78.5 56t115.5 20h100v26q0 53 -31 85t-82 32q-47 0 -75 -24.5t-34 -62.5h-78q5 42 29.5 78.5t65.5 58t92 21.5q55 0 98.5 -24z
M320.5 97.5q39.5 38.5 39.5 96.5v40h-92q-73 0 -113 -24t-40 -68q0 -37 26.5 -60t74.5 -23q65 0 104.5 38.5zM378 601h-257v60h257v-60z" />
    <glyph glyph-name="Abreve" unicode="&#x102;" horiz-adv-x="614" 
d="M611 0h-88l-64 172h-307l-64 -172h-85l265 700h79zM430 249l-124 337l-125 -337h249zM209.5 796q-37.5 36 -40.5 88h62q4 -31 23 -49.5t54 -18.5q34 0 53.5 18.5t23.5 49.5h62q-3 -52 -40.5 -88t-98.5 -36t-98.5 36z" />
    <glyph glyph-name="abreve" unicode="&#x103;" horiz-adv-x="502" 
d="M345.5 488q43.5 -24 67.5 -67.5t24 -99.5v-321h-57l-18 65h-5q-20 -29 -58 -52.5t-94 -23.5q-50 0 -88 20.5t-58.5 55t-20.5 75.5q0 46 28 82t78.5 56t115.5 20h100v26q0 53 -31 85t-82 32q-47 0 -75 -24.5t-34 -62.5h-78q5 42 29.5 78.5t65.5 58t92 21.5q55 0 98.5 -24z
M320.5 97.5q39.5 38.5 39.5 96.5v40h-92q-73 0 -113 -24t-40 -68q0 -37 26.5 -60t74.5 -23q65 0 104.5 38.5zM153 604.5q-37 36.5 -40 90.5h61q4 -33 23 -52.5t53 -19.5q33 0 52 19t23 53h61q-2 -54 -39 -90.5t-97 -36.5t-97 36.5z" />
    <glyph glyph-name="Aogonek" unicode="&#x104;" horiz-adv-x="614" 
d="M540 -142q14 -13 39 -13q17 0 32 5v-49q-17 -5 -42 -5q-44 0 -71.5 23.5t-27.5 64.5q0 35 20.5 65t52.5 51h-20l-64 172h-307l-64 -172h-85l265 700h79l264 -700q-41 -24 -63 -51t-22 -55q0 -23 14 -36zM430 249l-124 337l-125 -337h249z" />
    <glyph glyph-name="aogonek" unicode="&#x105;" horiz-adv-x="502" 
d="M437 0q-41 -24 -63 -51t-22 -55q0 -23 14 -36t39 -13q17 0 32 5v-49q-17 -5 -42 -5q-44 0 -71.5 23.5t-27.5 64.5q0 37 23.5 69.5t58.5 52.5l-16 59h-5q-20 -29 -58 -52.5t-94 -23.5q-50 0 -88 20.5t-58.5 55t-20.5 75.5q0 46 28 82t78.5 56t115.5 20h100v26q0 53 -31 85
t-82 32q-47 0 -75 -24.5t-34 -62.5h-78q5 42 29.5 78.5t65.5 58t92 21.5q55 0 98.5 -24t67.5 -67.5t24 -99.5v-321zM320.5 97.5q39.5 38.5 39.5 96.5v40h-92q-73 0 -113 -24t-40 -68q0 -37 26.5 -60t74.5 -23q65 0 104.5 38.5z" />
    <glyph glyph-name="Cacute" unicode="&#x106;" horiz-adv-x="708" 
d="M207.5 36.5q-75.5 47.5 -120.5 130t-45 183.5t45 183.5t120.5 130t162.5 47.5q72 0 133.5 -33t103.5 -89.5t59 -125.5h-84q-23 74 -78.5 122t-133.5 48q-65 0 -121.5 -36t-90 -100.5t-33.5 -146.5t33.5 -146.5t90 -100.5t121.5 -36q81 0 137 47.5t80 121.5h84
q-17 -69 -59.5 -125t-105 -89t-136.5 -33q-87 0 -162.5 47.5zM387 755h-63l72 133h90z" />
    <glyph glyph-name="cacute" unicode="&#x107;" horiz-adv-x="533" 
d="M157 23q-55 34 -87 94t-32 134t32 133.5t87 93.5t120 34q57 0 104.5 -26.5t78 -70t40.5 -93.5h-78q-15 53 -52 85.5t-93 32.5q-43 0 -80.5 -24t-59.5 -67.5t-22 -97.5q0 -55 22 -98t59 -67t81 -24q56 0 93 32.5t52 85.5h78q-10 -51 -40.5 -94.5t-78 -70t-104.5 -26.5
q-65 0 -120 34zM296 562h-60l68 139h86z" />
    <glyph glyph-name="Ccircumflex" unicode="&#x108;" horiz-adv-x="708" 
d="M207.5 36.5q-75.5 47.5 -120.5 130t-45 183.5t45 183.5t120.5 130t162.5 47.5q72 0 133.5 -33t103.5 -89.5t59 -125.5h-84q-23 74 -78.5 122t-133.5 48q-65 0 -121.5 -36t-90 -100.5t-33.5 -146.5t33.5 -146.5t90 -100.5t121.5 -36q81 0 137 47.5t80 121.5h84
q-17 -69 -59.5 -125t-105 -89t-136.5 -33q-87 0 -162.5 47.5zM404 888l107 -133h-77l-67 84l-67 -84h-76l108 133h72z" />
    <glyph glyph-name="ccircumflex" unicode="&#x109;" horiz-adv-x="533" 
d="M157 23q-55 34 -87 94t-32 134t32 133.5t87 93.5t120 34q57 0 104.5 -26.5t78 -70t40.5 -93.5h-78q-15 53 -52 85.5t-93 32.5q-43 0 -80.5 -24t-59.5 -67.5t-22 -97.5q0 -55 22 -98t59 -67t81 -24q56 0 93 32.5t52 85.5h78q-10 -51 -40.5 -94.5t-78 -70t-104.5 -26.5
q-65 0 -120 34zM312 701l104 -139h-76l-64 91l-64 -91h-74l104 139h70z" />
    <glyph glyph-name="Cdotaccent" unicode="&#x10a;" horiz-adv-x="708" 
d="M207.5 36.5q-75.5 47.5 -120.5 130t-45 183.5t45 183.5t120.5 130t162.5 47.5q72 0 133.5 -33t103.5 -89.5t59 -125.5h-84q-23 74 -78.5 122t-133.5 48q-65 0 -121.5 -36t-90 -100.5t-33.5 -146.5t33.5 -146.5t90 -100.5t121.5 -36q81 0 137 47.5t80 121.5h84
q-17 -69 -59.5 -125t-105 -89t-136.5 -33q-87 0 -162.5 47.5zM331.5 785q-14.5 14 -14.5 36t14.5 36.5t36.5 14.5q21 0 35.5 -14.5t14.5 -36.5t-14.5 -36t-35.5 -14q-22 0 -36.5 14z" />
    <glyph glyph-name="cdotaccent" unicode="&#x10b;" horiz-adv-x="533" 
d="M157 23q-55 34 -87 94t-32 134t32 133.5t87 93.5t120 34q57 0 104.5 -26.5t78 -70t40.5 -93.5h-78q-15 53 -52 85.5t-93 32.5q-43 0 -80.5 -24t-59.5 -67.5t-22 -97.5q0 -55 22 -98t59 -67t81 -24q56 0 93 32.5t52 85.5h78q-10 -51 -40.5 -94.5t-78 -70t-104.5 -26.5
q-65 0 -120 34zM241.5 593.5q-14.5 14.5 -14.5 36.5t14.5 36t36.5 14q21 0 35.5 -14t14.5 -36t-14.5 -36.5t-35.5 -14.5q-22 0 -36.5 14.5z" />
    <glyph glyph-name="Ccaron" unicode="&#x10c;" horiz-adv-x="708" 
d="M207.5 36.5q-75.5 47.5 -120.5 130t-45 183.5t45 183.5t120.5 130t162.5 47.5q72 0 133.5 -33t103.5 -89.5t59 -125.5h-84q-23 74 -78.5 122t-133.5 48q-65 0 -121.5 -36t-90 -100.5t-33.5 -146.5t33.5 -146.5t90 -100.5t121.5 -36q81 0 137 47.5t80 121.5h84
q-17 -69 -59.5 -125t-105 -89t-136.5 -33q-87 0 -162.5 47.5zM367 803l68 85h76l-107 -133h-72l-108 133h76z" />
    <glyph glyph-name="ccaron" unicode="&#x10d;" horiz-adv-x="533" 
d="M157 23q-55 34 -87 94t-32 134t32 133.5t87 93.5t120 34q57 0 104.5 -26.5t78 -70t40.5 -93.5h-78q-15 53 -52 85.5t-93 32.5q-43 0 -80.5 -24t-59.5 -67.5t-22 -97.5q0 -55 22 -98t59 -67t81 -24q56 0 93 32.5t52 85.5h78q-10 -51 -40.5 -94.5t-78 -70t-104.5 -26.5
q-65 0 -120 34zM276 610l64 91h76l-104 -139h-70l-104 139h74z" />
    <glyph glyph-name="Dcaron" unicode="&#x10e;" horiz-adv-x="659" 
d="M86 0v700h187q95 0 174 -45.5t124.5 -125.5t45.5 -179t-45.5 -179t-124.5 -125.5t-174 -45.5h-187zM273 78q70 0 130 35.5t95.5 97.5t35.5 139t-35.5 139t-95.5 97.5t-130 35.5h-104v-544h104zM326 803l68 85h76l-107 -133h-72l-108 133h76z" />
    <glyph glyph-name="dcaron" unicode="&#x10f;" horiz-adv-x="581" 
d="M153 22.5q-53 33.5 -84 93.5t-31 135t31 134.5t84 93t116 33.5q37 0 69.5 -13t54.5 -30.5t31 -30.5h5v262h78v-700h-58l-18 65h-5q-18 -24 -61 -50t-96 -26q-63 0 -116 33.5zM350.5 86q35.5 24 57 67t21.5 98t-21.5 98t-57 67t-78.5 24t-78.5 -24t-57 -67t-21.5 -98
t21.5 -98t57 -67t78.5 -24t78.5 24zM597 557h-49l32 143h79z" />
    <glyph glyph-name="Dcroat" unicode="&#x110;" horiz-adv-x="686" 
d="M300 700q95 0 174 -45.5t124.5 -125.5t45.5 -179t-45.5 -179t-124.5 -125.5t-174 -45.5h-187v314h-94v73h94v313h187zM300 78q70 0 130 35.5t95.5 97.5t35.5 139t-35.5 139t-95.5 97.5t-130 35.5h-104v-235h149v-73h-149v-236h104z" />
    <glyph glyph-name="dcroat" unicode="&#x111;" horiz-adv-x="595" 
d="M586 621v-66h-79v-555h-58l-18 65h-5q-19 -25 -59.5 -50.5t-97.5 -25.5q-65 0 -117.5 33t-83 90.5t-30.5 129.5q0 71 30.5 128.5t83 90.5t117.5 33q56 0 97.5 -25.5t57.5 -49.5h5v136h-173v66h173v79h78v-79h79zM352.5 85q35.5 23 56 64t20.5 93t-20.5 93t-56 64
t-80.5 23t-80.5 -23t-56 -64t-20.5 -93t20.5 -93t56 -64t80.5 -23t80.5 23z" />
    <glyph glyph-name="Emacron" unicode="&#x112;" horiz-adv-x="580" 
d="M169 321v-243h368v-78h-451v700h441v-78h-358v-224h320v-77h-320zM439 790h-264v63h264v-63z" />
    <glyph glyph-name="emacron" unicode="&#x113;" horiz-adv-x="544" 
d="M501 216h-384q9 -72 53 -113.5t109 -41.5q87 0 130 72h79q-23 -61 -80.5 -102.5t-130.5 -41.5q-67 0 -121.5 33.5t-86 93.5t-31.5 135q0 74 32 133.5t87 93.5t120 34q64 0 116.5 -32.5t82.5 -89t30 -125.5q0 -29 -5 -49zM171 397q-45 -44 -54 -115h312q-6 70 -48.5 114.5
t-103.5 44.5t-106 -44zM404 601h-257v60h257v-60z" />
    <glyph glyph-name="Ebreve" unicode="&#x114;" horiz-adv-x="580" 
d="M169 321v-243h368v-78h-451v700h441v-78h-358v-224h320v-77h-320zM208.5 796q-37.5 36 -40.5 88h62q4 -31 23 -49.5t54 -18.5q34 0 53.5 18.5t23.5 49.5h62q-3 -52 -40.5 -88t-98.5 -36t-98.5 36z" />
    <glyph glyph-name="ebreve" unicode="&#x115;" horiz-adv-x="544" 
d="M501 216h-384q9 -72 53 -113.5t109 -41.5q87 0 130 72h79q-23 -61 -80.5 -102.5t-130.5 -41.5q-67 0 -121.5 33.5t-86 93.5t-31.5 135q0 74 32 133.5t87 93.5t120 34q64 0 116.5 -32.5t82.5 -89t30 -125.5q0 -29 -5 -49zM171 397q-45 -44 -54 -115h312q-6 70 -48.5 114.5
t-103.5 44.5t-106 -44zM179 604.5q-37 36.5 -40 90.5h61q4 -33 23 -52.5t53 -19.5q33 0 52 19t23 53h61q-2 -54 -39 -90.5t-97 -36.5t-97 36.5z" />
    <glyph glyph-name="Edotaccent" unicode="&#x116;" horiz-adv-x="580" 
d="M169 321v-243h368v-78h-451v700h441v-78h-358v-224h320v-77h-320zM270.5 785q-14.5 14 -14.5 36t14.5 36.5t36.5 14.5q21 0 35.5 -14.5t14.5 -36.5t-14.5 -36t-35.5 -14q-22 0 -36.5 14z" />
    <glyph glyph-name="edotaccent" unicode="&#x117;" horiz-adv-x="544" 
d="M501 216h-384q9 -72 53 -113.5t109 -41.5q87 0 130 72h79q-23 -61 -80.5 -102.5t-130.5 -41.5q-67 0 -121.5 33.5t-86 93.5t-31.5 135q0 74 32 133.5t87 93.5t120 34q64 0 116.5 -32.5t82.5 -89t30 -125.5q0 -29 -5 -49zM171 397q-45 -44 -54 -115h312q-6 70 -48.5 114.5
t-103.5 44.5t-106 -44zM239.5 593.5q-14.5 14.5 -14.5 36.5t14.5 36t36.5 14q21 0 35.5 -14t14.5 -36t-14.5 -36.5t-35.5 -14.5q-22 0 -36.5 14.5z" />
    <glyph glyph-name="Eogonek" unicode="&#x118;" horiz-adv-x="580" 
d="M537 0q-41 -24 -63 -51t-22 -55q0 -23 14 -36t39 -13q17 0 32 5v-49q-17 -5 -42 -5q-44 0 -71.5 23.5t-27.5 64.5q0 35 20.5 65t52.5 51h-383v700h441v-78h-358v-224h320v-77h-320v-243h368v-78z" />
    <glyph glyph-name="eogonek" unicode="&#x119;" horiz-adv-x="544" 
d="M501 216h-384q9 -72 53 -113.5t109 -41.5q87 0 130 72h79q-19 -50 -73 -100q-89 -80 -89 -139q0 -22 14.5 -35.5t39.5 -13.5q17 0 32 5v-48q-22 -6 -42 -6q-45 0 -72 23.5t-27 64.5q0 61 50 109q-20 -4 -44 -4q-67 0 -121.5 33.5t-86 93.5t-31.5 135q0 74 32 133.5
t87 93.5t120 34q64 0 116.5 -32.5t82.5 -89t30 -125.5q0 -29 -5 -49zM171 397q-45 -44 -54 -115h312q-6 70 -48.5 114.5t-103.5 44.5t-106 -44z" />
    <glyph glyph-name="Ecaron" unicode="&#x11a;" horiz-adv-x="580" 
d="M169 321v-243h368v-78h-451v700h441v-78h-358v-224h320v-77h-320zM306 803l68 85h76l-107 -133h-72l-108 133h76z" />
    <glyph glyph-name="ecaron" unicode="&#x11b;" horiz-adv-x="544" 
d="M501 216h-384q9 -72 53 -113.5t109 -41.5q87 0 130 72h79q-23 -61 -80.5 -102.5t-130.5 -41.5q-67 0 -121.5 33.5t-86 93.5t-31.5 135q0 74 32 133.5t87 93.5t120 34q64 0 116.5 -32.5t82.5 -89t30 -125.5q0 -29 -5 -49zM171 397q-45 -44 -54 -115h312q-6 70 -48.5 114.5
t-103.5 44.5t-106 -44zM274 610l64 91h76l-104 -139h-70l-104 139h74z" />
    <glyph glyph-name="Gcircumflex" unicode="&#x11c;" horiz-adv-x="747" 
d="M390 347h287v-347h-55l-17 109q-36 -51 -97 -85.5t-138 -34.5q-87 0 -162.5 47.5t-120.5 130t-45 183.5t45 183.5t120.5 130t162.5 47.5q72 0 134.5 -30.5t104.5 -83t57 -114.5h-84q-24 65 -78.5 107.5t-133.5 42.5q-65 0 -121.5 -36t-90 -100.5t-33.5 -146.5
t33.5 -146.5t90 -100.5t121.5 -36q61 0 110.5 27.5t79 74.5t33.5 104h-203v74zM405 888l107 -133h-77l-67 84l-67 -84h-76l108 133h72z" />
    <glyph glyph-name="gcircumflex" unicode="&#x11d;" horiz-adv-x="565" 
d="M132.5 -146q-57.5 44 -72.5 109h78q13 -37 49 -59t88 -22q65 0 104 37.5t39 100.5v73h-5q-17 -25 -57.5 -50.5t-92.5 -25.5q-61 0 -112.5 32.5t-82 89t-30.5 125.5q0 70 30.5 127t82 89t112.5 32q53 0 94 -25.5t58 -49.5h5l18 65h57v-481q0 -63 -27 -111t-77 -74
t-115 -26q-86 0 -143.5 44zM341.5 112q34.5 23 55.5 63t21 89q0 50 -21 90.5t-55.5 63.5t-74.5 23q-41 0 -76 -23t-55.5 -63.5t-20.5 -90.5q0 -49 20.5 -89t55.5 -63t76 -23q40 0 74.5 23zM317 701l104 -139h-76l-64 91l-64 -91h-74l104 139h70z" />
    <glyph glyph-name="Gbreve" unicode="&#x11e;" horiz-adv-x="747" 
d="M390 347h287v-347h-55l-17 109q-36 -51 -97 -85.5t-138 -34.5q-87 0 -162.5 47.5t-120.5 130t-45 183.5t45 183.5t120.5 130t162.5 47.5q72 0 134.5 -30.5t104.5 -83t57 -114.5h-84q-24 65 -78.5 107.5t-133.5 42.5q-65 0 -121.5 -36t-90 -100.5t-33.5 -146.5
t33.5 -146.5t90 -100.5t121.5 -36q61 0 110.5 27.5t79 74.5t33.5 104h-203v74zM270.5 796q-37.5 36 -40.5 88h62q4 -31 23 -49.5t54 -18.5q34 0 53.5 18.5t23.5 49.5h62q-3 -52 -40.5 -88t-98.5 -36t-98.5 36z" />
    <glyph glyph-name="gbreve" unicode="&#x11f;" horiz-adv-x="565" 
d="M132.5 -146q-57.5 44 -72.5 109h78q13 -37 49 -59t88 -22q65 0 104 37.5t39 100.5v73h-5q-17 -25 -57.5 -50.5t-92.5 -25.5q-61 0 -112.5 32.5t-82 89t-30.5 125.5q0 70 30.5 127t82 89t112.5 32q53 0 94 -25.5t58 -49.5h5l18 65h57v-481q0 -63 -27 -111t-77 -74
t-115 -26q-86 0 -143.5 44zM341.5 112q34.5 23 55.5 63t21 89q0 50 -21 90.5t-55.5 63.5t-74.5 23q-41 0 -76 -23t-55.5 -63.5t-20.5 -90.5q0 -49 20.5 -89t55.5 -63t76 -23q40 0 74.5 23zM185 604.5q-37 36.5 -40 90.5h61q4 -33 23 -52.5t53 -19.5q33 0 52 19t23 53h61
q-2 -54 -39 -90.5t-97 -36.5t-97 36.5z" />
    <glyph glyph-name="Gdotaccent" unicode="&#x120;" horiz-adv-x="747" 
d="M390 347h287v-347h-55l-17 109q-36 -51 -97 -85.5t-138 -34.5q-87 0 -162.5 47.5t-120.5 130t-45 183.5t45 183.5t120.5 130t162.5 47.5q72 0 134.5 -30.5t104.5 -83t57 -114.5h-84q-24 65 -78.5 107.5t-133.5 42.5q-65 0 -121.5 -36t-90 -100.5t-33.5 -146.5
t33.5 -146.5t90 -100.5t121.5 -36q61 0 110.5 27.5t79 74.5t33.5 104h-203v74zM332.5 785q-14.5 14 -14.5 36t14.5 36.5t36.5 14.5q21 0 35.5 -14.5t14.5 -36.5t-14.5 -36t-35.5 -14q-22 0 -36.5 14z" />
    <glyph glyph-name="gdotaccent" unicode="&#x121;" horiz-adv-x="565" 
d="M132.5 -146q-57.5 44 -72.5 109h78q13 -37 49 -59t88 -22q65 0 104 37.5t39 100.5v73h-5q-17 -25 -57.5 -50.5t-92.5 -25.5q-61 0 -112.5 32.5t-82 89t-30.5 125.5q0 70 30.5 127t82 89t112.5 32q53 0 94 -25.5t58 -49.5h5l18 65h57v-481q0 -63 -27 -111t-77 -74
t-115 -26q-86 0 -143.5 44zM341.5 112q34.5 23 55.5 63t21 89q0 50 -21 90.5t-55.5 63.5t-74.5 23q-41 0 -76 -23t-55.5 -63.5t-20.5 -90.5q0 -49 20.5 -89t55.5 -63t76 -23q40 0 74.5 23zM245.5 593.5q-14.5 14.5 -14.5 36.5t14.5 36t36.5 14q21 0 35.5 -14t14.5 -36
t-14.5 -36.5t-35.5 -14.5q-22 0 -36.5 14.5z" />
    <glyph glyph-name="uni0122" unicode="&#x122;" horiz-adv-x="747" 
d="M390 347h287v-347h-55l-17 109q-36 -51 -97 -85.5t-138 -34.5q-87 0 -162.5 47.5t-120.5 130t-45 183.5t45 183.5t120.5 130t162.5 47.5q72 0 134.5 -30.5t104.5 -83t57 -114.5h-84q-24 65 -78.5 107.5t-133.5 42.5q-65 0 -121.5 -36t-90 -100.5t-33.5 -146.5
t33.5 -146.5t90 -100.5t121.5 -36q61 0 110.5 27.5t79 74.5t33.5 104h-203v74zM409.5 -94q15.5 -17 15.5 -47q0 -44 -24.5 -80t-50.5 -57l-16 20q11 11 21.5 31t12.5 46q-21 1 -36 15.5t-15 36.5t16 37t36 15q25 0 40.5 -17z" />
    <glyph glyph-name="uni0123" unicode="&#x123;" horiz-adv-x="565" 
d="M132.5 -146q-57.5 44 -72.5 109h78q13 -37 49 -59t88 -22q65 0 104 37.5t39 100.5v73h-5q-17 -25 -57.5 -50.5t-92.5 -25.5q-61 0 -112.5 32.5t-82 89t-30.5 125.5q0 70 30.5 127t82 89t112.5 32q53 0 94 -25.5t58 -49.5h5l18 65h57v-481q0 -63 -27 -111t-77 -74
t-115 -26q-86 0 -143.5 44zM341.5 112q34.5 23 55.5 63t21 89q0 50 -21 90.5t-55.5 63.5t-74.5 23q-41 0 -76 -23t-55.5 -63.5t-20.5 -90.5q0 -49 20.5 -89t55.5 -63t76 -23q40 0 74.5 23zM320.5 650q15.5 -14 15.5 -36q0 -23 -16 -37.5t-36 -14.5q-25 0 -40.5 17t-15.5 47
q0 44 25.5 79t53.5 55l15 -20q-13 -10 -24.5 -29.5t-13.5 -45.5q21 -1 36.5 -15z" />
    <glyph glyph-name="Hcircumflex" unicode="&#x124;" horiz-adv-x="686" 
d="M517 397v303h83v-700h-83v319h-348v-319h-83v700h83v-303h348zM379 888l107 -133h-77l-67 84l-67 -84h-76l108 133h72z" />
    <glyph glyph-name="hcircumflex" unicode="&#x125;" horiz-adv-x="566" 
d="M75 0v700h77v-263h5q18 28 57 51.5t89 23.5q56 0 101.5 -27t71 -77t25.5 -116v-292h-78v290q0 69 -37 109.5t-96 40.5q-62 0 -100 -40.5t-38 -109.5v-290h-77zM325 888l107 -133h-77l-67 84l-67 -84h-76l108 133h72z" />
    <glyph glyph-name="Hbar" unicode="&#x126;" horiz-adv-x="740" 
d="M627 588h94v-73h-94v-515h-83v319h-348v-319h-83v515h-94v73h94v112h83v-113h348v113h83v-112zM196 515v-118h348v118h-348z" />
    <glyph glyph-name="hbar" unicode="&#x127;" horiz-adv-x="579" 
d="M417.5 466.5q45.5 -27.5 71 -77.5t25.5 -116v-273h-77v271q0 69 -37 109.5t-96 40.5q-62 0 -100 -40.5t-38 -109.5v-271h-78v555h-79v66h79v79h78v-79h173v-66h-173v-137h5q19 29 57 52.5t88 23.5q56 0 101.5 -27.5z" />
    <glyph glyph-name="Itilde" unicode="&#x128;" horiz-adv-x="254" 
d="M169 0h-83v700h83v-700zM147.5 771.5q-16.5 9.5 -35.5 27.5q-13 12 -22 18t-19 6q-17 0 -28 -15t-11 -41h-56q0 56 26 86t64 30q25 0 41.5 -10t34.5 -28q13 -12 22 -18t19 -6q17 0 28 14.5t11 41.5h56q0 -55 -26.5 -85t-63.5 -30q-24 0 -40.5 9.5z" />
    <glyph glyph-name="itilde" unicode="&#x129;" horiz-adv-x="217" 
d="M147 0h-77v502h77v-502zM129.5 578.5q-15.5 10.5 -34.5 30.5q-15 15 -23 21t-18 6q-15 0 -26 -16t-11 -46h-56q0 60 25 90.5t63 30.5q23 0 39 -10.5t35 -30.5q14 -14 22 -20t18 -6q16 0 26.5 16t10.5 45h56q0 -59 -25.5 -90t-62.5 -31q-23 0 -38.5 10.5z" />
    <glyph glyph-name="Imacron" unicode="&#x12a;" horiz-adv-x="254" 
d="M169 0h-83v700h83v-700zM259 790h-264v63h264v-63z" />
    <glyph glyph-name="imacron" unicode="&#x12b;" horiz-adv-x="217" 
d="M147 0h-77v502h77v-502zM237 601h-257v60h257v-60z" />
    <glyph glyph-name="Ibreve" unicode="&#x12c;" horiz-adv-x="254" 
d="M169 0h-83v700h83v-700zM28.5 796q-37.5 36 -40.5 88h62q4 -31 23 -49.5t54 -18.5q34 0 53.5 18.5t23.5 49.5h62q-3 -52 -40.5 -88t-98.5 -36t-98.5 36z" />
    <glyph glyph-name="ibreve" unicode="&#x12d;" horiz-adv-x="217" 
d="M147 0h-77v502h77v-502zM12 604.5q-37 36.5 -40 90.5h61q4 -33 23 -52.5t53 -19.5q33 0 52 19t23 53h61q-2 -54 -39 -90.5t-97 -36.5t-97 36.5z" />
    <glyph glyph-name="Iogonek" unicode="&#x12e;" horiz-adv-x="254" 
d="M169 0q-35 -24 -53.5 -51t-18.5 -55q0 -24 12 -36.5t33 -12.5q15 0 27 4v-48q-18 -5 -36 -5q-40 0 -66 24t-26 65q0 36 20 67t49 48h-24v700h83v-700z" />
    <glyph glyph-name="iogonek" unicode="&#x12f;" horiz-adv-x="217" 
d="M72.5 593.5q-14.5 14.5 -14.5 36.5t14.5 36t36.5 14q21 0 35.5 -14t14.5 -36t-14.5 -36.5t-35.5 -14.5q-22 0 -36.5 14.5zM70 0v502h77v-502h-8q-35 -24 -53.5 -51t-18.5 -55q0 -24 12 -36.5t33 -12.5q15 0 27 4v-48q-18 -5 -36 -5q-40 0 -66 24t-26 65q0 36 20 67t49 48
h-10z" />
    <glyph glyph-name="Idotaccent" unicode="&#x130;" horiz-adv-x="254" 
d="M169 0h-83v700h83v-700zM91.5 785q-14.5 14 -14.5 36t14.5 36.5t36.5 14.5q21 0 35.5 -14.5t14.5 -36.5t-14.5 -36t-35.5 -14q-22 0 -36.5 14z" />
    <glyph glyph-name="dotlessi" unicode="&#x131;" horiz-adv-x="217" 
d="M147 0h-77v502h77v-502z" />
    <glyph glyph-name="IJ" unicode="&#x132;" horiz-adv-x="783" 
d="M169 0h-83v700h83v-700zM372.5 16.5q-49.5 27.5 -76.5 74.5t-27 102h83q0 -32 17 -61t47.5 -47t69.5 -18q61 0 97 38t36 99v496h83v-496q0 -63 -26.5 -111.5t-75.5 -76t-114 -27.5q-64 0 -113.5 27.5z" />
    <glyph glyph-name="ij" unicode="&#x133;" horiz-adv-x="434" 
d="M147 0h-77v502h77v-502zM72.5 593.5q-14.5 14.5 -14.5 36.5t14.5 36t36.5 14q21 0 35.5 -14t14.5 -36t-14.5 -36.5t-35.5 -14.5q-22 0 -36.5 14.5zM172 -176v70q17 -6 34 -6q38 0 59.5 23.5t21.5 69.5v521h77v-523q0 -76 -40 -120t-104 -44q-26 0 -48 9zM289.5 593.5
q-14.5 14.5 -14.5 36.5t14.5 36t36.5 14q21 0 35.5 -14t14.5 -36t-14.5 -36.5t-35.5 -14.5q-22 0 -36.5 14.5z" />
    <glyph glyph-name="Jcircumflex" unicode="&#x134;" horiz-adv-x="529" 
d="M118.5 16.5q-49.5 27.5 -76.5 74.5t-27 102h83q0 -32 17 -61t47.5 -47t69.5 -18q61 0 97 38t36 99v496h83v-496q0 -63 -26.5 -111.5t-75.5 -76t-114 -27.5q-64 0 -113.5 27.5zM443 888l107 -133h-77l-67 84l-67 -84h-76l108 133h72z" />
    <glyph glyph-name="jcircumflex" unicode="&#x135;" horiz-adv-x="217" 
d="M-45 -176v70q17 -6 34 -6q38 0 59.5 23.5t21.5 69.5v521h77v-523q0 -76 -40 -120t-104 -44q-26 0 -48 9zM144 701l104 -139h-76l-64 91l-64 -91h-74l104 139h70z" />
    <glyph glyph-name="uni0136" unicode="&#x136;" horiz-adv-x="561" 
d="M262 359l307 -359h-105l-295 348v-348h-83v700h83v-338l284 338h100zM351.5 -94q15.5 -17 15.5 -47q0 -44 -24.5 -80t-50.5 -57l-16 20q11 11 21.5 31t12.5 46q-21 1 -36 15.5t-15 36.5t16 37t36 15q25 0 40.5 -17z" />
    <glyph glyph-name="uni0137" unicode="&#x137;" horiz-adv-x="466" 
d="M240 260l235 -260h-100l-223 252v-252h-77v700h77v-438l207 240h94zM300.5 -94q15.5 -17 15.5 -47q0 -44 -24.5 -80t-50.5 -57l-16 20q11 11 21.5 31t12.5 46q-21 1 -36 15.5t-15 36.5t16 37t36 15q25 0 40.5 -17z" />
    <glyph glyph-name="Lacute" unicode="&#x139;" horiz-adv-x="519" 
d="M509 0h-423v700h83v-622h340v-78zM147 755h-63l72 133h90z" />
    <glyph glyph-name="lacute" unicode="&#x13a;" horiz-adv-x="227" 
d="M152 0h-77v700h77v-700zM133 755h-63l72 133h90z" />
    <glyph glyph-name="uni013B" unicode="&#x13b;" horiz-adv-x="519" 
d="M509 0h-423v700h83v-622h340v-78zM335.5 -94q15.5 -17 15.5 -47q0 -44 -24.5 -80t-50.5 -57l-16 20q11 11 21.5 31t12.5 46q-21 1 -36 15.5t-15 36.5t16 37t36 15q25 0 40.5 -17z" />
    <glyph glyph-name="uni013C" unicode="&#x13c;" horiz-adv-x="227" 
d="M152 0h-77v700h77v-700zM151.5 -94q15.5 -17 15.5 -47q0 -44 -24.5 -80t-50.5 -57l-16 20q11 11 21.5 31t12.5 46q-21 1 -36 15.5t-15 36.5t16 37t36 15q25 0 40.5 -17z" />
    <glyph glyph-name="Lcaron" unicode="&#x13d;" horiz-adv-x="519" 
d="M509 0h-423v700h83v-622h340v-78zM259 557h-49l32 143h79z" />
    <glyph glyph-name="lcaron" unicode="&#x13e;" horiz-adv-x="227" 
d="M152 0h-77v700h77v-700zM243 557h-49l32 143h79z" />
    <glyph glyph-name="Ldot" unicode="&#x13f;" horiz-adv-x="519" 
d="M509 0h-423v700h83v-622h340v-78zM346.5 331q-16.5 17 -16.5 40q0 24 16.5 40.5t40.5 16.5t40.5 -16.5t16.5 -40.5q0 -23 -16.5 -40t-40.5 -17t-40.5 17z" />
    <glyph glyph-name="ldot" unicode="&#x140;" horiz-adv-x="344" 
d="M152 0h-77v700h77v-700zM245.5 310q-16.5 17 -16.5 40q0 24 16.5 40.5t40.5 16.5t40.5 -16.5t16.5 -40.5q0 -23 -16.5 -40t-40.5 -17t-40.5 17z" />
    <glyph glyph-name="Lslash" unicode="&#x141;" horiz-adv-x="546" 
d="M196 315v-237h340v-78h-423v264l-94 -58v83l94 58v353h83v-302l163 100v-83z" />
    <glyph glyph-name="lslash" unicode="&#x142;" horiz-adv-x="265" 
d="M172 415l84 56v-77l-84 -56v-338h-78v286l-85 -57v77l85 57v337h78v-285z" />
    <glyph glyph-name="Nacute" unicode="&#x143;" horiz-adv-x="695" 
d="M528 148v552h82v-700h-78l-364 551v-551h-82v700h77zM373 755h-63l72 133h90z" />
    <glyph glyph-name="nacute" unicode="&#x144;" horiz-adv-x="561" 
d="M70 0v502h57l18 -65h5q18 28 57 51.5t89 23.5q57 0 102.5 -27t71.5 -77t26 -116v-292h-78v290q0 69 -37 109.5t-96 40.5q-62 0 -100 -40.5t-38 -109.5v-290h-77zM307 562h-60l68 139h86z" />
    <glyph glyph-name="uni0145" unicode="&#x145;" horiz-adv-x="695" 
d="M528 148v552h82v-700h-78l-364 551v-551h-82v700h77zM390.5 -94q15.5 -17 15.5 -47q0 -44 -24.5 -80t-50.5 -57l-16 20q11 11 21.5 31t12.5 46q-21 1 -36 15.5t-15 36.5t16 37t36 15q25 0 40.5 -17z" />
    <glyph glyph-name="uni0146" unicode="&#x146;" horiz-adv-x="561" 
d="M70 0v502h57l18 -65h5q18 28 57 51.5t89 23.5q57 0 102.5 -27t71.5 -77t26 -116v-292h-78v290q0 69 -37 109.5t-96 40.5q-62 0 -100 -40.5t-38 -109.5v-290h-77zM322.5 -94q15.5 -17 15.5 -47q0 -44 -24.5 -80t-50.5 -57l-16 20q11 11 21.5 31t12.5 46q-21 1 -36 15.5
t-15 36.5t16 37t36 15q25 0 40.5 -17z" />
    <glyph glyph-name="Ncaron" unicode="&#x147;" horiz-adv-x="695" 
d="M528 148v552h82v-700h-78l-364 551v-551h-82v700h77zM352 803l68 85h76l-107 -133h-72l-108 133h76z" />
    <glyph glyph-name="ncaron" unicode="&#x148;" horiz-adv-x="561" 
d="M70 0v502h57l18 -65h5q18 28 57 51.5t89 23.5q57 0 102.5 -27t71.5 -77t26 -116v-292h-78v290q0 69 -37 109.5t-96 40.5q-62 0 -100 -40.5t-38 -109.5v-290h-77zM287 610l64 91h76l-104 -139h-70l-104 139h74z" />
    <glyph glyph-name="napostrophe" unicode="&#x149;" horiz-adv-x="587" 
d="M97 0v502h57l18 -65h5q18 28 57 51.5t89 23.5q57 0 102.5 -27t71.5 -77t26 -116v-292h-78v290q0 69 -37 109.5t-96 40.5q-62 0 -100 -40.5t-38 -109.5v-290h-77zM73.5 694q15.5 -17 15.5 -47q0 -47 -25 -86t-54 -65l-16 20q34 41 37 91q-21 2 -35.5 16t-14.5 36t16 37
t36 15q25 0 40.5 -17z" />
    <glyph glyph-name="Eng" unicode="&#x14a;" horiz-adv-x="695" 
d="M528 700h82v-726q0 -82 -42.5 -127.5t-116.5 -45.5q-36 0 -56 9v74q18 -6 41 -6q46 0 69 23.5t23 73.5v31l-360 545v-551h-82v700h77l365 -552v552z" />
    <glyph glyph-name="eng" unicode="&#x14b;" horiz-adv-x="561" 
d="M304 -176v68q12 -5 33 -5q38 0 59.5 23t21.5 68v312q0 69 -37 109.5t-96 40.5q-62 0 -100 -40.5t-38 -109.5v-290h-77v502h57l18 -65h5q18 28 57 51.5t89 23.5q57 0 102.5 -27t71.5 -77t26 -116v-314q0 -75 -39.5 -119t-99.5 -44q-37 0 -53 9z" />
    <glyph glyph-name="Omacron" unicode="&#x14c;" horiz-adv-x="740" 
d="M207.5 36.5q-75.5 47.5 -120.5 130t-45 183.5t45 183.5t120.5 130t162.5 47.5t162.5 -47.5t120.5 -130t45 -183.5t-45 -183.5t-120.5 -130t-162.5 -47.5t-162.5 47.5zM491.5 103q56.5 36 90 100.5t33.5 146.5t-33.5 146.5t-90 100.5t-121.5 36t-121.5 -36t-90 -100.5
t-33.5 -146.5t33.5 -146.5t90 -100.5t121.5 -36t121.5 36zM501 790h-264v63h264v-63z" />
    <glyph glyph-name="omacron" unicode="&#x14d;" horiz-adv-x="555" 
d="M157 23q-55 34 -87 94t-32 134t32 133.5t87 93.5t120 34t120.5 -34t87.5 -93.5t32 -133.5t-32.5 -134t-87.5 -94t-120 -34t-120 34zM358 86q37 24 59 67t22 98t-22 98t-59 67t-81 24q-43 0 -80.5 -24t-59.5 -67.5t-22 -97.5q0 -55 22 -98t59 -67t81 -24t81 24zM406 601
h-257v60h257v-60z" />
    <glyph glyph-name="Obreve" unicode="&#x14e;" horiz-adv-x="740" 
d="M207.5 36.5q-75.5 47.5 -120.5 130t-45 183.5t45 183.5t120.5 130t162.5 47.5t162.5 -47.5t120.5 -130t45 -183.5t-45 -183.5t-120.5 -130t-162.5 -47.5t-162.5 47.5zM491.5 103q56.5 36 90 100.5t33.5 146.5t-33.5 146.5t-90 100.5t-121.5 36t-121.5 -36t-90 -100.5
t-33.5 -146.5t33.5 -146.5t90 -100.5t121.5 -36t121.5 36zM271.5 796q-37.5 36 -40.5 88h62q4 -31 23 -49.5t54 -18.5q34 0 53.5 18.5t23.5 49.5h62q-3 -52 -40.5 -88t-98.5 -36t-98.5 36z" />
    <glyph glyph-name="obreve" unicode="&#x14f;" horiz-adv-x="555" 
d="M157 23q-55 34 -87 94t-32 134t32 133.5t87 93.5t120 34t120.5 -34t87.5 -93.5t32 -133.5t-32.5 -134t-87.5 -94t-120 -34t-120 34zM358 86q37 24 59 67t22 98t-22 98t-59 67t-81 24q-43 0 -80.5 -24t-59.5 -67.5t-22 -97.5q0 -55 22 -98t59 -67t81 -24t81 24zM181 604.5
q-37 36.5 -40 90.5h61q4 -33 23 -52.5t53 -19.5q33 0 52 19t23 53h61q-2 -54 -39 -90.5t-97 -36.5t-97 36.5z" />
    <glyph glyph-name="Ohungarumlaut" unicode="&#x150;" horiz-adv-x="740" 
d="M207.5 36.5q-75.5 47.5 -120.5 130t-45 183.5t45 183.5t120.5 130t162.5 47.5t162.5 -47.5t120.5 -130t45 -183.5t-45 -183.5t-120.5 -130t-162.5 -47.5t-162.5 47.5zM491.5 103q56.5 36 90 100.5t33.5 146.5t-33.5 146.5t-90 100.5t-121.5 36t-121.5 -36t-90 -100.5
t-33.5 -146.5t33.5 -146.5t90 -100.5t121.5 -36t121.5 36zM331 755h-61l82 133h87zM471 755h-62l82 133h87z" />
    <glyph glyph-name="ohungarumlaut" unicode="&#x151;" horiz-adv-x="555" 
d="M157 23q-55 34 -87 94t-32 134t32 133.5t87 93.5t120 34t120.5 -34t87.5 -93.5t32 -133.5t-32.5 -134t-87.5 -94t-120 -34t-120 34zM358 86q37 24 59 67t22 98t-22 98t-59 67t-81 24q-43 0 -80.5 -24t-59.5 -67.5t-22 -97.5q0 -55 22 -98t59 -67t81 -24t81 24zM237 562
h-58l77 139h85zM376 562h-59l77 139h85z" />
    <glyph glyph-name="OE" unicode="&#x152;" horiz-adv-x="925" 
d="M544 78h338v-78h-496q-95 0 -174 45.5t-124.5 125.5t-45.5 179t45.5 179t124.5 125.5t174 45.5h486v-78h-328v-224h290v-77h-290v-243zM462 78v544h-76q-71 0 -131 -35t-95 -97.5t-35 -139.5t35 -139.5t95 -97.5t131 -35h76z" />
    <glyph glyph-name="oe" unicode="&#x153;" horiz-adv-x="903" 
d="M860 217h-364q8 -73 50 -114.5t104 -41.5q80 0 118 72h80q-24 -63 -75.5 -103.5t-121.5 -40.5q-66 0 -117.5 33t-75.5 83q-27 -52 -77.5 -84t-113.5 -32q-62 0 -114.5 33t-83.5 93t-31 136t31 135.5t83.5 92.5t114.5 33q63 0 113.5 -31.5t77.5 -81.5q25 48 76.5 80.5
t112.5 32.5q63 0 113 -32t78 -89t28 -131q0 -19 -6 -43zM341.5 84.5q34.5 23.5 55.5 66.5t21 100t-21 100t-55.5 66.5t-74.5 23.5t-75 -23.5t-56 -66.5t-21 -100t21 -100t56 -66.5t75 -23.5t74.5 23.5zM547 397.5q-43 -43.5 -51 -115.5h294q-5 68 -43 113.5t-101 45.5
q-56 0 -99 -43.5z" />
    <glyph glyph-name="Racute" unicode="&#x154;" horiz-adv-x="612" 
d="M475 0l-162 287h-144v-287h-83v700h251q63 0 113.5 -27.5t79 -75.5t28.5 -106q0 -70 -43.5 -122.5t-115.5 -72.5l172 -296h-96zM169 622v-258h167q61 0 100 36t39 91q0 57 -39 94t-100 37h-167zM331 755h-63l72 133h90z" />
    <glyph glyph-name="racute" unicode="&#x155;" horiz-adv-x="329" 
d="M70 0v502h57l18 -65h5q18 27 54 51t78 24q23 0 38 -4v-78q-15 5 -37 5q-60 0 -98 -40.5t-38 -110.5v-284h-77zM212 562h-60l68 139h86z" />
    <glyph glyph-name="uni0156" unicode="&#x156;" horiz-adv-x="612" 
d="M475 0l-162 287h-144v-287h-83v700h251q63 0 113.5 -27.5t79 -75.5t28.5 -106q0 -70 -43.5 -122.5t-115.5 -72.5l172 -296h-96zM169 622v-258h167q61 0 100 36t39 91q0 57 -39 94t-100 37h-167zM356.5 -94q15.5 -17 15.5 -47q0 -44 -24.5 -80t-50.5 -57l-16 20
q11 11 21.5 31t12.5 46q-21 1 -36 15.5t-15 36.5t16 37t36 15q25 0 40.5 -17z" />
    <glyph glyph-name="uni0157" unicode="&#x157;" horiz-adv-x="329" 
d="M70 0v502h57l18 -65h5q18 27 54 51t78 24q23 0 38 -4v-78q-15 5 -37 5q-60 0 -98 -40.5t-38 -110.5v-284h-77zM147.5 -94q15.5 -17 15.5 -47q0 -44 -24.5 -80t-50.5 -57l-16 20q11 11 21.5 31t12.5 46q-21 1 -36 15.5t-15 36.5t16 37t36 15q25 0 40.5 -17z" />
    <glyph glyph-name="Rcaron" unicode="&#x158;" horiz-adv-x="612" 
d="M475 0l-162 287h-144v-287h-83v700h251q63 0 113.5 -27.5t79 -75.5t28.5 -106q0 -70 -43.5 -122.5t-115.5 -72.5l172 -296h-96zM169 622v-258h167q61 0 100 36t39 91q0 57 -39 94t-100 37h-167zM311 803l68 85h76l-107 -133h-72l-108 133h76z" />
    <glyph glyph-name="rcaron" unicode="&#x159;" horiz-adv-x="329" 
d="M70 0v502h57l18 -65h5q18 27 54 51t78 24q23 0 38 -4v-78q-15 5 -37 5q-60 0 -98 -40.5t-38 -110.5v-284h-77zM192 610l64 91h76l-104 -139h-70l-104 139h74z" />
    <glyph glyph-name="Sacute" unicode="&#x15a;" horiz-adv-x="560" 
d="M158.5 16.5q-53.5 27.5 -83 77t-33.5 113.5h83q5 -67 46.5 -104t112.5 -37q70 0 108 32t38 83q0 40 -22 65.5t-54.5 41t-89.5 34.5q-66 22 -107 42.5t-69.5 58.5t-28.5 99q0 54 26 97t75 67.5t116 24.5t117 -28t78.5 -76.5t31.5 -108.5h-83q-4 62 -42.5 99t-101.5 37
t-98.5 -31.5t-35.5 -80.5q0 -37 21 -61.5t52.5 -38.5t86.5 -32q68 -23 110 -43.5t71.5 -60t29.5 -104.5q0 -86 -60.5 -139.5t-169.5 -53.5q-71 0 -124.5 27.5zM299 755h-63l72 133h90z" />
    <glyph glyph-name="sacute" unicode="&#x15b;" horiz-adv-x="442" 
d="M131 11q-42 22 -66.5 58.5t-27.5 78.5h77q4 -40 33.5 -64.5t78.5 -24.5q47 0 73 21.5t26 53.5q0 24 -15.5 40.5t-38.5 26.5t-63 23q-51 16 -82.5 31t-53.5 42.5t-22 72.5q0 39 21 71.5t59 51.5t89 19q50 0 89 -20.5t62 -55.5t26 -77h-78q-4 40 -29.5 62t-69.5 22
q-43 0 -67.5 -20t-24.5 -50q0 -23 15 -39t37 -25.5t62 -22.5q52 -17 84 -32t54.5 -44t22.5 -75q0 -63 -47 -104.5t-129 -41.5q-53 0 -95 22zM238 562h-60l68 139h86z" />
    <glyph glyph-name="Scircumflex" unicode="&#x15c;" horiz-adv-x="560" 
d="M158.5 16.5q-53.5 27.5 -83 77t-33.5 113.5h83q5 -67 46.5 -104t112.5 -37q70 0 108 32t38 83q0 40 -22 65.5t-54.5 41t-89.5 34.5q-66 22 -107 42.5t-69.5 58.5t-28.5 99q0 54 26 97t75 67.5t116 24.5t117 -28t78.5 -76.5t31.5 -108.5h-83q-4 62 -42.5 99t-101.5 37
t-98.5 -31.5t-35.5 -80.5q0 -37 21 -61.5t52.5 -38.5t86.5 -32q68 -23 110 -43.5t71.5 -60t29.5 -104.5q0 -86 -60.5 -139.5t-169.5 -53.5q-71 0 -124.5 27.5zM316 888l107 -133h-77l-67 84l-67 -84h-76l108 133h72z" />
    <glyph glyph-name="scircumflex" unicode="&#x15d;" horiz-adv-x="442" 
d="M131 11q-42 22 -66.5 58.5t-27.5 78.5h77q4 -40 33.5 -64.5t78.5 -24.5q47 0 73 21.5t26 53.5q0 24 -15.5 40.5t-38.5 26.5t-63 23q-51 16 -82.5 31t-53.5 42.5t-22 72.5q0 39 21 71.5t59 51.5t89 19q50 0 89 -20.5t62 -55.5t26 -77h-78q-4 40 -29.5 62t-69.5 22
q-43 0 -67.5 -20t-24.5 -50q0 -23 15 -39t37 -25.5t62 -22.5q52 -17 84 -32t54.5 -44t22.5 -75q0 -63 -47 -104.5t-129 -41.5q-53 0 -95 22zM254 701l104 -139h-76l-64 91l-64 -91h-74l104 139h70z" />
    <glyph glyph-name="Scedilla" unicode="&#x15e;" horiz-adv-x="560" 
d="M456.5 45.5q-56.5 -52.5 -159.5 -56.5l-15 -31q44 -3 67.5 -24.5t23.5 -54.5q0 -39 -28 -61t-86 -22q-31 0 -57 8v46q24 -6 47 -6q69 0 69 36q0 16 -15 26.5t-47 10.5q-21 0 -38 -5l32 79q-93 9 -148 68t-60 148h83q5 -67 46.5 -104t112.5 -37q70 0 108 32t38 83
q0 40 -22 65.5t-54.5 41t-89.5 34.5q-66 22 -107 42.5t-69.5 58.5t-28.5 99q0 54 26 97t75 67.5t116 24.5t117 -28t78.5 -76.5t31.5 -108.5h-83q-4 62 -42.5 99t-101.5 37t-98.5 -31.5t-35.5 -80.5q0 -37 21 -61.5t52.5 -38.5t86.5 -32q68 -23 110 -43.5t71.5 -60
t29.5 -104.5q0 -84 -56.5 -136.5z" />
    <glyph glyph-name="scedilla" unicode="&#x15f;" horiz-adv-x="442" 
d="M359 34q-43 -41 -117 -45l-15 -31q44 -3 67.5 -24.5t23.5 -54.5q0 -39 -28 -61t-86 -22q-31 0 -57 8v46q24 -6 47 -6q69 0 69 36q0 16 -15 26.5t-47 10.5q-21 0 -38 -5l32 79q-68 9 -111 54t-47 103h77q4 -40 33.5 -64.5t78.5 -24.5q47 0 73 21.5t26 53.5
q0 24 -15.5 40.5t-38.5 26.5t-63 23q-51 16 -82.5 31t-53.5 42.5t-22 72.5q0 39 21 71.5t59 51.5t89 19q50 0 89 -20.5t62 -55.5t26 -77h-78q-4 40 -29.5 62t-69.5 22q-43 0 -67.5 -20t-24.5 -50q0 -23 15 -39t37 -25.5t62 -22.5q52 -17 84 -32t54.5 -44t22.5 -75
q0 -60 -43 -101z" />
    <glyph glyph-name="Scaron" unicode="&#x160;" horiz-adv-x="560" 
d="M158.5 16.5q-53.5 27.5 -83 77t-33.5 113.5h83q5 -67 46.5 -104t112.5 -37q70 0 108 32t38 83q0 40 -22 65.5t-54.5 41t-89.5 34.5q-66 22 -107 42.5t-69.5 58.5t-28.5 99q0 54 26 97t75 67.5t116 24.5t117 -28t78.5 -76.5t31.5 -108.5h-83q-4 62 -42.5 99t-101.5 37
t-98.5 -31.5t-35.5 -80.5q0 -37 21 -61.5t52.5 -38.5t86.5 -32q68 -23 110 -43.5t71.5 -60t29.5 -104.5q0 -86 -60.5 -139.5t-169.5 -53.5q-71 0 -124.5 27.5zM278 803l68 85h76l-107 -133h-72l-108 133h76z" />
    <glyph glyph-name="scaron" unicode="&#x161;" horiz-adv-x="442" 
d="M131 11q-42 22 -66.5 58.5t-27.5 78.5h77q4 -40 33.5 -64.5t78.5 -24.5q47 0 73 21.5t26 53.5q0 24 -15.5 40.5t-38.5 26.5t-63 23q-51 16 -82.5 31t-53.5 42.5t-22 72.5q0 39 21 71.5t59 51.5t89 19q50 0 89 -20.5t62 -55.5t26 -77h-78q-4 40 -29.5 62t-69.5 22
q-43 0 -67.5 -20t-24.5 -50q0 -23 15 -39t37 -25.5t62 -22.5q52 -17 84 -32t54.5 -44t22.5 -75q0 -63 -47 -104.5t-129 -41.5q-53 0 -95 22zM218 610l64 91h76l-104 -139h-70l-104 139h74z" />
    <glyph glyph-name="uni0162" unicode="&#x162;" horiz-adv-x="543" 
d="M313 0h-24l-20 -42q44 -3 67.5 -24.5t23.5 -54.5q0 -39 -28 -61t-86 -22q-31 0 -57 8v46q24 -6 47 -6q69 0 69 36q0 16 -15 26.5t-47 10.5q-21 0 -38 -5l36 88h-11v622h-214v78h511v-78h-214v-622z" />
    <glyph glyph-name="uni0163" unicode="&#x163;" horiz-adv-x="329" 
d="M205 -42q44 -3 67.5 -24.5t23.5 -54.5q0 -39 -28 -61t-86 -22q-31 0 -57 8v46q24 -6 47 -6q69 0 69 36q0 16 -15 26.5t-47 10.5q-21 0 -38 -5l38 93q-36 18 -56.5 56.5t-20.5 92.5v276h-87v70h38q61 0 61 60v74h66v-132h115v-72h-115v-274q0 -47 21.5 -70.5t59.5 -23.5
q19 0 34 7v-71q-27 -9 -49 -9q-8 0 -26 2z" />
    <glyph glyph-name="Tcaron" unicode="&#x164;" horiz-adv-x="543" 
d="M313 0h-83v622h-214v78h511v-78h-214v-622zM271 803l68 85h76l-107 -133h-72l-108 133h76z" />
    <glyph glyph-name="tcaron" unicode="&#x165;" horiz-adv-x="329" 
d="M142.5 33q-40.5 44 -40.5 121v276h-87v70h38q61 0 61 60v74h66v-132h115v-72h-115v-274q0 -47 21.5 -70.5t59.5 -23.5q19 0 34 7v-71q-27 -9 -49 -9q-63 0 -103.5 44zM270 557h-49l32 143h79z" />
    <glyph glyph-name="Tbar" unicode="&#x166;" horiz-adv-x="543" 
d="M527 700v-78h-214v-246h114v-73h-114v-303h-83v303h-114v73h114v246h-214v78h511z" />
    <glyph glyph-name="tbar" unicode="&#x167;" horiz-adv-x="329" 
d="M295 430h-115v-144h111v-62h-111v-68q0 -47 21.5 -70.5t59.5 -23.5q19 0 34 7v-71q-27 -9 -49 -9q-63 0 -103.5 44t-40.5 121v70h-83v62h83v144h-87v70h38q61 0 61 60v74h66v-132h115v-72z" />
    <glyph glyph-name="Utilde" unicode="&#x168;" horiz-adv-x="673" 
d="M202 23q-58 34 -89.5 94t-31.5 137v446h83v-446q0 -85 47 -136t125 -51t125.5 51t47.5 136v446h83v-446q0 -77 -32 -137t-90 -94t-134 -34t-134 34zM356.5 771.5q-16.5 9.5 -35.5 27.5q-13 12 -22 18t-19 6q-17 0 -28 -15t-11 -41h-56q0 56 26 86t64 30q25 0 41.5 -10
t34.5 -28q13 -12 22 -18t19 -6q17 0 28 14.5t11 41.5h56q0 -55 -26.5 -85t-63.5 -30q-24 0 -40.5 9.5z" />
    <glyph glyph-name="utilde" unicode="&#x169;" horiz-adv-x="561" 
d="M162.5 16.5q-45.5 27.5 -71.5 77.5t-26 116v292h77v-290q0 -69 37 -109.5t96 -40.5q62 0 100 40.5t38 109.5v290h78v-502h-58l-17 65h-5q-20 -29 -58 -52.5t-88 -23.5q-57 0 -102.5 27.5zM298.5 578.5q-15.5 10.5 -34.5 30.5q-15 15 -23 21t-18 6q-15 0 -26 -16t-11 -46
h-56q0 60 25 90.5t63 30.5q23 0 39 -10.5t35 -30.5q14 -14 22 -20t18 -6q16 0 26.5 16t10.5 45h56q0 -59 -25.5 -90t-62.5 -31q-23 0 -38.5 10.5z" />
    <glyph glyph-name="Umacron" unicode="&#x16a;" horiz-adv-x="673" 
d="M202 23q-58 34 -89.5 94t-31.5 137v446h83v-446q0 -85 47 -136t125 -51t125.5 51t47.5 136v446h83v-446q0 -77 -32 -137t-90 -94t-134 -34t-134 34zM468 790h-264v63h264v-63z" />
    <glyph glyph-name="umacron" unicode="&#x16b;" horiz-adv-x="561" 
d="M162.5 16.5q-45.5 27.5 -71.5 77.5t-26 116v292h77v-290q0 -69 37 -109.5t96 -40.5q62 0 100 40.5t38 109.5v290h78v-502h-58l-17 65h-5q-20 -29 -58 -52.5t-88 -23.5q-57 0 -102.5 27.5zM406 601h-257v60h257v-60z" />
    <glyph glyph-name="Ubreve" unicode="&#x16c;" horiz-adv-x="673" 
d="M202 23q-58 34 -89.5 94t-31.5 137v446h83v-446q0 -85 47 -136t125 -51t125.5 51t47.5 136v446h83v-446q0 -77 -32 -137t-90 -94t-134 -34t-134 34zM237.5 796q-37.5 36 -40.5 88h62q4 -31 23 -49.5t54 -18.5q34 0 53.5 18.5t23.5 49.5h62q-3 -52 -40.5 -88t-98.5 -36
t-98.5 36z" />
    <glyph glyph-name="ubreve" unicode="&#x16d;" horiz-adv-x="561" 
d="M162.5 16.5q-45.5 27.5 -71.5 77.5t-26 116v292h77v-290q0 -69 37 -109.5t96 -40.5q62 0 100 40.5t38 109.5v290h78v-502h-58l-17 65h-5q-20 -29 -58 -52.5t-88 -23.5q-57 0 -102.5 27.5zM181 604.5q-37 36.5 -40 90.5h61q4 -33 23 -52.5t53 -19.5q33 0 52 19t23 53h61
q-2 -54 -39 -90.5t-97 -36.5t-97 36.5z" />
    <glyph glyph-name="Uring" unicode="&#x16e;" horiz-adv-x="673" 
d="M202 23q-58 34 -89.5 94t-31.5 137v446h83v-446q0 -85 47 -136t125 -51t125.5 51t47.5 136v446h83v-446q0 -77 -32 -137t-90 -94t-134 -34t-134 34zM266.5 783q-27.5 27 -27.5 66t28 66.5t69 27.5t69 -27.5t28 -66.5t-28 -66t-69 -27q-42 0 -69.5 27zM369 815.5
q13 12.5 13 33.5t-13 34t-33 13t-33 -13t-13 -34t13 -33.5t33 -12.5t33 12.5z" />
    <glyph glyph-name="uring" unicode="&#x16f;" horiz-adv-x="561" 
d="M162.5 16.5q-45.5 27.5 -71.5 77.5t-26 116v292h77v-290q0 -69 37 -109.5t96 -40.5q62 0 100 40.5t38 109.5v290h78v-502h-58l-17 65h-5q-20 -29 -58 -52.5t-88 -23.5q-57 0 -102.5 27.5zM210 577.5q-27 26.5 -27 66.5q0 39 27.5 65.5t67.5 26.5t67.5 -26.5t27.5 -65.5
q0 -40 -27 -66.5t-68 -26.5t-68 26.5zM312 610q13 13 13 34q0 20 -13 33.5t-34 13.5q-20 0 -33.5 -13.5t-13.5 -33.5q0 -21 13.5 -34t33.5 -13q21 0 34 13z" />
    <glyph glyph-name="Uhungarumlaut" unicode="&#x170;" horiz-adv-x="673" 
d="M202 23q-58 34 -89.5 94t-31.5 137v446h83v-446q0 -85 47 -136t125 -51t125.5 51t47.5 136v446h83v-446q0 -77 -32 -137t-90 -94t-134 -34t-134 34zM298 755h-61l82 133h87zM438 755h-62l82 133h87z" />
    <glyph glyph-name="uhungarumlaut" unicode="&#x171;" horiz-adv-x="561" 
d="M162.5 16.5q-45.5 27.5 -71.5 77.5t-26 116v292h77v-290q0 -69 37 -109.5t96 -40.5q62 0 100 40.5t38 109.5v290h78v-502h-58l-17 65h-5q-20 -29 -58 -52.5t-88 -23.5q-57 0 -102.5 27.5zM238 562h-58l77 139h85zM377 562h-59l77 139h85z" />
    <glyph glyph-name="Uogonek" unicode="&#x172;" horiz-adv-x="673" 
d="M509 700h83v-446q0 -144 -108 -222q-53 -39 -83.5 -72t-30.5 -66q0 -23 14 -36t39 -13q17 0 32 5v-48q-20 -6 -42 -6q-44 0 -71.5 23.5t-27.5 64.5q0 32 17 59.5t45 48.5q-20 -3 -40 -3q-76 0 -134 34t-89.5 94t-31.5 137v446h83v-446q0 -85 47 -136t125 -51t125.5 51
t47.5 136v446z" />
    <glyph glyph-name="uogonek" unicode="&#x173;" horiz-adv-x="561" 
d="M491 0q-41 -24 -63 -51t-22 -55q0 -23 14 -36t39 -13q17 0 32 5v-49q-17 -5 -42 -5q-44 0 -71.5 23.5t-27.5 64.5q0 37 23 69t59 52l-16 60h-5q-20 -29 -58 -52.5t-88 -23.5q-57 0 -102.5 27.5t-71.5 77.5t-26 116v292h77v-290q0 -69 37 -109.5t96 -40.5q62 0 100 40.5
t38 109.5v290h78v-502z" />
    <glyph glyph-name="Wcircumflex" unicode="&#x174;" horiz-adv-x="876" 
d="M625 160l157 540h83l-212 -700h-62l-153 527l-153 -527h-63l-211 700h86l158 -540l153 540h60zM475 888l107 -133h-77l-67 84l-67 -84h-76l108 133h72z" />
    <glyph glyph-name="wcircumflex" unicode="&#x175;" horiz-adv-x="691" 
d="M489 130l118 372h79l-167 -502h-60l-114 363l-113 -363h-59l-167 502h82l117 -372l116 372h52zM382 701l104 -139h-76l-64 91l-64 -91h-74l104 139h70z" />
    <glyph glyph-name="Ycircumflex" unicode="&#x176;" horiz-adv-x="544" 
d="M274 357l182 343h87l-230 -428v-272h-83v272l-229 428h91zM311 888l107 -133h-77l-67 84l-67 -84h-76l108 133h72z" />
    <glyph glyph-name="ycircumflex" unicode="&#x177;" horiz-adv-x="482" 
d="M395 502h81l-218 -546q-33 -81 -66 -111t-76 -30q-23 0 -43 9v70q17 -6 32 -6q25 0 44 15t33 51l23 58l-199 490h83l155 -393zM278 701l104 -139h-76l-64 91l-64 -91h-74l104 139h70z" />
    <glyph glyph-name="Ydieresis" unicode="&#x178;" horiz-adv-x="544" 
d="M274 357l182 343h87l-230 -428v-272h-83v272l-229 428h91zM152 788q-14 14 -14 33q0 20 14 34t34 14t34 -14t14 -34q0 -19 -14 -33t-34 -14t-34 14zM328 788q-14 14 -14 33q0 20 14 34t34 14t34 -14t14 -34q0 -19 -14 -33t-34 -14t-34 14z" />
    <glyph glyph-name="Zacute" unicode="&#x179;" horiz-adv-x="549" 
d="M498 644l-357 -567h370v-77h-473v56l357 567h-346v77h449v-56zM294 755h-63l72 133h90z" />
    <glyph glyph-name="zacute" unicode="&#x17a;" horiz-adv-x="423" 
d="M383 437l-258 -365h266v-72h-359v65l259 365h-254v72h346v-65zM229 562h-60l68 139h86z" />
    <glyph glyph-name="Zdotaccent" unicode="&#x17b;" horiz-adv-x="549" 
d="M498 644l-357 -567h370v-77h-473v56l357 567h-346v77h449v-56zM238.5 785q-14.5 14 -14.5 36t14.5 36.5t36.5 14.5q21 0 35.5 -14.5t14.5 -36.5t-14.5 -36t-35.5 -14q-22 0 -36.5 14z" />
    <glyph glyph-name="zdotaccent" unicode="&#x17c;" horiz-adv-x="423" 
d="M383 437l-258 -365h266v-72h-359v65l259 365h-254v72h346v-65zM174.5 593.5q-14.5 14.5 -14.5 36.5t14.5 36t36.5 14q21 0 35.5 -14t14.5 -36t-14.5 -36.5t-35.5 -14.5q-22 0 -36.5 14.5z" />
    <glyph glyph-name="Zcaron" unicode="&#x17d;" horiz-adv-x="549" 
d="M498 644l-357 -567h370v-77h-473v56l357 567h-346v77h449v-56zM273 803l68 85h76l-107 -133h-72l-108 133h76z" />
    <glyph glyph-name="zcaron" unicode="&#x17e;" horiz-adv-x="423" 
d="M383 437l-258 -365h266v-72h-359v65l259 365h-254v72h346v-65zM210 610l64 91h76l-104 -139h-70l-104 139h74z" />
    <glyph glyph-name="uni018F" unicode="&#x18f;" horiz-adv-x="735" 
d="M527 663.5q76 -47.5 121 -130t45 -183.5t-45 -183.5t-121 -130t-163 -47.5q-85 0 -159 47t-118.5 129t-44.5 181q0 18 2 32h565q-6 74 -40.5 132t-88.5 90.5t-116 32.5q-69 0 -126 -37.5t-88 -103.5h-84q21 64 66 114t105.5 77.5t126.5 27.5q87 0 163 -47.5zM475.5 97
q52.5 30 87.5 84.5t44 124.5h-478q5 -66 38.5 -121t85.5 -86.5t111 -31.5t111.5 30z" />
    <glyph glyph-name="florin" unicode="&#x192;" horiz-adv-x="373" 
d="M399 699l-15 -67q-14 6 -33 6q-43 0 -66 -27t-34 -85l-20 -108h110l-15 -73h-109l-65 -349q-18 -92 -60.5 -136.5t-112.5 -44.5q-30 0 -52 11l15 67q18 -5 33 -5q42 0 66 27.5t35 84.5l65 345h-77l14 73h76l21 111q17 93 59 137.5t113 44.5q28 0 52 -12z" />
    <glyph glyph-name="Ohorn" unicode="&#x1a0;" horiz-adv-x="740" 
d="M664.5 510q33.5 -74 33.5 -160q0 -101 -45 -183.5t-120.5 -130t-162.5 -47.5t-162.5 47.5t-120.5 130t-45 183.5t45 183.5t120.5 130t162.5 47.5q58 0 110 -21h62q50 0 50 47q0 23 -13 54h60q7 -12 11.5 -30t4.5 -35q0 -35 -22 -60.5t-60 -31.5q58 -50 91.5 -124z
M491.5 103q56.5 36 90 100.5t33.5 146.5t-33.5 146.5t-90 100.5t-121.5 36t-121.5 -36t-90 -100.5t-33.5 -146.5t33.5 -146.5t90 -100.5t121.5 -36t121.5 36z" />
    <glyph glyph-name="ohorn" unicode="&#x1a1;" horiz-adv-x="555" 
d="M497.5 357q19.5 -49 19.5 -106q0 -74 -32.5 -134t-87.5 -94t-120 -34t-120 34t-87 94t-32 134t32 133.5t87 93.5t120 34q53 0 96 -21h22q26 0 38.5 10t12.5 28q0 28 -14 62h55q8 -13 13.5 -31t5.5 -35q0 -29 -17 -51.5t-46 -31.5q35 -36 54.5 -85zM358 86q37 24 59 67
t22 98t-22 98t-59 67t-81 24q-43 0 -80.5 -24t-59.5 -67.5t-22 -97.5q0 -55 22 -98t59 -67t81 -24t81 24z" />
    <glyph glyph-name="Uhorn" unicode="&#x1af;" horiz-adv-x="694" 
d="M691 801q7 -12 11.5 -30t4.5 -35q0 -40 -28 -67t-74 -27h-13v-388q0 -77 -32 -137t-90 -94t-134 -34t-134 34t-89.5 94t-31.5 137v446h83v-446q0 -85 47 -136t125 -51t125.5 51t47.5 136v446h84q51 0 51 47q0 21 -14 54h61z" />
    <glyph glyph-name="uhorn" unicode="&#x1b0;" horiz-adv-x="582" 
d="M585 602q7 -13 12.5 -31.5t5.5 -34.5q0 -38 -27 -63t-72 -25h-13v-448h-58l-17 65h-5q-20 -29 -58 -52.5t-88 -23.5q-57 0 -102.5 27.5t-71.5 77.5t-26 116v292h77v-290q0 -69 37 -109.5t96 -40.5q62 0 100 40.5t38 109.5v290h80q25 0 37.5 10t12.5 28q0 25 -13 62h55z
" />
    <glyph glyph-name="uni01F4" unicode="&#x1f4;" horiz-adv-x="747" 
d="M390 347h287v-347h-55l-17 109q-36 -51 -97 -85.5t-138 -34.5q-87 0 -162.5 47.5t-120.5 130t-45 183.5t45 183.5t120.5 130t162.5 47.5q72 0 134.5 -30.5t104.5 -83t57 -114.5h-84q-24 65 -78.5 107.5t-133.5 42.5q-65 0 -121.5 -36t-90 -100.5t-33.5 -146.5
t33.5 -146.5t90 -100.5t121.5 -36q61 0 110.5 27.5t79 74.5t33.5 104h-203v74zM388 755h-63l72 133h90z" />
    <glyph glyph-name="uni01F5" unicode="&#x1f5;" horiz-adv-x="565" 
d="M132.5 -146q-57.5 44 -72.5 109h78q13 -37 49 -59t88 -22q65 0 104 37.5t39 100.5v73h-5q-17 -25 -57.5 -50.5t-92.5 -25.5q-61 0 -112.5 32.5t-82 89t-30.5 125.5q0 70 30.5 127t82 89t112.5 32q53 0 94 -25.5t58 -49.5h5l18 65h57v-481q0 -63 -27 -111t-77 -74
t-115 -26q-86 0 -143.5 44zM341.5 112q34.5 23 55.5 63t21 89q0 50 -21 90.5t-55.5 63.5t-74.5 23q-41 0 -76 -23t-55.5 -63.5t-20.5 -90.5q0 -49 20.5 -89t55.5 -63t76 -23q40 0 74.5 23zM300 562h-60l68 139h86z" />
    <glyph glyph-name="Aringacute" unicode="&#x1fa;" horiz-adv-x="614" 
d="M611 0h-88l-64 172h-307l-64 -172h-85l265 700h79zM430 249l-124 337l-125 -337h249zM340 948h-62l60 118h87zM238.5 773q-27.5 27 -27.5 66t28 66.5t69 27.5t69 -27.5t28 -66.5t-28 -66t-69 -27q-42 0 -69.5 27zM341 805.5q13 12.5 13 33.5t-13 34t-33 13t-33 -13
t-13 -34t13 -33.5t33 -12.5t33 12.5z" />
    <glyph glyph-name="aringacute" unicode="&#x1fb;" horiz-adv-x="502" 
d="M345.5 488q43.5 -24 67.5 -67.5t24 -99.5v-321h-57l-18 65h-5q-20 -29 -58 -52.5t-94 -23.5q-50 0 -88 20.5t-58.5 55t-20.5 75.5q0 46 28 82t78.5 56t115.5 20h100v26q0 53 -31 85t-82 32q-47 0 -75 -24.5t-34 -62.5h-78q5 42 29.5 78.5t65.5 58t92 21.5q55 0 98.5 -24z
M320.5 97.5q39.5 38.5 39.5 96.5v40h-92q-73 0 -113 -24t-40 -68q0 -37 26.5 -60t74.5 -23q65 0 104.5 38.5zM280 751h-59l62 127h85zM182.5 578q-27.5 27 -27.5 66q0 38 27.5 65t67.5 27t67.5 -27t27.5 -65q0 -39 -27.5 -66t-67.5 -27t-67.5 27zM283.5 610q13.5 13 13.5 34
q0 20 -13.5 33.5t-33.5 13.5q-21 0 -34 -13.5t-13 -33.5q0 -21 13 -34t34 -13q20 0 33.5 13z" />
    <glyph glyph-name="AEacute" unicode="&#x1fc;" horiz-adv-x="886" 
d="M505 321v-243h338v-78h-420v172h-264l-97 -172h-92l400 700h463v-78h-328v-224h290v-77h-290zM413 623l-211 -374h221v374h-10zM483 755h-63l72 133h90z" />
    <glyph glyph-name="aeacute" unicode="&#x1fd;" horiz-adv-x="833" 
d="M791 223h-356q7 -75 48 -118.5t101 -43.5q79 0 115 72h79q-24 -65 -74 -104.5t-119 -39.5q-63 0 -111.5 30.5t-73.5 78.5q-22 -49 -69.5 -79t-122.5 -30q-52 0 -90.5 20t-59 53t-20.5 72q0 70 60 112t164 42h99v38q0 51 -31 83t-80 32t-77 -24t-35 -63h-78q5 43 30 79
t66 57.5t94 21.5q59 0 101 -29.5t58 -69.5q24 43 68.5 71t105.5 28q62 0 110.5 -31t75.5 -86.5t27 -127.5q0 -24 -5 -44zM486.5 399.5q-40.5 -41.5 -50.5 -111.5h284q-4 64 -40.5 108.5t-96.5 44.5q-56 0 -96.5 -41.5zM321.5 97.5q39.5 38.5 39.5 97.5v28h-93
q-153 0 -153 -87q0 -34 26 -55.5t75 -21.5q66 0 105.5 38.5zM437 562h-60l68 139h86z" />
    <glyph glyph-name="Oslashacute" unicode="&#x1fe;" horiz-adv-x="740" 
d="M698 656l-73 -79q35 -47 54 -105t19 -122q0 -101 -45 -183.5t-120.5 -130t-162.5 -47.5q-57 0 -110.5 21.5t-97.5 60.5l-70 -77l-50 50l73 79q-35 47 -54 105t-19 122q0 101 45 183.5t120.5 130t162.5 47.5q57 0 110.5 -21.5t97.5 -60.5l70 77zM248.5 597
q-56.5 -36 -90.5 -100.5t-34 -146.5q0 -94 47 -169l354 390q-32 30 -72 46t-83 16q-65 0 -121.5 -36zM491.5 103q56.5 36 90.5 100.5t34 146.5q0 94 -47 169l-354 -390q32 -30 72 -46t83 -16q65 0 121.5 36zM389 755h-63l72 133h90z" />
    <glyph glyph-name="oslashacute" unicode="&#x1ff;" horiz-adv-x="555" 
d="M517 464l-49 -52q49 -70 49 -161q0 -74 -32.5 -134t-87.5 -94t-120 -34q-42 0 -80 14t-69 41l-47 -50l-43 44l49 52q-49 70 -49 161q0 74 32 133.5t87 93.5t120 34q84 0 150 -55l47 50zM195.5 417q-37.5 -24 -59.5 -67.5t-22 -98.5q0 -57 26 -106l238 258q-44 38 -101 38
q-44 0 -81.5 -24zM359.5 85q37.5 24 59.5 67.5t22 98.5q0 57 -26 106l-239 -258q44 -38 101 -38q45 0 82.5 24zM296 562h-60l68 139h86z" />
    <glyph glyph-name="uni0218" unicode="&#x218;" horiz-adv-x="560" 
d="M158.5 16.5q-53.5 27.5 -83 77t-33.5 113.5h83q5 -67 46.5 -104t112.5 -37q70 0 108 32t38 83q0 40 -22 65.5t-54.5 41t-89.5 34.5q-66 22 -107 42.5t-69.5 58.5t-28.5 99q0 54 26 97t75 67.5t116 24.5t117 -28t78.5 -76.5t31.5 -108.5h-83q-4 62 -42.5 99t-101.5 37
t-98.5 -31.5t-35.5 -80.5q0 -37 21 -61.5t52.5 -38.5t86.5 -32q68 -23 110 -43.5t71.5 -60t29.5 -104.5q0 -86 -60.5 -139.5t-169.5 -53.5q-71 0 -124.5 27.5zM323.5 -94q15.5 -17 15.5 -47q0 -44 -24.5 -80t-50.5 -57l-16 20q11 11 21.5 31t12.5 46q-21 1 -36 15.5
t-15 36.5t16 37t36 15q25 0 40.5 -17z" />
    <glyph glyph-name="uni0219" unicode="&#x219;" horiz-adv-x="442" 
d="M131 11q-42 22 -66.5 58.5t-27.5 78.5h77q4 -40 33.5 -64.5t78.5 -24.5q47 0 73 21.5t26 53.5q0 24 -15.5 40.5t-38.5 26.5t-63 23q-51 16 -82.5 31t-53.5 42.5t-22 72.5q0 39 21 71.5t59 51.5t89 19q50 0 89 -20.5t62 -55.5t26 -77h-78q-4 40 -29.5 62t-69.5 22
q-43 0 -67.5 -20t-24.5 -50q0 -23 15 -39t37 -25.5t62 -22.5q52 -17 84 -32t54.5 -44t22.5 -75q0 -63 -47 -104.5t-129 -41.5q-53 0 -95 22zM268.5 -94q15.5 -17 15.5 -47q0 -44 -24.5 -80t-50.5 -57l-16 20q11 11 21.5 31t12.5 46q-21 1 -36 15.5t-15 36.5t16 37t36 15
q25 0 40.5 -17z" />
    <glyph glyph-name="uni021A" unicode="&#x21a;" horiz-adv-x="543" 
d="M313 0h-83v622h-214v78h511v-78h-214v-622zM311.5 -94q15.5 -17 15.5 -47q0 -44 -24.5 -80t-50.5 -57l-16 20q11 11 21.5 31t12.5 46q-21 1 -36 15.5t-15 36.5t16 37t36 15q25 0 40.5 -17z" />
    <glyph glyph-name="uni021B" unicode="&#x21b;" horiz-adv-x="329" 
d="M142.5 33q-40.5 44 -40.5 121v276h-87v70h38q61 0 61 60v74h66v-132h115v-72h-115v-274q0 -47 21.5 -70.5t59.5 -23.5q19 0 34 7v-71q-27 -9 -49 -9q-63 0 -103.5 44zM247.5 -94q15.5 -17 15.5 -47q0 -44 -24.5 -80t-50.5 -57l-16 20q11 11 21.5 31t12.5 46
q-21 1 -36 15.5t-15 36.5t16 37t36 15q25 0 40.5 -17z" />
    <glyph glyph-name="uni0232" unicode="&#x232;" horiz-adv-x="544" 
d="M274 357l182 343h87l-230 -428v-272h-83v272l-229 428h91zM406 790h-264v63h264v-63z" />
    <glyph glyph-name="uni0233" unicode="&#x233;" horiz-adv-x="482" 
d="M395 502h81l-218 -546q-33 -81 -66 -111t-76 -30q-23 0 -43 9v70q17 -6 32 -6q25 0 44 15t33 51l23 58l-199 490h83l155 -393zM371 601h-257v60h257v-60z" />
    <glyph glyph-name="uni0237" unicode="&#x237;" horiz-adv-x="217" 
d="M-45 -176v70q17 -6 34 -6q38 0 59.5 23.5t21.5 69.5v521h77v-523q0 -76 -40 -120t-104 -44q-26 0 -48 9z" />
    <glyph glyph-name="uni0244" unicode="&#x244;" horiz-adv-x="727" 
d="M713 451v-73h-94v-124q0 -76 -32 -136.5t-90 -94.5t-133 -34q-76 0 -134 34t-90 94t-32 137v124h-94v73h94v249h83v-249h345v249h83v-249h94zM536 378h-345v-124q0 -85 47 -136t126 -51q78 0 125 51t47 136v124z" />
    <glyph glyph-name="uni0259" unicode="&#x259;" horiz-adv-x="544" 
d="M387.5 478.5q54.5 -33.5 86.5 -93t32 -134.5q0 -74 -32.5 -134t-87 -94t-119.5 -34q-64 0 -116.5 32.5t-82.5 89.5t-30 126q0 33 4 49h385q-10 72 -53.5 113.5t-108.5 41.5q-86 0 -131 -72h-78q23 61 80 102t130 41q67 0 121.5 -33.5zM372.5 105q45.5 44 54.5 115h-312
q6 -70 48 -114.5t104 -44.5q60 0 105.5 44z" />
    <glyph glyph-name="uni0289" unicode="&#x289;" horiz-adv-x="597" 
d="M588 342v-66h-79v-276h-57l-18 65h-5q-19 -29 -57.5 -52.5t-88.5 -23.5q-57 0 -102.5 27.5t-71.5 77.5t-26 116v66h-79v66h79v160h78v-160h271v160h77v-160h79zM432 276h-271v-64q0 -69 37 -109.5t96 -40.5q62 0 100 40.5t38 109.5v64z" />
    <glyph glyph-name="uni02BC" unicode="&#x2bc;" horiz-adv-x="168" 
d="M122.5 694q15.5 -17 15.5 -47q0 -47 -25 -86t-54 -65l-16 20q34 41 37 91q-21 2 -35.5 16t-14.5 36t16 37t36 15q25 0 40.5 -17z" />
    <glyph glyph-name="circumflex" unicode="&#x2c6;" horiz-adv-x="338" 
d="M204 701l104 -139h-76l-64 91l-64 -91h-74l104 139h70z" />
    <glyph glyph-name="caron" unicode="&#x2c7;" horiz-adv-x="338" 
d="M168 610l64 91h76l-104 -139h-70l-104 139h74z" />
    <glyph glyph-name="breve" unicode="&#x2d8;" horiz-adv-x="333" 
d="M70 604.5q-37 36.5 -40 90.5h61q4 -33 23 -52.5t53 -19.5q33 0 52 19t23 53h61q-2 -54 -39 -90.5t-97 -36.5t-97 36.5z" />
    <glyph glyph-name="dotaccent" unicode="&#x2d9;" horiz-adv-x="161" 
d="M44.5 593.5q-14.5 14.5 -14.5 36.5t14.5 36t36.5 14q21 0 35.5 -14t14.5 -36t-14.5 -36.5t-35.5 -14.5q-22 0 -36.5 14.5z" />
    <glyph glyph-name="ring" unicode="&#x2da;" horiz-adv-x="250" 
d="M57 577.5q-27 26.5 -27 66.5q0 39 27.5 65.5t67.5 26.5t67.5 -26.5t27.5 -65.5q0 -40 -27 -66.5t-68 -26.5t-68 26.5zM159 610q13 13 13 34q0 20 -13 33.5t-34 13.5q-20 0 -33.5 -13.5t-13.5 -33.5q0 -21 13.5 -34t33.5 -13q21 0 34 13z" />
    <glyph glyph-name="ogonek" unicode="&#x2db;" horiz-adv-x="201" 
d="M100 -142q14 -13 39 -13q17 0 32 5v-49q-17 -5 -42 -5q-44 0 -71.5 23.5t-27.5 64.5q0 38 23.5 70t59.5 52v8l58 -14q-41 -24 -63 -51t-22 -55q0 -23 14 -36z" />
    <glyph glyph-name="tilde" unicode="&#x2dc;" horiz-adv-x="355" 
d="M198.5 578.5q-15.5 10.5 -34.5 30.5q-15 15 -23 21t-18 6q-15 0 -26 -16t-11 -46h-56q0 60 25 90.5t63 30.5q23 0 39 -10.5t35 -30.5q14 -14 22 -20t18 -6q16 0 26.5 16t10.5 45h56q0 -59 -25.5 -90t-62.5 -31q-23 0 -38.5 10.5z" />
    <glyph glyph-name="hungarumlaut" unicode="&#x2dd;" horiz-adv-x="360" 
d="M88 562h-58l77 139h85zM227 562h-59l77 139h85z" />
    <glyph glyph-name="gravecomb" unicode="&#x300;" 
d="M-30 562h-61l-94 139h86z" />
    <glyph glyph-name="acutecomb" unicode="&#x301;" 
d="M-124 562h-60l68 139h86z" />
    <glyph glyph-name="uni0302" unicode="&#x302;" 
d="M-134 701l104 -139h-76l-64 91l-64 -91h-74l104 139h70z" />
    <glyph glyph-name="tildecomb" unicode="&#x303;" 
d="M-156.5 578.5q-15.5 10.5 -34.5 30.5q-15 15 -23 21t-18 6q-15 0 -26 -16t-11 -46h-56q0 60 25 90.5t63 30.5q23 0 39 -10.5t35 -30.5q14 -14 22 -20t18 -6q16 0 26.5 16t10.5 45h56q0 -59 -25.5 -90t-62.5 -31q-23 0 -38.5 10.5z" />
    <glyph glyph-name="uni0304" unicode="&#x304;" 
d="M-30 601h-257v60h257v-60z" />
    <glyph glyph-name="uni0306" unicode="&#x306;" 
d="M-263 604.5q-37 36.5 -40 90.5h61q4 -33 23 -52.5t53 -19.5q33 0 52 19t23 53h61q-2 -54 -39 -90.5t-97 -36.5t-97 36.5z" />
    <glyph glyph-name="uni0307" unicode="&#x307;" 
d="M-116.5 593.5q-14.5 14.5 -14.5 36.5t14.5 36t36.5 14q21 0 35.5 -14t14.5 -36t-14.5 -36.5t-35.5 -14.5q-22 0 -36.5 14.5z" />
    <glyph glyph-name="uni0308" unicode="&#x308;" 
d="M-276 596q-14 14 -14 34t14 33.5t34 13.5t34 -13.5t14 -33.5t-14 -34t-34 -14t-34 14zM-111.5 596q-13.5 14 -13.5 34t13.5 33.5t33.5 13.5t34 -13.5t14 -33.5t-14 -34t-34 -14t-33.5 14z" />
    <glyph glyph-name="hookabovecomb" unicode="&#x309;" 
d="M-112 559q23 31 23 61q0 54 -53 54q-13 0 -28 -4v53q26 7 45 7q45 0 70 -24t25 -66t-29 -81h-53z" />
    <glyph glyph-name="uni030A" unicode="&#x30a;" 
d="M-193 577.5q-27 26.5 -27 66.5q0 39 27.5 65.5t67.5 26.5t67.5 -26.5t27.5 -65.5q0 -40 -27 -66.5t-68 -26.5t-68 26.5zM-91 610q13 13 13 34q0 20 -13 33.5t-34 13.5q-20 0 -33.5 -13.5t-13.5 -33.5q0 -21 13.5 -34t33.5 -13q21 0 34 13z" />
    <glyph glyph-name="uni030B" unicode="&#x30b;" 
d="M-272 562h-58l77 139h85zM-133 562h-59l77 139h85z" />
    <glyph glyph-name="uni030C" unicode="&#x30c;" 
d="M-170 610l64 91h76l-104 -139h-70l-104 139h74z" />
    <glyph glyph-name="uni0312" unicode="&#x312;" 
d="M-45.5 650q15.5 -14 15.5 -36q0 -23 -16 -37.5t-36 -14.5q-25 0 -40.5 17t-15.5 47q0 44 25.5 79t53.5 55l15 -20q-13 -10 -24.5 -29.5t-13.5 -45.5q21 -1 36.5 -15z" />
    <glyph glyph-name="uni031B" unicode="&#x31b;" 
d="M-191 448l-10 54h60q26 0 38.5 10t12.5 28q0 28 -14 62h55q8 -13 13.5 -31t5.5 -35q0 -38 -27.5 -63t-71.5 -25h-62z" />
    <glyph glyph-name="dotbelowcomb" unicode="&#x323;" 
d="M-116.5 -164q-14.5 14 -14.5 36t14.5 36.5t36.5 14.5q21 0 35.5 -14.5t14.5 -36.5t-14.5 -36t-35.5 -14q-22 0 -36.5 14z" />
    <glyph glyph-name="uni0327" unicode="&#x327;" 
d="M-121 -42q44 -3 67.5 -24.5t23.5 -54.5q0 -39 -28 -61t-86 -22q-31 0 -57 8v46q24 -6 47 -6q69 0 69 36q0 16 -15 26.5t-47 10.5q-21 0 -38 -5l42 104h49z" />
    <glyph glyph-name="uni0328" unicode="&#x328;" 
d="M-101 -142q14 -13 39 -13q17 0 32 5v-49q-17 -5 -42 -5q-44 0 -71.5 23.5t-27.5 64.5q0 38 23.5 70t59.5 52v8l58 -14q-41 -24 -63 -51t-22 -55q0 -23 14 -36z" />
    <glyph glyph-name="uni0400" unicode="&#x400;" horiz-adv-x="580" 
d="M169 321v-243h368v-78h-451v700h441v-78h-358v-224h320v-77h-320zM350 755h-63l-99 133h89z" />
    <glyph glyph-name="uni0401" unicode="&#x401;" horiz-adv-x="580" 
d="M169 321v-243h368v-78h-451v700h441v-78h-358v-224h320v-77h-320zM185 788q-14 14 -14 33q0 20 14 34t34 14t34 -14t14 -34q0 -19 -14 -33t-34 -14t-34 14zM361 788q-14 14 -14 33q0 20 14 34t34 14t34 -14t14 -34q0 -19 -14 -33t-34 -14t-34 14z" />
    <glyph glyph-name="uni0402" unicode="&#x402;" horiz-adv-x="717" 
d="M597 388q64 -67 64 -186q0 -78 -31 -137t-85.5 -90.5t-124.5 -31.5v77q69 0 113.5 48.5t44.5 131.5q0 87 -42.5 132.5t-113.5 45.5q-50 0 -94 -15.5t-76 -37.5v-325h-83v623h-172v77h479v-77h-224v-221q32 22 78 37.5t97 15.5q106 0 170 -67z" />
    <glyph glyph-name="uni0403" unicode="&#x403;" horiz-adv-x="503" 
d="M169 0h-83v700h405v-78h-322v-622zM308 755h-63l72 133h90z" />
    <glyph glyph-name="uni0404" unicode="&#x404;" horiz-adv-x="703" 
d="M666 221q-16 -62 -58.5 -115.5t-104.5 -85t-134 -31.5q-86 0 -161.5 47.5t-120.5 130t-45 183.5t45 183.5t120.5 130t161.5 47.5q71 0 132 -32t103 -85t59 -115h-84q-24 64 -79.5 109t-130.5 45q-59 0 -112 -31t-87.5 -86.5t-42.5 -127.5h283v-75h-283q7 -72 42 -128
t88 -87t112 -31q77 0 133 44.5t80 109.5h84z" />
    <glyph glyph-name="uni0405" unicode="&#x405;" horiz-adv-x="560" 
d="M158.5 16.5q-53.5 27.5 -83 77t-33.5 113.5h83q5 -67 46.5 -104t112.5 -37q70 0 108 32t38 83q0 40 -22 65.5t-54.5 41t-89.5 34.5q-66 22 -107 42.5t-69.5 58.5t-28.5 99q0 54 26 97t75 67.5t116 24.5t117 -28t78.5 -76.5t31.5 -108.5h-83q-4 62 -42.5 99t-101.5 37
t-98.5 -31.5t-35.5 -80.5q0 -37 21 -61.5t52.5 -38.5t86.5 -32q68 -23 110 -43.5t71.5 -60t29.5 -104.5q0 -86 -60.5 -139.5t-169.5 -53.5q-71 0 -124.5 27.5z" />
    <glyph glyph-name="uni0406" unicode="&#x406;" horiz-adv-x="254" 
d="M169 0h-83v700h83v-700z" />
    <glyph glyph-name="uni0407" unicode="&#x407;" horiz-adv-x="254" 
d="M169 0h-83v700h83v-700zM22 788q-14 14 -14 33q0 20 14 34t34 14t34 -14t14 -34q0 -19 -14 -33t-34 -14t-34 14zM164.5 788q-14.5 14 -14.5 33q0 20 14.5 34t33.5 14q20 0 34 -14t14 -34t-14 -33.5t-34 -13.5q-19 0 -33.5 14z" />
    <glyph glyph-name="uni0408" unicode="&#x408;" horiz-adv-x="529" 
d="M118.5 16.5q-49.5 27.5 -76.5 74.5t-27 102h83q0 -32 17 -61t47.5 -47t69.5 -18q61 0 97 38t36 99v496h83v-496q0 -63 -26.5 -111.5t-75.5 -76t-114 -27.5q-64 0 -113.5 27.5z" />
    <glyph glyph-name="uni0409" unicode="&#x409;" horiz-adv-x="981" 
d="M725 418q64 0 115.5 -27.5t80.5 -75.5t29 -106t-29 -106t-80.5 -75.5t-115.5 -27.5h-226v622h-256l-33 -421q-8 -103 -56 -157.5t-121 -54.5q-25 0 -41 6v77h17q108 0 119 134l38 494h416v-282h143zM724 78q64 0 103.5 36.5t39.5 94.5t-39.5 94.5t-103.5 36.5h-142v-262
h142z" />
    <glyph glyph-name="uni040A" unicode="&#x40a;" horiz-adv-x="989" 
d="M732 418q64 0 115.5 -27.5t80.5 -75.5t29 -106t-29 -106t-80.5 -75.5t-115.5 -27.5h-226v340h-337v-340h-83v700h83v-282h337v282h83v-282h143zM732 78q64 0 103 36.5t39 94.5t-39 94.5t-103 36.5h-143v-262h143z" />
    <glyph glyph-name="uni040B" unicode="&#x40b;" horiz-adv-x="722" 
d="M594 392.5q62 -62.5 62 -172.5v-220h-83v217q0 77 -40.5 118.5t-110.5 41.5q-50 0 -94 -15.5t-76 -37.5v-324h-83v623h-172v77h479v-77h-224v-221q32 22 78 37.5t97 15.5q105 0 167 -62.5z" />
    <glyph glyph-name="uni040C" unicode="&#x40c;" horiz-adv-x="561" 
d="M262 359l307 -359h-105l-295 348v-348h-83v700h83v-338l284 338h100zM327 755h-63l72 133h90z" />
    <glyph glyph-name="uni040D" unicode="&#x40d;" horiz-adv-x="695" 
d="M168 141l363 559h79v-700h-82v561l-364 -561h-78v700h82v-559zM397 755h-63l-99 133h89z" />
    <glyph glyph-name="uni040E" unicode="&#x40e;" horiz-adv-x="559" 
d="M473 700h86l-248 -553q-38 -83 -76.5 -120.5t-97.5 -37.5q-24 0 -52 11v75q20 -9 40 -9q36 0 62.5 25.5t47.5 71.5l14 32l-238 505h91l189 -415zM186 796q-38 36 -41 88h62q4 -32 24 -50t57 -18t57 18t24 50h62q-3 -52 -41.5 -88t-101.5 -36q-64 0 -102 36z" />
    <glyph glyph-name="uni040F" unicode="&#x40f;" horiz-adv-x="685" 
d="M516 700h83v-700h-215v-150h-83v150h-215v700h83v-622h347v622z" />
    <glyph glyph-name="uni0410" unicode="&#x410;" horiz-adv-x="614" 
d="M611 0h-88l-64 172h-307l-64 -172h-85l265 700h79zM430 249l-124 337l-125 -337h249z" />
    <glyph glyph-name="uni0411" unicode="&#x411;" horiz-adv-x="608" 
d="M353 411q63 0 112.5 -26.5t77 -73.5t27.5 -105t-27.5 -105t-77 -74t-112.5 -27h-267v700h430v-76h-347v-213h184zM352 76q62 0 98.5 35t36.5 95q0 59 -36.5 94t-98.5 35h-183v-259h183z" />
    <glyph glyph-name="uni0412" unicode="&#x412;" horiz-adv-x="618" 
d="M537.5 316q39.5 -43 39.5 -114q0 -57 -28 -103t-79 -72.5t-116 -26.5h-268v700h257q60 0 107 -24t73 -66t26 -92q0 -57 -29.5 -92.5t-69.5 -50.5q48 -16 87.5 -59zM169 625v-219h171q58 0 92 30.5t34 79.5t-34 79t-92 30h-171zM351 75q63 0 103 36.5t40 92.5t-40 92.5
t-103 36.5h-182v-258h182z" />
    <glyph glyph-name="uni0413" unicode="&#x413;" horiz-adv-x="503" 
d="M169 0h-83v700h405v-78h-322v-622z" />
    <glyph glyph-name="uni0414" unicode="&#x414;" horiz-adv-x="686" 
d="M578 77h87v-227h-83v150h-490v-150h-83v227h50q59 42 66 132l40 491h413v-623zM495 77v546h-255l-33 -414q-3 -48 -16.5 -81t-30.5 -51h335z" />
    <glyph glyph-name="uni0415" unicode="&#x415;" horiz-adv-x="580" 
d="M169 321v-243h368v-78h-451v700h441v-78h-358v-224h320v-77h-320z" />
    <glyph glyph-name="uni0416" unicode="&#x416;" horiz-adv-x="794" 
d="M524 359l279 -359h-101l-264 347v-347h-82v347l-264 -347h-101l280 359l-263 341h94l254 -337v337h82v-337l254 337h94z" />
    <glyph glyph-name="uni0417" unicode="&#x417;" horiz-adv-x="544" 
d="M464 302q38 -43 38 -114q0 -51 -29.5 -97t-82.5 -74t-121 -28q-70 0 -123 27t-83.5 73t-36.5 104h83q9 -56 50 -91.5t109 -35.5q69 0 110 35.5t41 88.5q0 58 -41.5 94.5t-112.5 36.5h-51v73h51q63 0 100 32.5t37 85.5t-37.5 87.5t-101.5 34.5q-59 0 -97.5 -35.5
t-42.5 -89.5h-83q5 56 34 102t78.5 73t111.5 27q64 0 114.5 -27t78.5 -72.5t28 -97.5q0 -54 -32.5 -92.5t-77.5 -57.5q51 -19 89 -62z" />
    <glyph glyph-name="uni0418" unicode="&#x418;" horiz-adv-x="695" 
d="M168 141l363 559h79v-700h-82v561l-364 -561h-78v700h82v-559z" />
    <glyph glyph-name="uni0419" unicode="&#x419;" horiz-adv-x="695" 
d="M168 141l363 559h79v-700h-82v561l-364 -561h-78v700h82v-559zM252 796q-38 36 -41 88h62q4 -32 24 -50t57 -18t57 18t24 50h62q-3 -52 -41.5 -88t-101.5 -36q-64 0 -102 36z" />
    <glyph glyph-name="uni041A" unicode="&#x41a;" horiz-adv-x="561" 
d="M262 359l307 -359h-105l-295 348v-348h-83v700h83v-338l284 338h100z" />
    <glyph glyph-name="uni041B" unicode="&#x41b;" horiz-adv-x="678" 
d="M-8 -5v77h17q108 0 119 134l38 494h427v-700h-83v622h-267l-33 -421q-8 -103 -56 -157.5t-121 -54.5q-25 0 -41 6z" />
    <glyph glyph-name="uni041C" unicode="&#x41c;" horiz-adv-x="836" 
d="M419 124l256 576h75v-700h-82v503l-225 -503h-51l-224 503v-503h-82v700h77z" />
    <glyph glyph-name="uni041D" unicode="&#x41d;" horiz-adv-x="686" 
d="M517 397v303h83v-700h-83v319h-348v-319h-83v700h83v-303h348z" />
    <glyph glyph-name="uni041E" unicode="&#x41e;" horiz-adv-x="740" 
d="M207.5 36.5q-75.5 47.5 -120.5 130t-45 183.5t45 183.5t120.5 130t162.5 47.5t162.5 -47.5t120.5 -130t45 -183.5t-45 -183.5t-120.5 -130t-162.5 -47.5t-162.5 47.5zM491.5 103q56.5 36 90 100.5t33.5 146.5t-33.5 146.5t-90 100.5t-121.5 36t-121.5 -36t-90 -100.5
t-33.5 -146.5t33.5 -146.5t90 -100.5t121.5 -36t121.5 36z" />
    <glyph glyph-name="uni041F" unicode="&#x41f;" horiz-adv-x="686" 
d="M169 0h-83v700h514v-700h-83v622h-348v-622z" />
    <glyph glyph-name="uni0420" unicode="&#x420;" horiz-adv-x="587" 
d="M316 700q63 0 115 -29.5t82.5 -79.5t30.5 -111t-30.5 -111t-82.5 -79.5t-115 -29.5h-147v-260h-83v700h230zM315 338q62 0 104 40.5t42 101.5t-42 101.5t-104 40.5h-146v-284h146z" />
    <glyph glyph-name="uni0421" unicode="&#x421;" horiz-adv-x="708" 
d="M207.5 36.5q-75.5 47.5 -120.5 130t-45 183.5t45 183.5t120.5 130t162.5 47.5q72 0 133.5 -33t103.5 -89.5t59 -125.5h-84q-23 74 -78.5 122t-133.5 48q-65 0 -121.5 -36t-90 -100.5t-33.5 -146.5t33.5 -146.5t90 -100.5t121.5 -36q81 0 137 47.5t80 121.5h84
q-17 -69 -59.5 -125t-105 -89t-136.5 -33q-87 0 -162.5 47.5z" />
    <glyph glyph-name="uni0422" unicode="&#x422;" horiz-adv-x="543" 
d="M313 0h-83v622h-214v78h511v-78h-214v-622z" />
    <glyph glyph-name="uni0423" unicode="&#x423;" horiz-adv-x="559" 
d="M473 700h86l-248 -553q-38 -83 -76.5 -120.5t-97.5 -37.5q-24 0 -52 11v75q20 -9 40 -9q36 0 62.5 25.5t47.5 71.5l14 32l-238 505h91l189 -415z" />
    <glyph glyph-name="uni0424" unicode="&#x424;" horiz-adv-x="784" 
d="M709.5 219q-39.5 -62 -111 -96.5t-164.5 -35.5v-98h-83v98q-93 1 -165 35.5t-111.5 96t-39.5 142.5t39.5 143t111.5 96.5t165 35.5v75h83v-75q93 -1 164.5 -36t111 -97t39.5 -142t-39.5 -142zM180.5 219q62.5 -54 170.5 -55v395q-108 -1 -170.5 -55t-62.5 -143
q0 -88 62.5 -142zM433 164q108 1 170.5 55t62.5 142q0 89 -62.5 143t-170.5 55v-395z" />
    <glyph glyph-name="uni0425" unicode="&#x425;" horiz-adv-x="582" 
d="M338 355l230 -355h-96l-183 289l-184 -289h-92l230 355l-219 345h95l173 -279l173 279h92z" />
    <glyph glyph-name="uni0426" unicode="&#x426;" horiz-adv-x="691" 
d="M671 -150h-83v150h-502v700h83v-622h331v622h83v-622h88v-228z" />
    <glyph glyph-name="uni0427" unicode="&#x427;" horiz-adv-x="643" 
d="M475 700h83v-700h-83v269q-32 -22 -78 -37.5t-98 -15.5q-105 0 -166.5 62.5t-61.5 172.5v249h83v-246q0 -78 40 -119t110 -41q51 0 95 15.5t76 37.5v353z" />
    <glyph glyph-name="uni0428" unicode="&#x428;" horiz-adv-x="923" 
d="M754 78v622h83v-700h-751v700h83v-622h251v622h83v-622h251z" />
    <glyph glyph-name="uni0429" unicode="&#x429;" horiz-adv-x="945" 
d="M837 700v-622h88v-228h-83v150h-756v700h83v-622h251v622h83v-622h251v622h83z" />
    <glyph glyph-name="uni042A" unicode="&#x42a;" horiz-adv-x="654" 
d="M397 439q64 0 115.5 -28.5t81 -78.5t29.5 -113q0 -62 -29.5 -112t-81 -78.5t-115.5 -28.5h-237v622h-164v78h247v-261h154zM397 78q64 0 103.5 38.5t39.5 102.5t-39.5 103t-103.5 39h-154v-283h154z" />
    <glyph glyph-name="uni042B" unicode="&#x42b;" horiz-adv-x="796" 
d="M312 439q64 0 115.5 -28.5t80.5 -78.5t29 -113q0 -62 -29 -112t-80.5 -78.5t-115.5 -28.5h-226v700h83v-261h143zM628 0v700h83v-700h-83zM312 78q63 0 102.5 39t39.5 102q0 64 -39.5 103t-102.5 39h-143v-283h143z" />
    <glyph glyph-name="uni042C" unicode="&#x42c;" horiz-adv-x="580" 
d="M323 439q64 0 115.5 -28.5t80.5 -78.5t29 -113q0 -62 -29 -112t-80.5 -78.5t-115.5 -28.5h-237v700h83v-261h154zM322 78q64 0 103.5 38.5t39.5 102.5t-39.5 103t-103.5 39h-153v-283h153z" />
    <glyph glyph-name="uni042D" unicode="&#x42d;" horiz-adv-x="697" 
d="M489.5 663.5q75.5 -47.5 120.5 -130t45 -183.5t-45 -183.5t-120.5 -130t-161.5 -47.5q-72 0 -134 31.5t-104.5 85t-58.5 115.5h84q24 -65 80 -109.5t133 -44.5q59 0 112 31t88 87t42 128h-283v75h283q-8 72 -42.5 127.5t-87.5 86.5t-112 31q-75 0 -130.5 -45t-78.5 -109
h-84q16 62 58 115t103 85t132 32q86 0 161.5 -47.5z" />
    <glyph glyph-name="uni042E" unicode="&#x42e;" horiz-adv-x="946" 
d="M746 665q72 -46 115 -128.5t43 -186.5t-43 -186.5t-115 -128.5t-155 -46q-78 0 -146.5 41t-112.5 114.5t-52 167.5h-111v-312h-83v700h83v-311h111q8 94 52 167.5t112.5 114t146.5 40.5q83 0 155 -46zM705 102q53 35 84.5 99t31.5 149t-31.5 149t-84.5 99t-114 35
t-114 -35t-84.5 -99t-31.5 -149t31.5 -149t84.5 -99t114 -35t114 35z" />
    <glyph glyph-name="uni042F" unicode="&#x42f;" horiz-adv-x="609" 
d="M523 700v-700h-83v287h-142l-170 -287h-95l180 296q-69 19 -113.5 71t-44.5 125q0 57 28.5 105t78 75.5t109.5 27.5h252zM176.5 400q38.5 -36 95.5 -36h168v258h-168q-57 0 -95.5 -37t-38.5 -94q0 -55 38.5 -91z" />
    <glyph glyph-name="uni0430" unicode="&#x430;" horiz-adv-x="502" 
d="M345.5 488q43.5 -24 67.5 -67.5t24 -99.5v-321h-57l-18 65h-5q-20 -29 -58 -52.5t-94 -23.5q-50 0 -88 20.5t-58.5 55t-20.5 75.5q0 46 28 82t78.5 56t115.5 20h100v26q0 53 -31 85t-82 32q-47 0 -75 -24.5t-34 -62.5h-78q5 42 29.5 78.5t65.5 58t92 21.5q55 0 98.5 -24z
M320.5 97.5q39.5 38.5 39.5 96.5v40h-92q-73 0 -113 -24t-40 -68q0 -37 26.5 -60t74.5 -23q65 0 104.5 38.5z" />
    <glyph glyph-name="uni0431" unicode="&#x431;" horiz-adv-x="555" 
d="M165 22.5q-54 33.5 -85.5 101.5t-31.5 169q0 173 64.5 273t202.5 121q106 16 154 25v-74q-61 -12 -146 -24q-102 -16 -145 -73.5t-52 -140.5h5q18 31 60.5 58.5t103.5 27.5q59 0 110 -31.5t81.5 -88t30.5 -129.5t-31 -129.5t-84 -87.5t-117 -31q-66 0 -120 33.5z
M362.5 83.5q35.5 21.5 56 61t20.5 92.5q0 54 -20.5 94t-56 61.5t-77.5 21.5t-77.5 -21.5t-56.5 -61.5t-21 -94q0 -53 21 -92.5t56.5 -61t77.5 -21.5t77.5 21.5z" />
    <glyph glyph-name="uni0432" unicode="&#x432;" horiz-adv-x="488" 
d="M425.5 220q25.5 -31 25.5 -79q0 -62 -43 -101.5t-110 -39.5h-228v502h209q43 0 78 -18t54.5 -48.5t19.5 -66.5q0 -37 -19.5 -64t-45.5 -41q34 -13 59.5 -44zM146 434v-144h124q39 0 61.5 19.5t22.5 52.5t-22.5 52.5t-61.5 19.5h-124zM290 68q36 0 60 22.5t24 56.5
q0 33 -24 56t-60 23h-144v-158h144z" />
    <glyph glyph-name="uni0433" unicode="&#x433;" horiz-adv-x="406" 
d="M147 0h-77v502h326v-73h-249v-429z" />
    <glyph glyph-name="uni0434" unicode="&#x434;" horiz-adv-x="561" 
d="M464 72h77v-200h-77v128h-379v-128h-77v200h40q51 34 56 111l27 319h333v-430zM387 72v358h-185l-21 -247q-7 -79 -42 -111h248z" />
    <glyph glyph-name="uni0435" unicode="&#x435;" horiz-adv-x="544" 
d="M501 216h-384q9 -72 53 -113.5t109 -41.5q87 0 130 72h79q-23 -61 -80.5 -102.5t-130.5 -41.5q-67 0 -121.5 33.5t-86 93.5t-31.5 135q0 74 32 133.5t87 93.5t120 34q64 0 116.5 -32.5t82.5 -89t30 -125.5q0 -29 -5 -49zM171 397q-45 -44 -54 -115h312q-6 70 -48.5 114.5
t-103.5 44.5t-106 -44z" />
    <glyph glyph-name="uni0436" unicode="&#x436;" horiz-adv-x="646" 
d="M447 265l208 -265h-95l-198 256v-256h-77v257l-199 -257h-95l209 265l-188 237h90l183 -237v237h77v-236l182 236h91z" />
    <glyph glyph-name="uni0437" unicode="&#x437;" horiz-adv-x="438" 
d="M376.5 216q23.5 -31 23.5 -78q0 -40 -22 -74t-63.5 -54.5t-97.5 -20.5q-87 0 -138.5 46.5t-57.5 116.5h77q4 -42 33 -67t84 -25q53 0 80.5 21.5t27.5 59.5t-27 61t-77 23h-56v66h52q47 0 71.5 19t24.5 52q0 34 -26.5 57t-71.5 23q-47 0 -74 -24t-32 -62h-76
q6 67 54.5 111.5t132.5 44.5q50 0 89 -20t60 -54t21 -74q0 -69 -67 -104q32 -13 55.5 -44z" />
    <glyph glyph-name="uni0438" unicode="&#x438;" horiz-adv-x="562" 
d="M146 123l278 379h68v-502h-77v378l-277 -378h-68v502h76v-379z" />
    <glyph glyph-name="uni0439" unicode="&#x439;" horiz-adv-x="562" 
d="M146 123l278 379h68v-502h-77v378l-277 -378h-68v502h76v-379zM186.5 604.5q-37.5 36.5 -40.5 90.5h61q4 -33 24 -52t56 -19q71 0 79 71h61q-2 -54 -40 -90.5t-100 -36.5q-63 0 -100.5 36.5z" />
    <glyph glyph-name="uni043A" unicode="&#x43a;" horiz-adv-x="461" 
d="M235 260l235 -260h-100l-223 252v-252h-77v502h77v-240l207 240h94z" />
    <glyph glyph-name="uni043B" unicode="&#x43b;" horiz-adv-x="538" 
d="M-3 -5v69h18q40 0 62 26t26 84l28 328h337v-502h-77v429h-189l-22 -265q-7 -88 -46 -131.5t-101 -43.5q-18 0 -36 6z" />
    <glyph glyph-name="uni043C" unicode="&#x43c;" horiz-adv-x="659" 
d="M332 105l182 397h75v-502h-77v339l-159 -339h-47l-160 340v-340h-76v502h79z" />
    <glyph glyph-name="uni043D" unicode="&#x43d;" horiz-adv-x="558" 
d="M411 289v213h77v-502h-77v216h-264v-216h-77v502h77v-213h264z" />
    <glyph glyph-name="uni043E" unicode="&#x43e;" horiz-adv-x="555" 
d="M157 23q-55 34 -87 94t-32 134t32 133.5t87 93.5t120 34t120.5 -34t87.5 -93.5t32 -133.5t-32.5 -134t-87.5 -94t-120 -34t-120 34zM358 86q37 24 59 67t22 98t-22 98t-59 67t-81 24q-43 0 -80.5 -24t-59.5 -67.5t-22 -97.5q0 -55 22 -98t59 -67t81 -24t81 24z" />
    <glyph glyph-name="uni043F" unicode="&#x43f;" horiz-adv-x="549" 
d="M147 0h-77v502h409v-502h-78v429h-254v-429z" />
    <glyph glyph-name="uni0440" unicode="&#x440;" horiz-adv-x="576" 
d="M70 -180v682h57l18 -65h5q18 24 61 49.5t97 25.5q62 0 115 -33.5t84.5 -93t31.5 -134.5t-31.5 -135t-84.5 -93.5t-115 -33.5q-37 0 -70 13.5t-55 31t-31 30.5h-5v-244h-77zM382.5 86q35.5 24 57 67t21.5 98t-21.5 98t-57 67t-78.5 24t-78.5 -24t-57 -67t-21.5 -98
t21.5 -98t57 -67t78.5 -24t78.5 24z" />
    <glyph glyph-name="uni0441" unicode="&#x441;" horiz-adv-x="533" 
d="M157 23q-55 34 -87 94t-32 134t32 133.5t87 93.5t120 34q57 0 104.5 -26.5t78 -70t40.5 -93.5h-78q-15 53 -52 85.5t-93 32.5q-43 0 -80.5 -24t-59.5 -67.5t-22 -97.5q0 -55 22 -98t59 -67t81 -24q56 0 93 32.5t52 85.5h78q-10 -51 -40.5 -94.5t-78 -70t-104.5 -26.5
q-65 0 -120 34z" />
    <glyph glyph-name="uni0442" unicode="&#x442;" horiz-adv-x="424" 
d="M251 0h-78v429h-159v73h396v-73h-159v-429z" />
    <glyph glyph-name="uni0443" unicode="&#x443;" horiz-adv-x="482" 
d="M395 502h81l-218 -546q-33 -81 -66 -111t-76 -30q-23 0 -43 9v70q17 -6 32 -6q25 0 44 15t33 51l23 58l-199 490h83l155 -393z" />
    <glyph glyph-name="uni0444" unicode="&#x444;" horiz-adv-x="694" 
d="M397 512q74 0 133 -33.5t92.5 -93.5t33.5 -134t-33.5 -134t-92.5 -94t-133 -34h-11v-169h-78v169h-11q-73 0 -132 34t-93 94t-34 134t34 134t93 93.5t132 33.5h11v188h78v-188h11zM138.5 152q23.5 -43 66 -66.5t96.5 -23.5h8v378h-8q-54 0 -96.5 -23.5t-66 -66.5
t-23.5 -99t23.5 -99zM393 62q83 0 134.5 52t51.5 137q0 56 -23.5 99t-66 66.5t-96.5 23.5h-8v-378h8z" />
    <glyph glyph-name="uni0445" unicode="&#x445;" horiz-adv-x="464" 
d="M280 256l175 -256h-91l-134 202l-134 -202h-87l174 256l-163 246h89l124 -191l124 191h86z" />
    <glyph glyph-name="uni0446" unicode="&#x446;" horiz-adv-x="568" 
d="M548 -128h-76v128h-402v502h77v-429h246v429h78v-429h77v-201z" />
    <glyph glyph-name="uni0447" unicode="&#x447;" horiz-adv-x="516" 
d="M368 502h78v-502h-78v188q-23 -15 -58 -26t-76 -11q-52 0 -93.5 22.5t-65 64t-23.5 94.5v170h77v-167q0 -52 32 -82t86 -30q64 0 121 41v238z" />
    <glyph glyph-name="uni0448" unicode="&#x448;" horiz-adv-x="749" 
d="M602 73v429h77v-502h-609v502h77v-429h189v429h77v-429h189z" />
    <glyph glyph-name="uni0449" unicode="&#x449;" horiz-adv-x="776" 
d="M679 502v-429h78v-201h-77v128h-610v502h77v-429h189v429h77v-429h189v429h77z" />
    <glyph glyph-name="uni044A" unicode="&#x44a;" horiz-adv-x="519" 
d="M320 324q78 0 126 -45t48 -117t-48 -117t-126 -45h-199v429h-120v73h197v-178h122zM316 70q47 0 73.5 24.5t26.5 67.5t-27 67.5t-73 24.5h-118v-184h118z" />
    <glyph glyph-name="uni044B" unicode="&#x44b;" horiz-adv-x="660" 
d="M263 324q79 0 126.5 -45t47.5 -117t-47.5 -117t-126.5 -45h-193v502h77v-178h116zM512 0v502h78v-502h-78zM259 70q47 0 73.5 24.5t26.5 67.5t-26.5 67.5t-73.5 24.5h-112v-184h112z" />
    <glyph glyph-name="uni044C" unicode="&#x44c;" horiz-adv-x="468" 
d="M269 324q78 0 126 -45t48 -117t-48 -117t-126 -45h-199v502h77v-178h122zM264 70q47 0 74 24.5t27 67.5t-27 67.5t-74 24.5h-117v-184h117z" />
    <glyph glyph-name="uni044D" unicode="&#x44d;" horiz-adv-x="527" 
d="M369 478q55 -34 87.5 -93.5t32.5 -133.5t-32.5 -134t-87.5 -94t-120 -34q-57 0 -104 26.5t-77.5 69.5t-40.5 93h78q15 -53 51.5 -85t92.5 -32q60 0 105.5 43.5t54.5 114.5h-183v65h183q-10 70 -55 113.5t-105 43.5q-55 0 -92 -32.5t-52 -84.5h-78q10 50 40.5 93t77.5 69
t104 26q65 0 120 -34z" />
    <glyph glyph-name="uni044E" unicode="&#x44e;" horiz-adv-x="713" 
d="M562.5 479.5q51.5 -32.5 82 -92t30.5 -136.5t-30.5 -136.5t-82.5 -92.5t-114 -33q-57 0 -106 28.5t-80.5 80t-38.5 118.5h-76v-216h-77v502h77v-215h76q7 67 38.5 118t80.5 79t106 28q63 0 114.5 -32.5zM523 85q34 23 54.5 65.5t20.5 100.5q0 57 -20.5 100t-55 66
t-74.5 23t-74.5 -23t-54.5 -66t-20 -100q0 -58 20 -100.5t54.5 -65.5t74.5 -23q41 0 75 23z" />
    <glyph glyph-name="uni044F" unicode="&#x44f;" horiz-adv-x="491" 
d="M421 502v-502h-78v183h-112l-113 -183h-91l125 194q-49 17 -78 57.5t-29 91.5q0 44 22 80.5t61.5 57.5t88.5 21h204zM149.5 278q26.5 -25 71.5 -25h123v179h-123q-43 0 -70.5 -25.5t-27.5 -63.5q0 -40 26.5 -65z" />
    <glyph glyph-name="uni0450" unicode="&#x450;" horiz-adv-x="544" 
d="M501 216h-384q9 -72 53 -113.5t109 -41.5q87 0 130 72h79q-23 -61 -80.5 -102.5t-130.5 -41.5q-67 0 -121.5 33.5t-86 93.5t-31.5 135q0 74 32 133.5t87 93.5t120 34q64 0 116.5 -32.5t82.5 -89t30 -125.5q0 -29 -5 -49zM171 397q-45 -44 -54 -115h312q-6 70 -48.5 114.5
t-103.5 44.5t-106 -44zM317 562h-61l-94 139h86z" />
    <glyph glyph-name="uni0451" unicode="&#x451;" horiz-adv-x="544" 
d="M501 216h-384q9 -72 53 -113.5t109 -41.5q87 0 130 72h79q-23 -61 -80.5 -102.5t-130.5 -41.5q-67 0 -121.5 33.5t-86 93.5t-31.5 135q0 74 32 133.5t87 93.5t120 34q64 0 116.5 -32.5t82.5 -89t30 -125.5q0 -29 -5 -49zM171 397q-45 -44 -54 -115h312q-6 70 -48.5 114.5
t-103.5 44.5t-106 -44zM159 596q-14 14 -14 34t14 33.5t34 13.5t34 -13.5t14 -33.5t-14 -34t-34 -14t-34 14zM323.5 596q-13.5 14 -13.5 34t13.5 33.5t33.5 13.5t34 -13.5t14 -33.5t-14 -34t-34 -14t-33.5 14z" />
    <glyph glyph-name="uni0452" unicode="&#x452;" horiz-adv-x="569" 
d="M420 463.5q46 -30.5 72.5 -92.5t26.5 -151q0 -134 -61.5 -205t-168.5 -71v73q76 0 114.5 49t38.5 154q0 103 -37 152t-101 49q-62 0 -100 -40.5t-38 -109.5v-271h-78v555h-79v66h79v79h78v-79h173v-66h-173v-137h5q19 29 57 52.5t88 23.5q58 0 104 -30.5z" />
    <glyph glyph-name="uni0453" unicode="&#x453;" horiz-adv-x="406" 
d="M147 0h-77v502h326v-73h-249v-429zM252 562h-60l68 139h86z" />
    <glyph glyph-name="uni0454" unicode="&#x454;" horiz-adv-x="533" 
d="M370.5 93q36.5 32 51.5 85h78q-10 -50 -41 -93t-78 -69.5t-104 -26.5q-65 0 -120 34t-87 94t-32 134t32 133.5t87 93.5t120 34q57 0 104 -26t78 -69t41 -93h-78q-15 52 -52 84.5t-93 32.5q-60 0 -105 -43.5t-55 -113.5h184v-65h-184q10 -71 55 -114.5t105 -43.5
q57 0 93.5 32z" />
    <glyph glyph-name="uni0455" unicode="&#x455;" horiz-adv-x="442" 
d="M131 11q-42 22 -66.5 58.5t-27.5 78.5h77q4 -40 33.5 -64.5t78.5 -24.5q47 0 73 21.5t26 53.5q0 24 -15.5 40.5t-38.5 26.5t-63 23q-51 16 -82.5 31t-53.5 42.5t-22 72.5q0 39 21 71.5t59 51.5t89 19q50 0 89 -20.5t62 -55.5t26 -77h-78q-4 40 -29.5 62t-69.5 22
q-43 0 -67.5 -20t-24.5 -50q0 -23 15 -39t37 -25.5t62 -22.5q52 -17 84 -32t54.5 -44t22.5 -75q0 -63 -47 -104.5t-129 -41.5q-53 0 -95 22z" />
    <glyph glyph-name="uni0456" unicode="&#x456;" horiz-adv-x="217" 
d="M147 0h-77v502h77v-502zM72.5 593.5q-14.5 14.5 -14.5 36.5t14.5 36t36.5 14q21 0 35.5 -14t14.5 -36t-14.5 -36.5t-35.5 -14.5q-22 0 -36.5 14.5z" />
    <glyph glyph-name="uni0457" unicode="&#x457;" horiz-adv-x="217" 
d="M147 0h-77v502h77v-502zM10 596q-14 14 -14 34t14 33.5t34 13.5t34 -13.5t14 -33.5t-14 -34t-34 -14t-34 14zM141 596q-14 14 -14 34t14 33.5t34 13.5t34 -13.5t14 -33.5t-14 -34t-34 -14t-34 14z" />
    <glyph glyph-name="uni0458" unicode="&#x458;" horiz-adv-x="217" 
d="M-45 -176v70q17 -6 34 -6q38 0 59.5 23.5t21.5 69.5v521h77v-523q0 -76 -40 -120t-104 -44q-26 0 -48 9zM72.5 593.5q-14.5 14.5 -14.5 36.5t14.5 36t36.5 14q21 0 35.5 -14t14.5 -36t-14.5 -36.5t-35.5 -14.5q-22 0 -36.5 14.5z" />
    <glyph glyph-name="uni0459" unicode="&#x459;" horiz-adv-x="769" 
d="M569 307q52 0 91.5 -20t61 -54.5t21.5 -77.5q0 -68 -48 -111.5t-126 -43.5h-189v429h-178l-22 -265q-7 -88 -46 -131.5t-101 -43.5q-18 0 -36 6v69h18q40 0 62 26t26 84l28 328h327v-195h111zM566 70q46 0 72.5 22.5t26.5 61.5q0 38 -26.5 60.5t-72.5 22.5h-108v-167h108
z" />
    <glyph glyph-name="uni045A" unicode="&#x45a;" horiz-adv-x="788" 
d="M589 307q52 0 91.5 -20t61 -54.5t21.5 -77.5q0 -68 -48 -111.5t-126 -43.5h-189v236h-253v-236h-77v502h77v-195h253v195h77v-195h112zM585 70q47 0 73.5 22.5t26.5 61.5q0 38 -26.5 60.5t-73.5 22.5h-108v-167h108z" />
    <glyph glyph-name="uni045B" unicode="&#x45b;" horiz-adv-x="579" 
d="M417.5 466.5q45.5 -27.5 71 -77.5t25.5 -116v-273h-77v271q0 69 -37 109.5t-96 40.5q-62 0 -100 -40.5t-38 -109.5v-271h-78v555h-79v66h79v79h78v-79h173v-66h-173v-137h5q19 29 57 52.5t88 23.5q56 0 101.5 -27.5z" />
    <glyph glyph-name="uni045C" unicode="&#x45c;" horiz-adv-x="461" 
d="M235 260l235 -260h-100l-223 252v-252h-77v502h77v-240l207 240h94zM270 562h-60l68 139h86z" />
    <glyph glyph-name="uni045D" unicode="&#x45d;" horiz-adv-x="562" 
d="M146 123l278 379h68v-502h-77v378l-277 -378h-68v502h76v-379zM328 562h-61l-94 139h86z" />
    <glyph glyph-name="uni045E" unicode="&#x45e;" horiz-adv-x="482" 
d="M395 502h81l-218 -546q-33 -81 -66 -111t-76 -30q-23 0 -43 9v70q17 -6 32 -6q25 0 44 15t33 51l23 58l-199 490h83l155 -393zM142.5 604.5q-37.5 36.5 -40.5 90.5h61q4 -33 24 -52t56 -19q71 0 79 71h61q-2 -54 -40 -90.5t-100 -36.5q-63 0 -100.5 36.5z" />
    <glyph glyph-name="uni045F" unicode="&#x45f;" horiz-adv-x="552" 
d="M405 502h78v-502h-169v-128h-77v128h-167v502h77v-429h258v429z" />
    <glyph glyph-name="uni0462" unicode="&#x462;" horiz-adv-x="628" 
d="M372 436q64 0 115 -28.5t80 -78t29 -111.5t-29 -111.5t-80 -78t-115 -28.5h-238v523h-139v73h139v104h83v-104h184v-73h-184v-87h155zM372 78q63 0 102 38.5t39 101.5q0 64 -39 102.5t-102 38.5h-155v-281h155z" />
    <glyph glyph-name="uni0463" unicode="&#x463;" horiz-adv-x="504" 
d="M305 323q78 0 125.5 -45t47.5 -117t-47.5 -116.5t-125.5 -44.5h-201v463h-109v67h109v170h78v-170h153v-67h-153v-140h123zM301 70q47 0 73.5 24t26.5 67t-26.5 68t-73.5 25h-119v-184h119z" />
    <glyph glyph-name="uni0472" unicode="&#x472;" horiz-adv-x="740" 
d="M532.5 663.5q75.5 -47.5 120.5 -130t45 -183.5t-45 -183.5t-120.5 -130t-162.5 -47.5t-162.5 47.5t-120.5 130t-45 183.5t45 183.5t120.5 130t162.5 47.5t162.5 -47.5zM257 602q-53 -31 -88 -87t-43 -128h488q-8 72 -43 128t-88 87t-113 31t-113 -31zM483 98q53 31 88 87
t43 128h-488q8 -72 43 -128t88 -87t113 -31t113 31z" />
    <glyph glyph-name="uni0473" unicode="&#x473;" horiz-adv-x="555" 
d="M397.5 478q55.5 -34 87.5 -93.5t32 -133.5t-32.5 -134t-87.5 -94t-120 -34t-120 34t-87 94t-32 134t32 133.5t87 93.5t120 34t120.5 -34zM171.5 397.5q-45.5 -43.5 -55.5 -114.5h323q-10 71 -55.5 114.5t-106.5 43.5q-60 0 -105.5 -43.5zM383.5 104.5
q45.5 43.5 55.5 113.5h-323q10 -70 55.5 -113.5t105.5 -43.5q61 0 106.5 43.5z" />
    <glyph glyph-name="uni0474" unicode="&#x474;" horiz-adv-x="656" 
d="M700 698l-23 -74q-16 14 -41 14q-30 0 -48.5 -21t-39.5 -78l-196 -539h-87l-254 700h88l212 -594l161 454q31 86 67.5 121t93.5 35q41 0 67 -18z" />
    <glyph glyph-name="uni0475" unicode="&#x475;" horiz-adv-x="507" 
d="M541 500l-17 -64q-14 9 -34 9q-17 0 -30 -12.5t-27 -48.5l-154 -384h-71l-202 502h83l155 -401l118 303q23 61 51.5 87t72.5 26q34 0 55 -17z" />
    <glyph glyph-name="uni048A" unicode="&#x48a;" horiz-adv-x="718" 
d="M252 796q-38 36 -41 88h62q4 -32 24 -50t57 -18t57 18t24 50h62q-3 -52 -41.5 -88t-101.5 -36q-64 0 -102 36zM610 700v-622h102v-14l-79 -214h-66l41 150h-80v561l-364 -561h-78v700h82v-559l363 559h79z" />
    <glyph glyph-name="uni048B" unicode="&#x48b;" horiz-adv-x="589" 
d="M186 604.5q-38 36.5 -40 90.5h61q8 -71 79 -71q36 0 56 19t23 52h62q-3 -54 -40.5 -90.5t-100.5 -36.5q-62 0 -100 36.5zM492 502v-429h83v-14l-65 -187h-63l30 128h-62v378l-277 -378h-68v502h76v-379l278 379h68z" />
    <glyph glyph-name="uni048C" unicode="&#x48c;" horiz-adv-x="628" 
d="M372 436q64 0 115 -28.5t80 -78t29 -111.5t-29 -111.5t-80 -78t-115 -28.5h-238v523h-139v73h139v104h83v-104h184v-73h-184v-87h155zM372 78q63 0 102 38.5t39 101.5q0 64 -39 102.5t-102 38.5h-155v-281h155z" />
    <glyph glyph-name="uni048D" unicode="&#x48d;" horiz-adv-x="504" 
d="M305 323q78 0 125.5 -45t47.5 -117t-47.5 -116.5t-125.5 -44.5h-201v463h-109v67h109v170h78v-170h153v-67h-153v-140h123zM301 70q47 0 73.5 24t26.5 67t-26.5 68t-73.5 25h-119v-184h119z" />
    <glyph glyph-name="uni048E" unicode="&#x48e;" horiz-adv-x="587" 
d="M522.5 386q-21.5 -44 -58.5 -75l62 -88l-56 -40l-66 94q-42 -17 -88 -17h-147v-260h-83v700h230q63 0 115 -29.5t82.5 -79.5t30.5 -111q0 -50 -21.5 -94zM315 337q22 0 43 6l-61 86l56 40l65 -93q43 41 43 104q0 61 -42 102t-104 41h-146v-286h146z" />
    <glyph glyph-name="uni048F" unicode="&#x48f;" horiz-adv-x="576" 
d="M520 144q-19 -49 -53 -85l59 -80l-50 -38l-58 79q-51 -31 -110 -31q-37 0 -70 13.5t-55 31t-31 30.5h-5v-244h-77v682h57l18 -65h5q18 24 61 49.5t97 25.5q62 0 115 -33.5t84.5 -93t31.5 -134.5q0 -58 -19 -107zM374 80l-63 86l50 39l60 -82q40 51 40 128q0 55 -21.5 98
t-57 67t-78.5 24t-78.5 -24t-57 -67t-21.5 -98t21.5 -98t57 -67t78.5 -24q39 0 70 18z" />
    <glyph glyph-name="uni0490" unicode="&#x490;" horiz-adv-x="503" 
d="M169 0h-83v700h323v126h82v-204h-322v-622z" />
    <glyph glyph-name="uni0491" unicode="&#x491;" horiz-adv-x="406" 
d="M147 0h-77v502h250v100h76v-173h-249v-429z" />
    <glyph glyph-name="uni0492" unicode="&#x492;" horiz-adv-x="536" 
d="M518 700v-78h-322v-247h234v-77h-234v-298h-83v298h-94v77h94v325h405z" />
    <glyph glyph-name="uni0493" unicode="&#x493;" horiz-adv-x="430" 
d="M415 502v-73h-249v-171h184v-69h-184v-189h-78v189h-79v69h79v244h327z" />
    <glyph glyph-name="uni0494" unicode="&#x494;" horiz-adv-x="633" 
d="M466.5 425.5q52.5 -29.5 82 -87t29.5 -136.5q0 -78 -31 -136.5t-86 -90.5t-125 -32v77q45 0 81 21.5t57 62.5t21 96q0 86 -43.5 132t-119.5 46q-47 0 -84 -20t-58 -55t-21 -79v-224h-83v700h395v-77h-312v-245q28 32 73 54.5t103 22.5q69 0 121.5 -29.5z" />
    <glyph glyph-name="uni0495" unicode="&#x495;" horiz-adv-x="504" 
d="M270 -113q59 0 96 41.5t37 118.5q0 75 -36 117t-89 42q-56 0 -93.5 -39t-37.5 -101v-66h-77v502h316v-73h-239v-213h5q20 26 54 44.5t80 18.5q53 0 97.5 -28t70.5 -80.5t26 -122.5q0 -69 -27.5 -122.5t-75.5 -82.5t-107 -29v73z" />
    <glyph glyph-name="uni0496" unicode="&#x496;" horiz-adv-x="818" 
d="M524 359l219 -281h80v-228h-83v150h-38l-264 347v-347h-82v347l-264 -347h-101l280 359l-263 341h94l254 -337v337h82v-337l254 337h94z" />
    <glyph glyph-name="uni0497" unicode="&#x497;" horiz-adv-x="667" 
d="M447 265l152 -192h73v-201h-77v128h-35l-198 256v-256h-77v257l-199 -257h-95l209 265l-188 237h90l183 -237v237h77v-236l182 236h91z" />
    <glyph glyph-name="uni0498" unicode="&#x498;" horiz-adv-x="544" 
d="M478 100q-24 -42 -67.5 -71t-99.5 -37v-142h-83v142q-87 11 -140 66.5t-62 134.5h83q9 -56 50 -91.5t109 -35.5q69 0 110 35.5t41 88.5q0 58 -41.5 94.5t-112.5 36.5h-51v73h51q63 0 100 32.5t37 85.5t-37.5 87.5t-101.5 34.5q-59 0 -97.5 -35.5t-42.5 -89.5h-83
q5 56 34 102t78.5 73t111.5 27q64 0 114.5 -27t78.5 -72.5t28 -97.5q0 -54 -32.5 -92.5t-77.5 -57.5q51 -19 89 -62t38 -114q0 -46 -24 -88z" />
    <glyph glyph-name="uni0499" unicode="&#x499;" horiz-adv-x="438" 
d="M361 42.5q-39 -41.5 -107 -51.5v-119h-77v120q-69 10 -109.5 54.5t-46.5 105.5h77q4 -42 33 -67t84 -25q53 0 80.5 21.5t27.5 59.5t-27 61t-77 23h-56v66h52q47 0 71.5 19t24.5 52q0 34 -26.5 57t-71.5 23q-47 0 -74 -24t-32 -62h-76q6 67 54.5 111.5t132.5 44.5
q50 0 89 -20t60 -54t21 -74q0 -69 -67 -104q32 -13 55.5 -44t23.5 -78q0 -54 -39 -95.5z" />
    <glyph glyph-name="uni049A" unicode="&#x49a;" horiz-adv-x="579" 
d="M262 359l242 -281h80v-228h-83v150h-37l-295 348v-348h-83v700h83v-338l284 338h100z" />
    <glyph glyph-name="uni049B" unicode="&#x49b;" horiz-adv-x="477" 
d="M235 260l171 -187h76v-201h-77v128h-35l-223 252v-252h-77v502h77v-240l207 240h94z" />
    <glyph glyph-name="uni049C" unicode="&#x49c;" horiz-adv-x="635" 
d="M628 700l-266 -344l282 -356h-102l-246 314h-26v-104h-69v104h-32v-314h-83v700h83v-313h32v104h69v-104h22l240 313h96z" />
    <glyph glyph-name="uni049D" unicode="&#x49d;" horiz-adv-x="498" 
d="M485 502l-178 -246l200 -256h-95l-165 217h-15v-94h-55v94h-30v-217h-77v502h77v-216h30v94h55v-94h12l151 216h90z" />
    <glyph glyph-name="uni049E" unicode="&#x49e;" horiz-adv-x="588" 
d="M289 359l307 -359h-105l-295 349v-349h-83v560h-114v70h114v70h83v-70h108v-70h-108v-199l285 339h99z" />
    <glyph glyph-name="uni049F" unicode="&#x49f;" horiz-adv-x="480" 
d="M255 260l233 -260h-100l-222 251v-251h-78v555h-79v66h79v79h78v-79h147v-66h-147v-292l206 237h94z" />
    <glyph glyph-name="uni04A0" unicode="&#x4a0;" horiz-adv-x="635" 
d="M336 359l308 -359h-106l-295 349v-349h-83v622h-164v78h247v-339l285 339h99z" />
    <glyph glyph-name="uni04A1" unicode="&#x4a1;" horiz-adv-x="512" 
d="M286 260l235 -260h-100l-223 252v-252h-77v429h-120v73h197v-240l207 240h94z" />
    <glyph glyph-name="uni04A2" unicode="&#x4a2;" horiz-adv-x="708" 
d="M600 700v-622h88v-228h-83v150h-88v319h-348v-319h-83v700h83v-303h348v303h83z" />
    <glyph glyph-name="uni04A3" unicode="&#x4a3;" horiz-adv-x="585" 
d="M488 502v-429h78v-201h-77v128h-78v216h-264v-216h-77v502h77v-213h264v213h77z" />
    <glyph glyph-name="uni04A4" unicode="&#x4a4;" horiz-adv-x="903" 
d="M501 397v303h390v-78h-307v-622h-83v319h-332v-319h-83v700h83v-303h332z" />
    <glyph glyph-name="uni04A5" unicode="&#x4a5;" horiz-adv-x="716" 
d="M395 289v213h311v-73h-233v-429h-78v216h-248v-216h-77v502h77v-213h248z" />
    <glyph glyph-name="uni04A8" unicode="&#x4a8;" horiz-adv-x="758" 
d="M766 33q-21 -15 -58.5 -29.5t-81.5 -14.5q-39 0 -74 11.5t-60 27.5q-57 -39 -133 -39q-83 0 -156 47t-117 129.5t-44 184.5q0 94 38 172t102 127.5t140 61.5v-78q-54 -11 -99.5 -49t-72.5 -98.5t-27 -135.5q0 -82 32.5 -147t87 -101t117.5 -36q30 0 58 10
q-51 41 -93 115.5t-42 185.5q0 85 29 147t77 94.5t104 32.5t104 -32.5t77.5 -94.5t29.5 -147q0 -111 -43.5 -187.5t-93.5 -113.5q28 -10 59 -10q52 0 101 29zM581.5 209.5q40.5 68.5 40.5 168.5q0 65 -18 109t-47.5 65.5t-63.5 21.5q-35 0 -64 -21.5t-47 -65.5t-18 -109
q0 -100 40 -169.5t88 -102.5q49 35 89.5 103.5z" />
    <glyph glyph-name="uni04A9" unicode="&#x4a9;" horiz-adv-x="570" 
d="M578 23q-13 -11 -44 -22.5t-71 -11.5q-58 0 -95 27q-40 -27 -94 -27q-65 0 -119 33.5t-85.5 93.5t-31.5 135q0 69 26 125t69.5 91t94.5 45v-76q-46 -14 -80.5 -64t-34.5 -121q0 -57 22 -100.5t59 -67.5t80 -24q17 0 26 3q-31 29 -58.5 81.5t-27.5 124.5q0 61 20.5 105
t56 66.5t78.5 22.5t78.5 -22.5t56 -66.5t20.5 -105q0 -70 -27.5 -122.5t-59.5 -82.5q16 -4 27 -4q28 0 49 6t30 13zM314 159.5q25 -46.5 55 -78.5q30 31 55 78.5t25 108.5q0 63 -22.5 93.5t-57.5 30.5t-57.5 -30.5t-22.5 -93.5q0 -62 25 -108.5z" />
    <glyph glyph-name="uni04AA" unicode="&#x4aa;" horiz-adv-x="708" 
d="M671 236q-23 -95 -93 -163t-166 -81v-142h-83v142q-79 11 -144.5 60t-104 127t-38.5 171q0 101 45 183.5t120.5 130t162.5 47.5q72 0 133.5 -33t103.5 -89.5t59 -125.5h-84q-23 74 -78.5 122t-133.5 48q-65 0 -121.5 -36t-90 -100.5t-33.5 -146.5t33.5 -146.5t90 -100.5
t121.5 -36q81 0 137 47.5t80 121.5h84z" />
    <glyph glyph-name="uni04AB" unicode="&#x4ab;" horiz-adv-x="533" 
d="M370 94.5q37 32.5 52 85.5h78q-13 -67 -61 -120t-118 -67v-121h-77v119q-58 8 -105 44t-74 92t-27 124q0 74 32 133.5t87 93.5t120 34q57 0 104.5 -26.5t78 -70t40.5 -93.5h-78q-15 53 -52 85.5t-93 32.5q-43 0 -80.5 -24t-59.5 -67.5t-22 -97.5q0 -55 22 -98t59 -67
t81 -24q56 0 93 32.5z" />
    <glyph glyph-name="uni04AC" unicode="&#x4ac;" horiz-adv-x="543" 
d="M401 -150h-83v150h-88v622h-214v78h511v-78h-214v-544h88v-228z" />
    <glyph glyph-name="uni04AD" unicode="&#x4ad;" horiz-adv-x="424" 
d="M329 -128h-77v128h-79v429h-159v73h396v-73h-159v-356h78v-201z" />
    <glyph glyph-name="uni04AE" unicode="&#x4ae;" horiz-adv-x="544" 
d="M274 357l182 343h87l-230 -428v-272h-83v272l-229 428h91z" />
    <glyph glyph-name="uni04AF" unicode="&#x4af;" horiz-adv-x="485" 
d="M245 95l154 407h81l-198 -497v-185h-78v185l-198 497h83z" />
    <glyph glyph-name="uni04B0" unicode="&#x4b0;" horiz-adv-x="544" 
d="M456 700h87l-228 -425h137v-73h-139v-202h-83v202h-139v73h137l-227 425h91l182 -343z" />
    <glyph glyph-name="uni04B1" unicode="&#x4b1;" horiz-adv-x="485" 
d="M399 502h81l-194 -486h94v-66h-98v-130h-78v130h-98v66h94l-194 486h83l156 -407z" />
    <glyph glyph-name="uni04B2" unicode="&#x4b2;" horiz-adv-x="588" 
d="M338 355l180 -277h75v-228h-83v150h-38l-183 289l-184 -289h-92l230 355l-219 345h95l173 -279l173 279h92z" />
    <glyph glyph-name="uni04B3" unicode="&#x4b3;" horiz-adv-x="472" 
d="M280 256l125 -183h72v-201h-77v128h-36l-134 202l-134 -202h-87l174 256l-163 246h89l124 -191l124 191h86z" />
    <glyph glyph-name="uni04B4" unicode="&#x4b4;" horiz-adv-x="821" 
d="M800 -150h-83v150h-503v622h-198v78h477v-78h-196v-544h332v622h83v-622h88v-228z" />
    <glyph glyph-name="uni04B5" unicode="&#x4b5;" horiz-adv-x="656" 
d="M637 -128h-77v128h-403v430h-143v72h363v-72h-142v-357h247v429h77v-429h78v-201z" />
    <glyph glyph-name="uni04B6" unicode="&#x4b6;" horiz-adv-x="666" 
d="M558 78h87v-228h-83v150h-87v269q-32 -22 -78 -37.5t-98 -15.5q-105 0 -166.5 62.5t-61.5 172.5v249h83v-246q0 -78 40 -119t110 -41q51 0 95 15.5t76 37.5v353h83v-622z" />
    <glyph glyph-name="uni04B7" unicode="&#x4b7;" horiz-adv-x="543" 
d="M446 73h78v-201h-77v128h-79v188q-23 -15 -58 -26t-76 -11q-52 0 -93.5 22.5t-65 64t-23.5 94.5v170h77v-167q0 -52 32 -82t86 -30q64 0 121 41v238h78v-429z" />
    <glyph glyph-name="uni04B8" unicode="&#x4b8;" horiz-adv-x="643" 
d="M475 700h83v-700h-83v269q-58 -38 -127 -49v-109h-68v106q-96 5 -152.5 67t-56.5 167v249h83v-246q0 -71 33 -111.5t93 -47.5v103h68v-101q70 11 127 50v353z" />
    <glyph glyph-name="uni04B9" unicode="&#x4b9;" horiz-adv-x="516" 
d="M368 502h78v-502h-78v188q-39 -25 -92 -34v-98h-55v95q-74 5 -121.5 54.5t-47.5 126.5v170h77v-167q0 -45 24.5 -74t67.5 -36v93h55v-93q50 8 92 39v238z" />
    <glyph glyph-name="uni04BA" unicode="&#x4ba;" horiz-adv-x="643" 
d="M510.5 421.5q62.5 -62.5 62.5 -172.5v-249h-83v246q0 77 -41 118.5t-111 41.5q-49 0 -93 -15.5t-76 -36.5v-354h-83v700h83v-269q33 22 78 37.5t96 15.5q105 0 167.5 -62.5z" />
    <glyph glyph-name="uni04BB" unicode="&#x4bb;" horiz-adv-x="566" 
d="M75 0v700h77v-263h5q18 28 57 51.5t89 23.5q56 0 101.5 -27t71 -77t25.5 -116v-292h-78v290q0 69 -37 109.5t-96 40.5q-62 0 -100 -40.5t-38 -109.5v-290h-77z" />
    <glyph glyph-name="uni04BC" unicode="&#x4bc;" horiz-adv-x="831" 
d="M786 322h-564q6 -74 40.5 -132t88 -90.5t114.5 -32.5q70 0 127 38t88 103h84q-21 -64 -66 -114t-106 -77.5t-127 -27.5q-83 0 -155.5 43t-118.5 119.5t-52 170.5h-18q-59 0 -92.5 32.5t-33.5 88.5v30h75v-26q0 -53 53 -53h17q10 90 56.5 162.5t117.5 113.5t151 41
q85 0 159.5 -47t119 -129t44.5 -181q0 -17 -2 -32zM354 603q-52 -30 -86.5 -84.5t-43.5 -124.5h478q-5 66 -38.5 121t-86 86.5t-112.5 31.5q-59 0 -111 -30z" />
    <glyph glyph-name="uni04BD" unicode="&#x4bd;" horiz-adv-x="638" 
d="M596 216h-385q9 -72 53 -113.5t109 -41.5q87 0 130 72h79q-23 -61 -80 -102.5t-130 -41.5q-62 0 -113.5 28.5t-84.5 80t-40 118.5h-10q-59 0 -91.5 30.5t-32.5 82.5v19h71v-19q0 -26 11.5 -37t41.5 -11h9q7 66 40.5 119t85.5 82.5t112 29.5q64 0 116.5 -32.5t82.5 -89
t30 -125.5q0 -33 -4 -49zM265 396.5q-45 -44.5 -54 -115.5h312q-6 70 -48.5 115t-103.5 45t-106 -44.5z" />
    <glyph glyph-name="uni04BE" unicode="&#x4be;" horiz-adv-x="831" 
d="M786 322h-564q6 -74 40.5 -132t88 -90.5t114.5 -32.5q70 0 127 38t88 103h84q-28 -87 -98.5 -145.5t-158.5 -70.5v-142h-83v142q-74 10 -137 55t-102.5 116.5t-45.5 158.5h-18q-59 0 -92.5 32.5t-33.5 88.5v30h75v-26q0 -53 53 -53h17q10 90 56.5 162.5t117.5 113.5
t151 41q85 0 159.5 -47t119 -129t44.5 -181q0 -17 -2 -32zM354 603q-52 -30 -86.5 -84.5t-43.5 -124.5h478q-5 66 -38.5 121t-86 86.5t-112.5 31.5q-59 0 -111 -30z" />
    <glyph glyph-name="uni04BF" unicode="&#x4bf;" horiz-adv-x="638" 
d="M596 216h-385q9 -72 53 -113.5t109 -41.5q87 0 130 72h79q-19 -52 -66 -91.5t-107 -49.5v-120h-77v120q-80 14 -134 74.5t-64 149.5h-10q-59 0 -91.5 30.5t-32.5 82.5v19h71v-19q0 -26 11.5 -37t41.5 -11h9q7 66 40.5 119t85.5 82.5t112 29.5q64 0 116.5 -32.5t82.5 -89
t30 -125.5q0 -33 -4 -49zM265 396.5q-45 -44.5 -54 -115.5h312q-6 70 -48.5 115t-103.5 45t-106 -44.5z" />
    <glyph glyph-name="uni04C0" unicode="&#x4c0;" horiz-adv-x="254" 
d="M169 0h-83v700h83v-700z" />
    <glyph glyph-name="uni04C1" unicode="&#x4c1;" horiz-adv-x="794" 
d="M524 359l279 -359h-101l-264 347v-347h-82v347l-264 -347h-101l280 359l-263 341h94l254 -337v337h82v-337l254 337h94zM295 796q-38 36 -41 88h62q4 -32 24 -50t57 -18t57 18t24 50h62q-3 -52 -41.5 -88t-101.5 -36q-64 0 -102 36z" />
    <glyph glyph-name="uni04C2" unicode="&#x4c2;" horiz-adv-x="646" 
d="M447 265l208 -265h-95l-198 256v-256h-77v257l-199 -257h-95l209 265l-188 237h90l183 -237v237h77v-236l182 236h91zM223.5 604.5q-37.5 36.5 -40.5 90.5h61q4 -33 24 -52t56 -19q71 0 79 71h61q-2 -54 -40 -90.5t-100 -36.5q-63 0 -100.5 36.5z" />
    <glyph glyph-name="uni04C3" unicode="&#x4c3;" horiz-adv-x="634" 
d="M463.5 373q55.5 -31 87.5 -89t32 -135t-31.5 -136t-87 -91.5t-123.5 -32.5v77q44 0 80.5 22t57.5 63t21 97q0 84 -46 132t-118 48q-75 0 -121 -44t-46 -115v-169h-83v700h83v-353l281 353h100l-244 -298q24 2 33 2q69 0 124.5 -31z" />
    <glyph glyph-name="uni04C4" unicode="&#x4c4;" horiz-adv-x="504" 
d="M384 251q44 -28 70 -80.5t26 -122.5q0 -69 -27.5 -122.5t-75.5 -82.5t-107 -29v73q59 0 96 41.5t37 118.5q0 75 -36 117t-89 42q-56 0 -93.5 -39t-37.5 -100v-67h-77v502h77v-257l198 257h94l-180 -225q18 2 28 2q53 0 97 -28z" />
    <glyph glyph-name="uni04C5" unicode="&#x4c5;" horiz-adv-x="701" 
d="M550 -150l41 150h-81v622h-267l-33 -421q-8 -103 -56 -157.5t-121 -54.5q-25 0 -41 6v77h17q108 0 119 134l38 494h427v-622h102v-14l-79 -214h-66z" />
    <glyph glyph-name="uni04C6" unicode="&#x4c6;" horiz-adv-x="566" 
d="M423 -128l31 128h-63v429h-189l-22 -265q-7 -88 -46 -131.5t-101 -43.5q-18 0 -36 6v69h18q40 0 62 26t26 84l28 328h337v-429h83v-14l-65 -187h-63z" />
    <glyph glyph-name="uni04C7" unicode="&#x4c7;" horiz-adv-x="686" 
d="M517 700h83v-726q0 -82 -42.5 -127.5t-116.5 -45.5q-34 0 -56 9v74q18 -6 41 -6q46 0 68.5 23.5t22.5 73.5v344h-348v-319h-83v700h83v-303h348v303z" />
    <glyph glyph-name="uni04C8" unicode="&#x4c8;" horiz-adv-x="558" 
d="M411 502h77v-524q0 -75 -39.5 -119t-99.5 -44q-37 0 -53 9v68q12 -5 33 -5q39 0 60.5 22.5t21.5 68.5v238h-264v-216h-77v502h77v-213h264v213z" />
    <glyph glyph-name="uni04C9" unicode="&#x4c9;" horiz-adv-x="708" 
d="M600 700v-622h103v-14l-80 -214h-65l40 150h-81v319h-348v-319h-83v700h83v-303h348v303h83z" />
    <glyph glyph-name="uni04CA" unicode="&#x4ca;" horiz-adv-x="585" 
d="M488 502v-429h83v-14l-65 -187h-63l30 128h-62v216h-264v-216h-77v502h77v-213h264v213h77z" />
    <glyph glyph-name="uni04CB" unicode="&#x4cb;" horiz-adv-x="643" 
d="M475 700h83v-700h-83v-150h-83v226h83v193q-32 -22 -78 -37.5t-98 -15.5q-105 0 -166.5 62.5t-61.5 172.5v249h83v-246q0 -78 40 -119t110 -41q51 0 95 15.5t76 37.5v353z" />
    <glyph glyph-name="uni04CC" unicode="&#x4cc;" horiz-adv-x="516" 
d="M368 502h78v-502h-73v-128h-77v194h72v122q-23 -15 -58 -26t-76 -11q-52 0 -93.5 22.5t-65 64t-23.5 94.5v170h77v-167q0 -52 32 -82t86 -30q64 0 121 41v238z" />
    <glyph glyph-name="uni04CD" unicode="&#x4cd;" horiz-adv-x="858" 
d="M750 700v-622h102v-14l-79 -214h-66l41 150h-80v503l-225 -503h-51l-224 503v-503h-82v700h77l256 -576l256 576h75z" />
    <glyph glyph-name="uni04CE" unicode="&#x4ce;" horiz-adv-x="686" 
d="M589 502v-429h83v-14l-65 -187h-64l31 128h-62v339l-159 -339h-47l-160 340v-340h-76v502h79l183 -397l182 397h75z" />
    <glyph glyph-name="uni04CF" unicode="&#x4cf;" horiz-adv-x="227" 
d="M152 0h-77v700h77v-700z" />
    <glyph glyph-name="uni04D0" unicode="&#x4d0;" horiz-adv-x="614" 
d="M611 0h-88l-64 172h-307l-64 -172h-85l265 700h79zM430 249l-124 337l-125 -337h249zM206 796q-38 36 -41 88h62q4 -32 24 -50t57 -18t57 18t24 50h62q-3 -52 -41.5 -88t-101.5 -36q-64 0 -102 36z" />
    <glyph glyph-name="uni04D1" unicode="&#x4d1;" horiz-adv-x="502" 
d="M345.5 488q43.5 -24 67.5 -67.5t24 -99.5v-321h-57l-18 65h-5q-20 -29 -58 -52.5t-94 -23.5q-50 0 -88 20.5t-58.5 55t-20.5 75.5q0 46 28 82t78.5 56t115.5 20h100v26q0 53 -31 85t-82 32q-47 0 -75 -24.5t-34 -62.5h-78q5 42 29.5 78.5t65.5 58t92 21.5q55 0 98.5 -24z
M320.5 97.5q39.5 38.5 39.5 96.5v40h-92q-73 0 -113 -24t-40 -68q0 -37 26.5 -60t74.5 -23q65 0 104.5 38.5zM149.5 604.5q-37.5 36.5 -40.5 90.5h61q4 -33 24 -52t56 -19q71 0 79 71h61q-2 -54 -40 -90.5t-100 -36.5q-63 0 -100.5 36.5z" />
    <glyph glyph-name="uni04D2" unicode="&#x4d2;" horiz-adv-x="614" 
d="M611 0h-88l-64 172h-307l-64 -172h-85l265 700h79zM430 249l-124 337l-125 -337h249zM186 788q-14 14 -14 33q0 20 14 34t34 14t34 -14t14 -34q0 -19 -14 -33t-34 -14t-34 14zM362 788q-14 14 -14 33q0 20 14 34t34 14t34 -14t14 -34q0 -19 -14 -33t-34 -14t-34 14z" />
    <glyph glyph-name="uni04D3" unicode="&#x4d3;" horiz-adv-x="502" 
d="M345.5 488q43.5 -24 67.5 -67.5t24 -99.5v-321h-57l-18 65h-5q-20 -29 -58 -52.5t-94 -23.5q-50 0 -88 20.5t-58.5 55t-20.5 75.5q0 46 28 82t78.5 56t115.5 20h100v26q0 53 -31 85t-82 32q-47 0 -75 -24.5t-34 -62.5h-78q5 42 29.5 78.5t65.5 58t92 21.5q55 0 98.5 -24z
M320.5 97.5q39.5 38.5 39.5 96.5v40h-92q-73 0 -113 -24t-40 -68q0 -37 26.5 -60t74.5 -23q65 0 104.5 38.5zM134 596q-14 14 -14 34t14 33.5t34 13.5t34 -13.5t14 -33.5t-14 -34t-34 -14t-34 14zM298.5 596q-13.5 14 -13.5 34t13.5 33.5t33.5 13.5t34 -13.5t14 -33.5
t-14 -34t-34 -14t-33.5 14z" />
    <glyph glyph-name="uni04D4" unicode="&#x4d4;" horiz-adv-x="886" 
d="M505 321v-243h338v-78h-420v172h-264l-97 -172h-92l400 700h463v-78h-328v-224h290v-77h-290zM413 623l-211 -374h221v374h-10z" />
    <glyph glyph-name="uni04D5" unicode="&#x4d5;" horiz-adv-x="833" 
d="M791 223h-356q7 -75 48 -118.5t101 -43.5q79 0 115 72h79q-24 -65 -74 -104.5t-119 -39.5q-63 0 -111.5 30.5t-73.5 78.5q-22 -49 -69.5 -79t-122.5 -30q-52 0 -90.5 20t-59 53t-20.5 72q0 70 60 112t164 42h99v38q0 51 -31 83t-80 32t-77 -24t-35 -63h-78q5 43 30 79
t66 57.5t94 21.5q59 0 101 -29.5t58 -69.5q24 43 68.5 71t105.5 28q62 0 110.5 -31t75.5 -86.5t27 -127.5q0 -24 -5 -44zM486.5 399.5q-40.5 -41.5 -50.5 -111.5h284q-4 64 -40.5 108.5t-96.5 44.5q-56 0 -96.5 -41.5zM321.5 97.5q39.5 38.5 39.5 97.5v28h-93
q-153 0 -153 -87q0 -34 26 -55.5t75 -21.5q66 0 105.5 38.5z" />
    <glyph glyph-name="uni04D6" unicode="&#x4d6;" horiz-adv-x="580" 
d="M169 321v-243h368v-78h-451v700h441v-78h-358v-224h320v-77h-320zM205 796q-38 36 -41 88h62q4 -32 24 -50t57 -18t57 18t24 50h62q-3 -52 -41.5 -88t-101.5 -36q-64 0 -102 36z" />
    <glyph glyph-name="uni04D7" unicode="&#x4d7;" horiz-adv-x="544" 
d="M501 216h-384q9 -72 53 -113.5t109 -41.5q87 0 130 72h79q-23 -61 -80.5 -102.5t-130.5 -41.5q-67 0 -121.5 33.5t-86 93.5t-31.5 135q0 74 32 133.5t87 93.5t120 34q64 0 116.5 -32.5t82.5 -89t30 -125.5q0 -29 -5 -49zM171 397q-45 -44 -54 -115h312q-6 70 -48.5 114.5
t-103.5 44.5t-106 -44zM175.5 604.5q-37.5 36.5 -40.5 90.5h61q4 -33 24 -52t56 -19q71 0 79 71h61q-2 -54 -40 -90.5t-100 -36.5q-63 0 -100.5 36.5z" />
    <glyph glyph-name="uni04D8" unicode="&#x4d8;" horiz-adv-x="735" 
d="M527 663.5q76 -47.5 121 -130t45 -183.5t-45 -183.5t-121 -130t-163 -47.5q-85 0 -159 47t-118.5 129t-44.5 181q0 18 2 32h565q-6 74 -40.5 132t-88.5 90.5t-116 32.5q-69 0 -126 -37.5t-88 -103.5h-84q21 64 66 114t105.5 77.5t126.5 27.5q87 0 163 -47.5zM475.5 97
q52.5 30 87.5 84.5t44 124.5h-478q5 -66 38.5 -121t85.5 -86.5t111 -31.5t111.5 30z" />
    <glyph glyph-name="uni04D9" unicode="&#x4d9;" horiz-adv-x="544" 
d="M387.5 478.5q54.5 -33.5 86.5 -93t32 -134.5q0 -74 -32.5 -134t-87 -94t-119.5 -34q-64 0 -116.5 32.5t-82.5 89.5t-30 126q0 33 4 49h385q-10 72 -53.5 113.5t-108.5 41.5q-86 0 -131 -72h-78q23 61 80 102t130 41q67 0 121.5 -33.5zM372.5 105q45.5 44 54.5 115h-312
q6 -70 48 -114.5t104 -44.5q60 0 105.5 44z" />
    <glyph glyph-name="uni04DA" unicode="&#x4da;" horiz-adv-x="735" 
d="M527 663.5q76 -47.5 121 -130t45 -183.5t-45 -183.5t-121 -130t-163 -47.5q-85 0 -159 47t-118.5 129t-44.5 181q0 18 2 32h565q-6 74 -40.5 132t-88.5 90.5t-116 32.5q-69 0 -126 -37.5t-88 -103.5h-84q21 64 66 114t105.5 77.5t126.5 27.5q87 0 163 -47.5zM475.5 97
q52.5 30 87.5 84.5t44 124.5h-478q5 -66 38.5 -121t85.5 -86.5t111 -31.5t111.5 30zM243 788q-14 14 -14 33q0 20 14 34t34 14t34 -14t14 -34q0 -19 -14 -33t-34 -14t-34 14zM419 788q-14 14 -14 33q0 20 14 34t34 14t34 -14t14 -34q0 -19 -14 -33t-34 -14t-34 14z" />
    <glyph glyph-name="uni04DB" unicode="&#x4db;" horiz-adv-x="544" 
d="M387.5 478.5q54.5 -33.5 86.5 -93t32 -134.5q0 -74 -32.5 -134t-87 -94t-119.5 -34q-64 0 -116.5 32.5t-82.5 89.5t-30 126q0 33 4 49h385q-10 72 -53.5 113.5t-108.5 41.5q-86 0 -131 -72h-78q23 61 80 102t130 41q67 0 121.5 -33.5zM372.5 105q45.5 44 54.5 115h-312
q6 -70 48 -114.5t104 -44.5q60 0 105.5 44zM151 596q-14 14 -14 34t14 33.5t34 13.5t34 -13.5t14 -33.5t-14 -34t-34 -14t-34 14zM315.5 596q-13.5 14 -13.5 34t13.5 33.5t33.5 13.5t34 -13.5t14 -33.5t-14 -34t-34 -14t-33.5 14z" />
    <glyph glyph-name="uni04DC" unicode="&#x4dc;" horiz-adv-x="794" 
d="M524 359l279 -359h-101l-264 347v-347h-82v347l-264 -347h-101l280 359l-263 341h94l254 -337v337h82v-337l254 337h94zM275 788q-14 14 -14 33q0 20 14 34t34 14t34 -14t14 -34q0 -19 -14 -33t-34 -14t-34 14zM451 788q-14 14 -14 33q0 20 14 34t34 14t34 -14t14 -34
q0 -19 -14 -33t-34 -14t-34 14z" />
    <glyph glyph-name="uni04DD" unicode="&#x4dd;" horiz-adv-x="646" 
d="M447 265l208 -265h-95l-198 256v-256h-77v257l-199 -257h-95l209 265l-188 237h90l183 -237v237h77v-236l182 236h91zM208 596q-14 14 -14 34t14 33.5t34 13.5t34 -13.5t14 -33.5t-14 -34t-34 -14t-34 14zM372.5 596q-13.5 14 -13.5 34t13.5 33.5t33.5 13.5t34 -13.5
t14 -33.5t-14 -34t-34 -14t-33.5 14z" />
    <glyph glyph-name="uni04DE" unicode="&#x4de;" horiz-adv-x="544" 
d="M464 302q38 -43 38 -114q0 -51 -29.5 -97t-82.5 -74t-121 -28q-70 0 -123 27t-83.5 73t-36.5 104h83q9 -56 50 -91.5t109 -35.5q69 0 110 35.5t41 88.5q0 58 -41.5 94.5t-112.5 36.5h-51v73h51q63 0 100 32.5t37 85.5t-37.5 87.5t-101.5 34.5q-59 0 -97.5 -35.5
t-42.5 -89.5h-83q5 56 34 102t78.5 73t111.5 27q64 0 114.5 -27t78.5 -72.5t28 -97.5q0 -54 -32.5 -92.5t-77.5 -57.5q51 -19 89 -62zM145 788q-14 14 -14 33q0 20 14 34t34 14t34 -14t14 -34q0 -19 -14 -33t-34 -14t-34 14zM321 788q-14 14 -14 33q0 20 14 34t34 14t34 -14
t14 -34q0 -19 -14 -33t-34 -14t-34 14z" />
    <glyph glyph-name="uni04DF" unicode="&#x4df;" horiz-adv-x="438" 
d="M376.5 216q23.5 -31 23.5 -78q0 -40 -22 -74t-63.5 -54.5t-97.5 -20.5q-87 0 -138.5 46.5t-57.5 116.5h77q4 -42 33 -67t84 -25q53 0 80.5 21.5t27.5 59.5t-27 61t-77 23h-56v66h52q47 0 71.5 19t24.5 52q0 34 -26.5 57t-71.5 23q-47 0 -74 -24t-32 -62h-76
q6 67 54.5 111.5t132.5 44.5q50 0 89 -20t60 -54t21 -74q0 -69 -67 -104q32 -13 55.5 -44zM99 596q-14 14 -14 34t14 33.5t34 13.5t34 -13.5t14 -33.5t-14 -34t-34 -14t-34 14zM263.5 596q-13.5 14 -13.5 34t13.5 33.5t33.5 13.5t34 -13.5t14 -33.5t-14 -34t-34 -14
t-33.5 14z" />
    <glyph glyph-name="uni04E0" unicode="&#x4e0;" horiz-adv-x="565" 
d="M297 425q63 -1 114.5 -28.5t81.5 -76.5t30 -112q0 -61 -30.5 -111t-87 -79t-131.5 -29q-110 0 -175.5 57t-77.5 152h83q9 -58 53 -95t117 -37q51 0 88.5 19t57.5 51.5t20 72.5q0 63 -44.5 102.5t-120.5 39.5h-86v66l208 206h-339v77h441v-75z" />
    <glyph glyph-name="uni04E1" unicode="&#x4e1;" horiz-adv-x="480" 
d="M242 219q58 0 105.5 -26.5t74.5 -73.5t27 -106q0 -58 -28 -104.5t-78 -72.5t-114 -26q-97 0 -155.5 53t-66.5 144h78q8 -60 44 -92t100 -32q63 0 102.5 37t39.5 95q0 61 -39.5 98t-102.5 37h-91v62l195 218h-288v72h382v-70l-193 -213h8z" />
    <glyph glyph-name="uni04E2" unicode="&#x4e2;" horiz-adv-x="695" 
d="M168 141l363 559h79v-700h-82v561l-364 -561h-78v700h82v-559zM486 790h-264v63h264v-63z" />
    <glyph glyph-name="uni04E3" unicode="&#x4e3;" horiz-adv-x="562" 
d="M146 123l278 379h68v-502h-77v378l-277 -378h-68v502h76v-379zM415 601h-257v60h257v-60z" />
    <glyph glyph-name="uni04E4" unicode="&#x4e4;" horiz-adv-x="695" 
d="M168 141l363 559h79v-700h-82v561l-364 -561h-78v700h82v-559zM232 788q-14 14 -14 33q0 20 14 34t34 14t34 -14t14 -34q0 -19 -14 -33t-34 -14t-34 14zM408 788q-14 14 -14 33q0 20 14 34t34 14t34 -14t14 -34q0 -19 -14 -33t-34 -14t-34 14z" />
    <glyph glyph-name="uni04E5" unicode="&#x4e5;" horiz-adv-x="562" 
d="M146 123l278 379h68v-502h-77v378l-277 -378h-68v502h76v-379zM170 596q-14 14 -14 34t14 33.5t34 13.5t34 -13.5t14 -33.5t-14 -34t-34 -14t-34 14zM334.5 596q-13.5 14 -13.5 34t13.5 33.5t33.5 13.5t34 -13.5t14 -33.5t-14 -34t-34 -14t-33.5 14z" />
    <glyph glyph-name="uni04E6" unicode="&#x4e6;" horiz-adv-x="740" 
d="M207.5 36.5q-75.5 47.5 -120.5 130t-45 183.5t45 183.5t120.5 130t162.5 47.5t162.5 -47.5t120.5 -130t45 -183.5t-45 -183.5t-120.5 -130t-162.5 -47.5t-162.5 47.5zM491.5 103q56.5 36 90 100.5t33.5 146.5t-33.5 146.5t-90 100.5t-121.5 36t-121.5 -36t-90 -100.5
t-33.5 -146.5t33.5 -146.5t90 -100.5t121.5 -36t121.5 36zM248 788q-14 14 -14 33q0 20 14 34t34 14t34 -14t14 -34q0 -19 -14 -33t-34 -14t-34 14zM424 788q-14 14 -14 33q0 20 14 34t34 14t34 -14t14 -34q0 -19 -14 -33t-34 -14t-34 14z" />
    <glyph glyph-name="uni04E7" unicode="&#x4e7;" horiz-adv-x="555" 
d="M157 23q-55 34 -87 94t-32 134t32 133.5t87 93.5t120 34t120.5 -34t87.5 -93.5t32 -133.5t-32.5 -134t-87.5 -94t-120 -34t-120 34zM358 86q37 24 59 67t22 98t-22 98t-59 67t-81 24q-43 0 -80.5 -24t-59.5 -67.5t-22 -97.5q0 -55 22 -98t59 -67t81 -24t81 24zM161 596
q-14 14 -14 34t14 33.5t34 13.5t34 -13.5t14 -33.5t-14 -34t-34 -14t-34 14zM325.5 596q-13.5 14 -13.5 34t13.5 33.5t33.5 13.5t34 -13.5t14 -33.5t-14 -34t-34 -14t-33.5 14z" />
    <glyph glyph-name="uni04E8" unicode="&#x4e8;" horiz-adv-x="740" 
d="M532.5 663.5q75.5 -47.5 120.5 -130t45 -183.5t-45 -183.5t-120.5 -130t-162.5 -47.5t-162.5 47.5t-120.5 130t-45 183.5t45 183.5t120.5 130t162.5 47.5t162.5 -47.5zM257 602q-53 -31 -88 -87t-43 -128h488q-8 72 -43 128t-88 87t-113 31t-113 -31zM483 98q53 31 88 87
t43 128h-488q8 -72 43 -128t88 -87t113 -31t113 31z" />
    <glyph glyph-name="uni04E9" unicode="&#x4e9;" horiz-adv-x="555" 
d="M397.5 478q55.5 -34 87.5 -93.5t32 -133.5t-32.5 -134t-87.5 -94t-120 -34t-120 34t-87 94t-32 134t32 133.5t87 93.5t120 34t120.5 -34zM171.5 397.5q-45.5 -43.5 -55.5 -114.5h323q-10 71 -55.5 114.5t-106.5 43.5q-60 0 -105.5 -43.5zM383.5 104.5
q45.5 43.5 55.5 113.5h-323q10 -70 55.5 -113.5t105.5 -43.5q61 0 106.5 43.5z" />
    <glyph glyph-name="uni04EA" unicode="&#x4ea;" horiz-adv-x="740" 
d="M532.5 663.5q75.5 -47.5 120.5 -130t45 -183.5t-45 -183.5t-120.5 -130t-162.5 -47.5t-162.5 47.5t-120.5 130t-45 183.5t45 183.5t120.5 130t162.5 47.5t162.5 -47.5zM257 602q-53 -31 -88 -87t-43 -128h488q-8 72 -43 128t-88 87t-113 31t-113 -31zM483 98q53 31 88 87
t43 128h-488q8 -72 43 -128t88 -87t113 -31t113 31zM248 788q-14 14 -14 33q0 20 14 34t34 14t34 -14t14 -34q0 -19 -14 -33t-34 -14t-34 14zM424 788q-14 14 -14 33q0 20 14 34t34 14t34 -14t14 -34q0 -19 -14 -33t-34 -14t-34 14z" />
    <glyph glyph-name="uni04EB" unicode="&#x4eb;" horiz-adv-x="555" 
d="M397.5 478q55.5 -34 87.5 -93.5t32 -133.5t-32.5 -134t-87.5 -94t-120 -34t-120 34t-87 94t-32 134t32 133.5t87 93.5t120 34t120.5 -34zM171.5 397.5q-45.5 -43.5 -55.5 -114.5h323q-10 71 -55.5 114.5t-106.5 43.5q-60 0 -105.5 -43.5zM383.5 104.5
q45.5 43.5 55.5 113.5h-323q10 -70 55.5 -113.5t105.5 -43.5q61 0 106.5 43.5zM161 596q-14 14 -14 34t14 33.5t34 13.5t34 -13.5t14 -33.5t-14 -34t-34 -14t-34 14zM325.5 596q-13.5 14 -13.5 34t13.5 33.5t33.5 13.5t34 -13.5t14 -33.5t-14 -34t-34 -14t-33.5 14z" />
    <glyph glyph-name="uni04EC" unicode="&#x4ec;" horiz-adv-x="697" 
d="M489.5 663.5q75.5 -47.5 120.5 -130t45 -183.5t-45 -183.5t-120.5 -130t-161.5 -47.5q-72 0 -134 31.5t-104.5 85t-58.5 115.5h84q24 -65 80 -109.5t133 -44.5q59 0 112 31t88 87t42 128h-283v75h283q-8 72 -42.5 127.5t-87.5 86.5t-112 31q-75 0 -130.5 -45t-78.5 -109
h-84q16 62 58 115t103 85t132 32q86 0 161.5 -47.5zM207 788q-14 14 -14 33q0 20 14 34t34 14t34 -14t14 -34q0 -19 -14 -33t-34 -14t-34 14zM383 788q-14 14 -14 33q0 20 14 34t34 14t34 -14t14 -34q0 -19 -14 -33t-34 -14t-34 14z" />
    <glyph glyph-name="uni04ED" unicode="&#x4ed;" horiz-adv-x="527" 
d="M369 478q55 -34 87.5 -93.5t32.5 -133.5t-32.5 -134t-87.5 -94t-120 -34q-57 0 -104 26.5t-77.5 69.5t-40.5 93h78q15 -53 51.5 -85t92.5 -32q60 0 105.5 43.5t54.5 114.5h-183v65h183q-10 70 -55 113.5t-105 43.5q-55 0 -92 -32.5t-52 -84.5h-78q10 50 40.5 93t77.5 69
t104 26q65 0 120 -34zM134 596q-14 14 -14 34t14 33.5t34 13.5t34 -13.5t14 -33.5t-14 -34t-34 -14t-34 14zM298.5 596q-13.5 14 -13.5 34t13.5 33.5t33.5 13.5t34 -13.5t14 -33.5t-14 -34t-34 -14t-33.5 14z" />
    <glyph glyph-name="uni04EE" unicode="&#x4ee;" horiz-adv-x="559" 
d="M473 700h86l-248 -553q-38 -83 -76.5 -120.5t-97.5 -37.5q-24 0 -52 11v75q20 -9 40 -9q36 0 62.5 25.5t47.5 71.5l14 32l-238 505h91l189 -415zM419 790h-264v63h264v-63z" />
    <glyph glyph-name="uni04EF" unicode="&#x4ef;" horiz-adv-x="482" 
d="M395 502h81l-218 -546q-33 -81 -66 -111t-76 -30q-23 0 -43 9v70q17 -6 32 -6q25 0 44 15t33 51l23 58l-199 490h83l155 -393zM371 601h-257v60h257v-60z" />
    <glyph glyph-name="uni04F0" unicode="&#x4f0;" horiz-adv-x="559" 
d="M473 700h86l-248 -553q-38 -83 -76.5 -120.5t-97.5 -37.5q-24 0 -52 11v75q20 -9 40 -9q36 0 62.5 25.5t47.5 71.5l14 32l-238 505h91l189 -415zM166 788q-14 14 -14 33q0 20 14 34t34 14t34 -14t14 -34q0 -19 -14 -33t-34 -14t-34 14zM342 788q-14 14 -14 33q0 20 14 34
t34 14t34 -14t14 -34q0 -19 -14 -33t-34 -14t-34 14z" />
    <glyph glyph-name="uni04F1" unicode="&#x4f1;" horiz-adv-x="482" 
d="M395 502h81l-218 -546q-33 -81 -66 -111t-76 -30q-23 0 -43 9v70q17 -6 32 -6q25 0 44 15t33 51l23 58l-199 490h83l155 -393zM126 596q-14 14 -14 34t14 33.5t34 13.5t34 -13.5t14 -33.5t-14 -34t-34 -14t-34 14zM290.5 596q-13.5 14 -13.5 34t13.5 33.5t33.5 13.5
t34 -13.5t14 -33.5t-14 -34t-34 -14t-33.5 14z" />
    <glyph glyph-name="uni04F2" unicode="&#x4f2;" horiz-adv-x="559" 
d="M473 700h86l-248 -553q-38 -83 -76.5 -120.5t-97.5 -37.5q-24 0 -52 11v75q20 -9 40 -9q36 0 62.5 25.5t47.5 71.5l14 32l-238 505h91l189 -415zM249 755h-61l82 133h87zM389 755h-62l82 133h87z" />
    <glyph glyph-name="uni04F3" unicode="&#x4f3;" horiz-adv-x="482" 
d="M395 502h81l-218 -546q-33 -81 -66 -111t-76 -30q-23 0 -43 9v70q17 -6 32 -6q25 0 44 15t33 51l23 58l-199 490h83l155 -393zM202 562h-58l77 139h85zM341 562h-59l77 139h85z" />
    <glyph glyph-name="uni04F4" unicode="&#x4f4;" horiz-adv-x="643" 
d="M475 700h83v-700h-83v269q-32 -22 -78 -37.5t-98 -15.5q-105 0 -166.5 62.5t-61.5 172.5v249h83v-246q0 -78 40 -119t110 -41q51 0 95 15.5t76 37.5v353zM192 788q-14 14 -14 33q0 20 14 34t34 14t34 -14t14 -34q0 -19 -14 -33t-34 -14t-34 14zM368 788q-14 14 -14 33
q0 20 14 34t34 14t34 -14t14 -34q0 -19 -14 -33t-34 -14t-34 14z" />
    <glyph glyph-name="uni04F5" unicode="&#x4f5;" horiz-adv-x="516" 
d="M368 502h78v-502h-78v188q-23 -15 -58 -26t-76 -11q-52 0 -93.5 22.5t-65 64t-23.5 94.5v170h77v-167q0 -52 32 -82t86 -30q64 0 121 41v238zM133 596q-14 14 -14 34t14 33.5t34 13.5t34 -13.5t14 -33.5t-14 -34t-34 -14t-34 14zM297.5 596q-13.5 14 -13.5 34t13.5 33.5
t33.5 13.5t34 -13.5t14 -33.5t-14 -34t-34 -14t-33.5 14z" />
    <glyph glyph-name="uni04F6" unicode="&#x4f6;" horiz-adv-x="503" 
d="M256 -150h-83v150h-87v700h405v-78h-322v-544h87v-228z" />
    <glyph glyph-name="uni04F7" unicode="&#x4f7;" horiz-adv-x="406" 
d="M225 -128h-77v128h-78v502h326v-73h-249v-356h78v-201z" />
    <glyph glyph-name="uni04F8" unicode="&#x4f8;" horiz-adv-x="796" 
d="M312 439q64 0 115.5 -28.5t80.5 -78.5t29 -113q0 -62 -29 -112t-80.5 -78.5t-115.5 -28.5h-226v700h83v-261h143zM628 0v700h83v-700h-83zM312 78q63 0 102.5 39t39.5 102q0 64 -39.5 103t-102.5 39h-143v-283h143zM276 788q-14 14 -14 33q0 20 14 34t34 14t34 -14
t14 -34q0 -19 -14 -33t-34 -14t-34 14zM452 788q-14 14 -14 33q0 20 14 34t34 14t34 -14t14 -34q0 -19 -14 -33t-34 -14t-34 14z" />
    <glyph glyph-name="uni04F9" unicode="&#x4f9;" horiz-adv-x="660" 
d="M263 324q79 0 126.5 -45t47.5 -117t-47.5 -117t-126.5 -45h-193v502h77v-178h116zM512 0v502h78v-502h-78zM259 70q47 0 73.5 24.5t26.5 67.5t-26.5 67.5t-73.5 24.5h-112v-184h112zM214 596q-14 14 -14 34t14 33.5t34 13.5t34 -13.5t14 -33.5t-14 -34t-34 -14t-34 14z
M378.5 596q-13.5 14 -13.5 34t13.5 33.5t33.5 13.5t34 -13.5t14 -33.5t-14 -34t-34 -14t-33.5 14z" />
    <glyph glyph-name="uni04FA" unicode="&#x4fa;" horiz-adv-x="536" 
d="M518 622h-322v-247h234v-77h-234v-224h119v-109q0 -77 -40 -120.5t-105 -43.5q-35 0 -57 9v74q18 -6 41 -6q37 0 57.5 21.5t20.5 65.5v35h-119v298h-94v77h94v325h405v-78z" />
    <glyph glyph-name="uni04FB" unicode="&#x4fb;" horiz-adv-x="430" 
d="M415 429h-249v-171h184v-69h-184v-123h100v-102q0 -45 -17 -78.5t-46 -52t-62 -18.5q-35 0 -53 9v68q13 -5 33 -5q30 0 48.5 20t18.5 57v36h-100v189h-79v69h79v244h327v-73z" />
    <glyph glyph-name="uni04FC" unicode="&#x4fc;" horiz-adv-x="582" 
d="M515 83q27 -41 41 -74t14 -69q0 -61 -39.5 -100t-102.5 -39q-26 0 -53 9v74q18 -6 40 -6q37 0 54.5 17.5t17.5 47.5q0 22 -10 43t-33 58l-155 245l-184 -289h-92l230 355l-219 345h95l173 -279l173 279h92l-219 -345z" />
    <glyph glyph-name="uni04FD" unicode="&#x4fd;" horiz-adv-x="464" 
d="M414 60q44 -62 44 -118t-37 -91.5t-90 -35.5q-36 0 -52 9v68q12 -5 33 -5q33 0 50.5 15t17.5 43q0 19 -8.5 38t-28.5 49l-113 170l-134 -202h-87l174 256l-163 246h89l124 -191l124 191h86l-163 -246z" />
    <glyph glyph-name="uni04FE" unicode="&#x4fe;" horiz-adv-x="582" 
d="M361 319l207 -319h-96l-183 289l-184 -289h-92l207 319h-144v73h144l-196 308h95l173 -279l173 279h92l-196 -308h144v-73h-144z" />
    <glyph glyph-name="uni04FF" unicode="&#x4ff;" horiz-adv-x="464" 
d="M302 224l153 -224h-91l-134 202l-134 -202h-87l152 224h-105v65h105l-141 213h89l124 -191l124 191h86l-141 -213h105v-65h-105z" />
    <glyph glyph-name="uni0510" unicode="&#x510;" horiz-adv-x="544" 
d="M517 193q-6 -58 -36.5 -104t-83 -73t-123.5 -27q-67 0 -120 28t-82.5 74t-29.5 97q0 71 38 114t89 62q-45 20 -77.5 58.5t-32.5 91.5q0 52 28 97.5t78.5 72.5t114.5 27q62 0 111.5 -27t78.5 -73t34 -102h-83q-5 54 -43.5 89.5t-97.5 35.5q-64 0 -101 -34.5t-37 -87.5
t37 -85.5t100 -32.5h50v-73h-50q-71 0 -112.5 -36.5t-41.5 -94.5q0 -53 41 -88.5t110 -35.5q68 0 109 35.5t50 91.5h82z" />
    <glyph glyph-name="uni0511" unicode="&#x511;" horiz-adv-x="437" 
d="M416 152q-6 -70 -57 -116.5t-138 -46.5q-57 0 -98.5 20.5t-63 54.5t-21.5 74q0 47 23.5 78t55.5 44q-67 34 -67 104q0 40 21 74t60 54t89 20q84 0 132.5 -44.5t54.5 -111.5h-77q-4 38 -31 62t-74 24q-45 0 -71.5 -23t-26.5 -57q0 -33 24 -52t71 -19h52v-66h-55
q-50 0 -77 -22.5t-27 -61.5q0 -38 27 -59.5t80 -21.5q56 0 85 25t33 67h76z" />
    <glyph glyph-name="uni0512" unicode="&#x512;" horiz-adv-x="678" 
d="M378 -190v74q18 -6 41 -6q46 0 68.5 23.5t22.5 73.5v647h-267l-33 -421q-8 -103 -56 -157.5t-121 -54.5q-25 0 -41 6v77h17q108 0 119 134l38 494h427v-726q0 -82 -42.5 -127.5t-116.5 -45.5q-36 0 -56 9z" />
    <glyph glyph-name="uni0513" unicode="&#x513;" horiz-adv-x="538" 
d="M276 -176v68q12 -5 33 -5q39 0 60.5 22.5t21.5 68.5v451h-189l-22 -265q-7 -88 -46 -131.5t-101 -43.5q-18 0 -36 6v69h18q40 0 62 26t26 84l28 328h337v-524q0 -75 -39 -119t-99 -44q-38 0 -54 9z" />
    <glyph glyph-name="uni051A" unicode="&#x51a;" horiz-adv-x="740" 
d="M675 215.5q-23 -63.5 -65 -111.5l68 -67l-51 -53l-70 69q-41 -31 -88.5 -47.5t-98.5 -16.5q-87 0 -162.5 47.5t-120.5 130t-45 183.5t45 183.5t120.5 130t162.5 47.5t162.5 -47.5t120.5 -130t45 -183.5q0 -71 -23 -134.5zM500 109l-102 100l51 53l104 -103
q30 38 46.5 86.5t16.5 104.5q0 82 -34 146.5t-90.5 100.5t-121.5 36t-121.5 -36t-90.5 -100.5t-34 -146.5t34 -146.5t90.5 -100.5t121.5 -36q71 0 130 42z" />
    <glyph glyph-name="uni051B" unicode="&#x51b;" horiz-adv-x="576" 
d="M429 -180v244h-5q-9 -13 -31 -30.5t-54.5 -31t-69.5 -13.5q-63 0 -116 33.5t-84 93.5t-31 135t31 134.5t84 93t116 33.5q54 0 96.5 -25.5t60.5 -49.5h5l18 65h58v-682h-78zM350.5 86q35.5 24 57 67t21.5 98t-21.5 98t-57 67t-78.5 24t-78.5 -24t-57 -67t-21.5 -98
t21.5 -98t57 -67t78.5 -24t78.5 24z" />
    <glyph glyph-name="uni051C" unicode="&#x51c;" horiz-adv-x="876" 
d="M625 160l157 540h83l-212 -700h-62l-153 527l-153 -527h-63l-211 700h86l158 -540l153 540h60z" />
    <glyph glyph-name="uni051D" unicode="&#x51d;" horiz-adv-x="691" 
d="M489 130l118 372h79l-167 -502h-60l-114 363l-113 -363h-59l-167 502h82l117 -372l116 372h52z" />
    <glyph glyph-name="uni0524" unicode="&#x524;" horiz-adv-x="708" 
d="M688 -150h-83v150h-88v622h-348v-622h-83v700h514v-622h88v-228z" />
    <glyph glyph-name="uni0525" unicode="&#x525;" horiz-adv-x="576" 
d="M557 -128h-77v128h-79v429h-254v-429h-77v502h409v-429h78v-201z" />
    <glyph glyph-name="uni0526" unicode="&#x526;" horiz-adv-x="681" 
d="M573 78h87v-228h-83v150h-87v246q0 77 -41 118.5t-111 41.5q-49 0 -93 -15.5t-76 -36.5v-354h-83v700h83v-269q33 22 78 37.5t96 15.5q105 0 167.5 -62.5t62.5 -172.5v-171z" />
    <glyph glyph-name="uni0527" unicode="&#x527;" horiz-adv-x="598" 
d="M502 -128v128h-79v290q0 69 -37 109.5t-96 40.5q-62 0 -100 -40.5t-38 -109.5v-290h-77v700h77v-263h5q18 28 57 51.5t89 23.5q56 0 101.5 -27t71 -77t25.5 -116v-219h78v-201h-77z" />
    <glyph glyph-name="uni0528" unicode="&#x528;" horiz-adv-x="686" 
d="M517 700h83v-700h-83v319h-348v-345q0 -82 -42.5 -127.5t-116.5 -45.5q-36 0 -56 9v74q17 -6 41 -6q46 0 68.5 23.5t22.5 73.5v725h83v-303h348v303z" />
    <glyph glyph-name="uni0529" unicode="&#x529;" horiz-adv-x="558" 
d="M411 502h77v-502h-77v216h-264v-238q0 -75 -39 -119t-99 -44q-38 0 -54 9v68q12 -5 33 -5q39 0 60.5 22.5t21.5 68.5v524h77v-213h264v213z" />
    <glyph glyph-name="uni052E" unicode="&#x52e;" horiz-adv-x="701" 
d="M597 -150v150h-87v622h-267l-33 -421q-8 -103 -56 -157.5t-121 -54.5q-25 0 -41 6v77h17q108 0 119 134l38 494h427v-622h87v-228h-83z" />
    <glyph glyph-name="uni052F" unicode="&#x52f;" horiz-adv-x="566" 
d="M469 -128v128h-78v429h-189l-22 -265q-7 -88 -46 -131.5t-101 -43.5q-18 0 -36 6v69h18q40 0 62 26t26 84l28 328h337v-429h78v-201h-77z" />
    <glyph glyph-name="Wgrave" unicode="&#x1e80;" horiz-adv-x="876" 
d="M625 160l157 540h83l-212 -700h-62l-153 527l-153 -527h-63l-211 700h86l158 -540l153 540h60zM482 755h-63l-99 133h89z" />
    <glyph glyph-name="wgrave" unicode="&#x1e81;" horiz-adv-x="691" 
d="M489 130l118 372h79l-167 -502h-60l-114 363l-113 -363h-59l-167 502h82l117 -372l116 372h52zM388 562h-61l-94 139h86z" />
    <glyph glyph-name="Wacute" unicode="&#x1e82;" horiz-adv-x="876" 
d="M625 160l157 540h83l-212 -700h-62l-153 527l-153 -527h-63l-211 700h86l158 -540l153 540h60zM458 755h-63l72 133h90z" />
    <glyph glyph-name="wacute" unicode="&#x1e83;" horiz-adv-x="691" 
d="M489 130l118 372h79l-167 -502h-60l-114 363l-113 -363h-59l-167 502h82l117 -372l116 372h52zM366 562h-60l68 139h86z" />
    <glyph glyph-name="Wdieresis" unicode="&#x1e84;" horiz-adv-x="876" 
d="M625 160l157 540h83l-212 -700h-62l-153 527l-153 -527h-63l-211 700h86l158 -540l153 540h60zM316 788q-14 14 -14 33q0 20 14 34t34 14t34 -14t14 -34q0 -19 -14 -33t-34 -14t-34 14zM492 788q-14 14 -14 33q0 20 14 34t34 14t34 -14t14 -34q0 -19 -14 -33t-34 -14
t-34 14z" />
    <glyph glyph-name="wdieresis" unicode="&#x1e85;" horiz-adv-x="691" 
d="M489 130l118 372h79l-167 -502h-60l-114 363l-113 -363h-59l-167 502h82l117 -372l116 372h52zM231 596q-14 14 -14 34t14 33.5t34 13.5t34 -13.5t14 -33.5t-14 -34t-34 -14t-34 14zM395.5 596q-13.5 14 -13.5 34t13.5 33.5t33.5 13.5t34 -13.5t14 -33.5t-14 -34t-34 -14
t-33.5 14z" />
    <glyph glyph-name="uni1E9E" unicode="&#x1e9e;" horiz-adv-x="657" 
d="M412 399q54 0 101 -26t74.5 -71.5t27.5 -100.5q0 -57 -27 -103t-74.5 -72t-106.5 -26h-112v78h111q56 0 91 34t35 90q0 54 -36 89t-90 35h-103v74l164 223h-181q-33 0 -61 -17t-44.5 -46t-16.5 -65v-495h-83v495q0 59 26.5 105.5t73.5 73t105 26.5h279v-66l-175 -235h22z
" />
    <glyph glyph-name="uni1EA0" unicode="&#x1ea0;" horiz-adv-x="614" 
d="M611 0h-88l-64 172h-307l-64 -172h-85l265 700h79zM430 249l-124 337l-125 -337h249zM271.5 -164q-14.5 14 -14.5 36t14.5 36.5t36.5 14.5q21 0 35.5 -14.5t14.5 -36.5t-14.5 -36t-35.5 -14q-22 0 -36.5 14z" />
    <glyph glyph-name="uni1EA1" unicode="&#x1ea1;" horiz-adv-x="502" 
d="M345.5 488q43.5 -24 67.5 -67.5t24 -99.5v-321h-57l-18 65h-5q-20 -29 -58 -52.5t-94 -23.5q-50 0 -88 20.5t-58.5 55t-20.5 75.5q0 46 28 82t78.5 56t115.5 20h100v26q0 53 -31 85t-82 32q-47 0 -75 -24.5t-34 -62.5h-78q5 42 29.5 78.5t65.5 58t92 21.5q55 0 98.5 -24z
M320.5 97.5q39.5 38.5 39.5 96.5v40h-92q-73 0 -113 -24t-40 -68q0 -37 26.5 -60t74.5 -23q65 0 104.5 38.5zM217.5 -164q-14.5 14 -14.5 36t14.5 36.5t36.5 14.5q21 0 35.5 -14.5t14.5 -36.5t-14.5 -36t-35.5 -14q-22 0 -36.5 14z" />
    <glyph glyph-name="uni1EA2" unicode="&#x1ea2;" horiz-adv-x="614" 
d="M611 0h-88l-64 172h-307l-64 -172h-85l265 700h79zM430 249l-124 337l-125 -337h249zM289 752q21 31 21 60q0 21 -13.5 34t-37.5 13q-16 0 -31 -4v55q23 7 49 7q44 0 70 -23t26 -62q0 -45 -29 -80h-55z" />
    <glyph glyph-name="uni1EA3" unicode="&#x1ea3;" horiz-adv-x="502" 
d="M345.5 488q43.5 -24 67.5 -67.5t24 -99.5v-321h-57l-18 65h-5q-20 -29 -58 -52.5t-94 -23.5q-50 0 -88 20.5t-58.5 55t-20.5 75.5q0 46 28 82t78.5 56t115.5 20h100v26q0 53 -31 85t-82 32q-47 0 -75 -24.5t-34 -62.5h-78q5 42 29.5 78.5t65.5 58t92 21.5q55 0 98.5 -24z
M320.5 97.5q39.5 38.5 39.5 96.5v40h-92q-73 0 -113 -24t-40 -68q0 -37 26.5 -60t74.5 -23q65 0 104.5 38.5zM226 559q23 31 23 61q0 54 -53 54q-13 0 -28 -4v53q26 7 45 7q45 0 70 -24t25 -66t-29 -81h-53z" />
    <glyph glyph-name="uni1EA4" unicode="&#x1ea4;" horiz-adv-x="614" 
d="M611 0h-88l-64 172h-307l-64 -172h-85l265 700h79zM430 249l-124 337l-125 -337h249zM413 830l59 117h82l-82 -117h-59zM164 746l108 133h72l107 -133h-77l-67 84l-67 -84h-76z" />
    <glyph glyph-name="uni1EA5" unicode="&#x1ea5;" horiz-adv-x="502" 
d="M345.5 488q43.5 -24 67.5 -67.5t24 -99.5v-321h-57l-18 65h-5q-20 -29 -58 -52.5t-94 -23.5q-50 0 -88 20.5t-58.5 55t-20.5 75.5q0 46 28 82t78.5 56t115.5 20h100v26q0 53 -31 85t-82 32q-47 0 -75 -24.5t-34 -62.5h-78q5 42 29.5 78.5t65.5 58t92 21.5q55 0 98.5 -24z
M320.5 97.5q39.5 38.5 39.5 96.5v40h-92q-73 0 -113 -24t-40 -68q0 -37 26.5 -60t74.5 -23q65 0 104.5 38.5zM353 635l63 129h84l-88 -129h-59zM111 551l104 139h70l104 -139h-76l-64 91l-64 -91h-74z" />
    <glyph glyph-name="uni1EA6" unicode="&#x1ea6;" horiz-adv-x="614" 
d="M611 0h-88l-64 172h-307l-64 -172h-85l265 700h79zM430 249l-124 337l-125 -337h249zM441 947l59 -117h-59l-82 117h82zM164 746l108 133h72l107 -133h-77l-67 84l-67 -84h-76z" />
    <glyph glyph-name="uni1EA7" unicode="&#x1ea7;" horiz-adv-x="502" 
d="M345.5 488q43.5 -24 67.5 -67.5t24 -99.5v-321h-57l-18 65h-5q-20 -29 -58 -52.5t-94 -23.5q-50 0 -88 20.5t-58.5 55t-20.5 75.5q0 46 28 82t78.5 56t115.5 20h100v26q0 53 -31 85t-82 32q-47 0 -75 -24.5t-34 -62.5h-78q5 42 29.5 78.5t65.5 58t92 21.5q55 0 98.5 -24z
M320.5 97.5q39.5 38.5 39.5 96.5v40h-92q-73 0 -113 -24t-40 -68q0 -37 26.5 -60t74.5 -23q65 0 104.5 38.5zM376 764l62 -129h-59l-88 129h85zM111 551l104 139h70l104 -139h-76l-64 91l-64 -91h-74z" />
    <glyph glyph-name="uni1EA8" unicode="&#x1ea8;" horiz-adv-x="614" 
d="M611 0h-88l-64 172h-307l-64 -172h-85l265 700h79zM430 249l-124 337l-125 -337h249zM478.5 958.5q23.5 -20.5 23.5 -55.5q0 -21 -8 -40t-22 -33h-55q23 29 23 52q0 18 -11.5 29t-31.5 11q-18 0 -31 -4v55q24 6 49 6q40 0 63.5 -20.5zM164 746l108 133h72l107 -133h-77
l-67 84l-67 -84h-76z" />
    <glyph glyph-name="uni1EA9" unicode="&#x1ea9;" horiz-adv-x="502" 
d="M345.5 488q43.5 -24 67.5 -67.5t24 -99.5v-321h-57l-18 65h-5q-20 -29 -58 -52.5t-94 -23.5q-50 0 -88 20.5t-58.5 55t-20.5 75.5q0 46 28 82t78.5 56t115.5 20h100v26q0 53 -31 85t-82 32q-47 0 -75 -24.5t-34 -62.5h-78q5 42 29.5 78.5t65.5 58t92 21.5q55 0 98.5 -24z
M320.5 97.5q39.5 38.5 39.5 96.5v40h-92q-73 0 -113 -24t-40 -68q0 -37 26.5 -60t74.5 -23q65 0 104.5 38.5zM410.5 765q24.5 -22 24.5 -56q0 -20 -7 -37t-20 -36h-53q20 30 20 54q0 19 -12.5 30.5t-31.5 11.5q-15 0 -28 -4v53q20 6 44 6q39 0 63.5 -22zM111 551l104 139h70
l104 -139h-76l-64 91l-64 -91h-74z" />
    <glyph glyph-name="uni1EAA" unicode="&#x1eaa;" horiz-adv-x="614" 
d="M611 0h-88l-64 172h-307l-64 -172h-85l265 700h79zM430 249l-124 337l-125 -337h249zM231.5 941q-10.5 -14 -10.5 -37h-56q0 53 25 81.5t61 28.5q23 0 37.5 -9t31.5 -26q12 -11 19 -16.5t16 -5.5q14 0 24.5 13.5t10.5 37.5h57q0 -52 -26 -81t-60 -29q-23 0 -38.5 9.5
t-31.5 25.5q-12 11 -19 16.5t-16 5.5q-14 0 -24.5 -14zM343 879l107 -133h-77l-67 84l-67 -84h-76l108 133h72z" />
    <glyph glyph-name="uni1EAB" unicode="&#x1eab;" horiz-adv-x="502" 
d="M345.5 488q43.5 -24 67.5 -67.5t24 -99.5v-321h-57l-18 65h-5q-20 -29 -58 -52.5t-94 -23.5q-50 0 -88 20.5t-58.5 55t-20.5 75.5q0 46 28 82t78.5 56t115.5 20h100v26q0 53 -31 85t-82 32q-47 0 -75 -24.5t-34 -62.5h-78q5 42 29.5 78.5t65.5 58t92 21.5q55 0 98.5 -24z
M320.5 97.5q39.5 38.5 39.5 96.5v40h-92q-73 0 -113 -24t-40 -68q0 -37 26.5 -60t74.5 -23q65 0 104.5 38.5zM172.5 753.5q-10.5 -14.5 -10.5 -37.5h-56q0 52 25.5 81.5t60.5 29.5q22 0 36.5 -9t32.5 -26q12 -12 19.5 -17.5t16.5 -5.5q14 0 24.5 14.5t10.5 37.5h56
q0 -53 -25.5 -82t-60.5 -29q-23 0 -38 9.5t-31 26.5q-11 12 -19 17t-17 5q-14 0 -24.5 -14.5zM285 690l104 -139h-76l-64 91l-64 -91h-74l104 139h70z" />
    <glyph glyph-name="uni1EAC" unicode="&#x1eac;" horiz-adv-x="614" 
d="M611 0h-88l-64 172h-307l-64 -172h-85l265 700h79zM430 249l-124 337l-125 -337h249zM271.5 -164q-14.5 14 -14.5 36t14.5 36.5t36.5 14.5q21 0 35.5 -14.5t14.5 -36.5t-14.5 -36t-35.5 -14q-22 0 -36.5 14zM344 888l107 -133h-77l-67 84l-67 -84h-76l108 133h72z" />
    <glyph glyph-name="uni1EAD" unicode="&#x1ead;" horiz-adv-x="502" 
d="M345.5 488q43.5 -24 67.5 -67.5t24 -99.5v-321h-57l-18 65h-5q-20 -29 -58 -52.5t-94 -23.5q-50 0 -88 20.5t-58.5 55t-20.5 75.5q0 46 28 82t78.5 56t115.5 20h100v26q0 53 -31 85t-82 32q-47 0 -75 -24.5t-34 -62.5h-78q5 42 29.5 78.5t65.5 58t92 21.5q55 0 98.5 -24z
M320.5 97.5q39.5 38.5 39.5 96.5v40h-92q-73 0 -113 -24t-40 -68q0 -37 26.5 -60t74.5 -23q65 0 104.5 38.5zM217.5 -164q-14.5 14 -14.5 36t14.5 36.5t36.5 14.5q21 0 35.5 -14.5t14.5 -36.5t-14.5 -36t-35.5 -14q-22 0 -36.5 14zM285 701l104 -139h-76l-64 91l-64 -91h-74
l104 139h70z" />
    <glyph glyph-name="uni1EAE" unicode="&#x1eae;" horiz-adv-x="614" 
d="M611 0h-88l-64 172h-307l-64 -172h-85l265 700h79zM430 249l-124 337l-125 -337h249zM335 875h-58l58 117h83zM209.5 785q-37.5 36 -40.5 88h62q4 -31 23 -49.5t54 -18.5q34 0 53.5 18.5t23.5 49.5h62q-3 -52 -40.5 -88t-98.5 -36t-98.5 36z" />
    <glyph glyph-name="uni1EAF" unicode="&#x1eaf;" horiz-adv-x="502" 
d="M345.5 488q43.5 -24 67.5 -67.5t24 -99.5v-321h-57l-18 65h-5q-20 -29 -58 -52.5t-94 -23.5q-50 0 -88 20.5t-58.5 55t-20.5 75.5q0 46 28 82t78.5 56t115.5 20h100v26q0 53 -31 85t-82 32q-47 0 -75 -24.5t-34 -62.5h-78q5 42 29.5 78.5t65.5 58t92 21.5q55 0 98.5 -24z
M320.5 97.5q39.5 38.5 39.5 96.5v40h-92q-73 0 -113 -24t-40 -68q0 -37 26.5 -60t74.5 -23q65 0 104.5 38.5zM278 684h-59l62 129h84zM154 592.5q-37 36.5 -40 90.5h61q4 -33 23 -52t53 -19q33 0 52 19t23 52h61q-2 -54 -39 -90.5t-97 -36.5t-97 36.5z" />
    <glyph glyph-name="uni1EB0" unicode="&#x1eb0;" horiz-adv-x="614" 
d="M611 0h-88l-64 172h-307l-64 -172h-85l265 700h79zM430 249l-124 337l-125 -337h249zM339 875h-59l-82 117h82zM209.5 785q-37.5 36 -40.5 88h62q4 -31 23 -49.5t54 -18.5q34 0 53.5 18.5t23.5 49.5h62q-3 -52 -40.5 -88t-98.5 -36t-98.5 36z" />
    <glyph glyph-name="uni1EB1" unicode="&#x1eb1;" horiz-adv-x="502" 
d="M345.5 488q43.5 -24 67.5 -67.5t24 -99.5v-321h-57l-18 65h-5q-20 -29 -58 -52.5t-94 -23.5q-50 0 -88 20.5t-58.5 55t-20.5 75.5q0 46 28 82t78.5 56t115.5 20h100v26q0 53 -31 85t-82 32q-47 0 -75 -24.5t-34 -62.5h-78q5 42 29.5 78.5t65.5 58t92 21.5q55 0 98.5 -24z
M320.5 97.5q39.5 38.5 39.5 96.5v40h-92q-73 0 -113 -24t-40 -68q0 -37 26.5 -60t74.5 -23q65 0 104.5 38.5zM283 684h-59l-88 129h84zM154 592.5q-37 36.5 -40 90.5h61q4 -33 23 -52t53 -19q33 0 52 19t23 52h61q-2 -54 -39 -90.5t-97 -36.5t-97 36.5z" />
    <glyph glyph-name="uni1EB2" unicode="&#x1eb2;" horiz-adv-x="614" 
d="M611 0h-88l-64 172h-307l-64 -172h-85l265 700h79zM430 249l-124 337l-125 -337h249zM280 875q23 29 23 52q0 18 -11 29t-32 11q-16 0 -31 -4v54q23 7 49 7q40 0 64 -21t24 -55q0 -20 -8.5 -39.5t-22.5 -33.5h-55zM209.5 785q-37.5 36 -40.5 88h62q4 -31 23 -49.5
t54 -18.5q34 0 53.5 18.5t23.5 49.5h62q-3 -52 -40.5 -88t-98.5 -36t-98.5 36z" />
    <glyph glyph-name="uni1EB3" unicode="&#x1eb3;" horiz-adv-x="502" 
d="M345.5 488q43.5 -24 67.5 -67.5t24 -99.5v-321h-57l-18 65h-5q-20 -29 -58 -52.5t-94 -23.5q-50 0 -88 20.5t-58.5 55t-20.5 75.5q0 46 28 82t78.5 56t115.5 20h100v26q0 53 -31 85t-82 32q-47 0 -75 -24.5t-34 -62.5h-78q5 42 29.5 78.5t65.5 58t92 21.5q55 0 98.5 -24z
M320.5 97.5q39.5 38.5 39.5 96.5v40h-92q-73 0 -113 -24t-40 -68q0 -37 26.5 -60t74.5 -23q65 0 104.5 38.5zM224 684q20 30 20 54q0 22 -12.5 34.5t-31.5 12.5q-8 0 -28 -4v52q23 7 44 7q40 0 64 -23t24 -60q0 -35 -27 -73h-53zM154 592.5q-37 36.5 -40 90.5h61
q4 -33 23 -52t53 -19q33 0 52 19t23 52h61q-2 -54 -39 -90.5t-97 -36.5t-97 36.5z" />
    <glyph glyph-name="uni1EB4" unicode="&#x1eb4;" horiz-adv-x="614" 
d="M611 0h-88l-64 172h-307l-64 -172h-85l265 700h79zM430 249l-124 337l-125 -337h249zM324.5 904.5q-15.5 9.5 -31.5 25.5q-11 11 -18.5 16.5t-16.5 5.5q-14 0 -24.5 -14t-10.5 -37h-56q0 52 25.5 81t60.5 29q23 0 37.5 -9t31.5 -26q12 -11 19 -16.5t16 -5.5q14 0 25 14
t11 37h56q0 -52 -26 -81t-60 -29q-23 0 -38.5 9.5zM209.5 785q-37.5 36 -40.5 88h62q4 -31 23 -49.5t54 -18.5q34 0 53.5 18.5t23.5 49.5h62q-3 -52 -40.5 -88t-98.5 -36t-98.5 36z" />
    <glyph glyph-name="uni1EB5" unicode="&#x1eb5;" horiz-adv-x="502" 
d="M345.5 488q43.5 -24 67.5 -67.5t24 -99.5v-321h-57l-18 65h-5q-20 -29 -58 -52.5t-94 -23.5q-50 0 -88 20.5t-58.5 55t-20.5 75.5q0 46 28 82t78.5 56t115.5 20h100v26q0 53 -31 85t-82 32q-47 0 -75 -24.5t-34 -62.5h-78q5 42 29.5 78.5t65.5 58t92 21.5q55 0 98.5 -24z
M320.5 97.5q39.5 38.5 39.5 96.5v40h-92q-73 0 -113 -24t-40 -68q0 -37 26.5 -60t74.5 -23q65 0 104.5 38.5zM270 711.5q-15 9.5 -31 26.5q-12 12 -19.5 17t-16.5 5q-14 0 -24.5 -14.5t-10.5 -37.5h-56q0 52 25.5 81.5t60.5 29.5q22 0 36.5 -9t32.5 -26q12 -12 19.5 -17.5
t16.5 -5.5q14 0 24.5 14.5t10.5 37.5h56q0 -53 -25.5 -82t-60.5 -29q-23 0 -38 9.5zM152 592.5q-37 36.5 -40 90.5h62q4 -33 22.5 -52t52.5 -19t53 19t22 52h62q-3 -54 -40 -90.5t-97 -36.5t-97 36.5z" />
    <glyph glyph-name="uni1EB6" unicode="&#x1eb6;" horiz-adv-x="614" 
d="M611 0h-88l-64 172h-307l-64 -172h-85l265 700h79zM430 249l-124 337l-125 -337h249zM271.5 -164q-14.5 14 -14.5 36t14.5 36.5t36.5 14.5q21 0 35.5 -14.5t14.5 -36.5t-14.5 -36t-35.5 -14q-22 0 -36.5 14zM209.5 796q-37.5 36 -40.5 88h62q4 -31 23 -49.5t54 -18.5
q34 0 53.5 18.5t23.5 49.5h62q-3 -52 -40.5 -88t-98.5 -36t-98.5 36z" />
    <glyph glyph-name="uni1EB7" unicode="&#x1eb7;" horiz-adv-x="502" 
d="M345.5 488q43.5 -24 67.5 -67.5t24 -99.5v-321h-57l-18 65h-5q-20 -29 -58 -52.5t-94 -23.5q-50 0 -88 20.5t-58.5 55t-20.5 75.5q0 46 28 82t78.5 56t115.5 20h100v26q0 53 -31 85t-82 32q-47 0 -75 -24.5t-34 -62.5h-78q5 42 29.5 78.5t65.5 58t92 21.5q55 0 98.5 -24z
M320.5 97.5q39.5 38.5 39.5 96.5v40h-92q-73 0 -113 -24t-40 -68q0 -37 26.5 -60t74.5 -23q65 0 104.5 38.5zM217.5 -164q-14.5 14 -14.5 36t14.5 36.5t36.5 14.5q21 0 35.5 -14.5t14.5 -36.5t-14.5 -36t-35.5 -14q-22 0 -36.5 14zM153 604.5q-37 36.5 -40 90.5h61
q4 -33 23 -52.5t53 -19.5q33 0 52 19t23 53h61q-2 -54 -39 -90.5t-97 -36.5t-97 36.5z" />
    <glyph glyph-name="uni1EB8" unicode="&#x1eb8;" horiz-adv-x="580" 
d="M169 321v-243h368v-78h-451v700h441v-78h-358v-224h320v-77h-320zM275.5 -164q-14.5 14 -14.5 36t14.5 36.5t36.5 14.5q21 0 35.5 -14.5t14.5 -36.5t-14.5 -36t-35.5 -14q-22 0 -36.5 14z" />
    <glyph glyph-name="uni1EB9" unicode="&#x1eb9;" horiz-adv-x="544" 
d="M501 216h-384q9 -72 53 -113.5t109 -41.5q87 0 130 72h79q-23 -61 -80.5 -102.5t-130.5 -41.5q-67 0 -121.5 33.5t-86 93.5t-31.5 135q0 74 32 133.5t87 93.5t120 34q64 0 116.5 -32.5t82.5 -89t30 -125.5q0 -29 -5 -49zM171 397q-45 -44 -54 -115h312q-6 70 -48.5 114.5
t-103.5 44.5t-106 -44zM240.5 -164q-14.5 14 -14.5 36t14.5 36.5t36.5 14.5q21 0 35.5 -14.5t14.5 -36.5t-14.5 -36t-35.5 -14q-22 0 -36.5 14z" />
    <glyph glyph-name="uni1EBA" unicode="&#x1eba;" horiz-adv-x="580" 
d="M169 321v-243h368v-78h-451v700h441v-78h-358v-224h320v-77h-320zM288 752q21 31 21 60q0 21 -13.5 34t-37.5 13q-16 0 -31 -4v55q23 7 49 7q44 0 70 -23t26 -62q0 -45 -29 -80h-55z" />
    <glyph glyph-name="uni1EBB" unicode="&#x1ebb;" horiz-adv-x="544" 
d="M501 216h-384q9 -72 53 -113.5t109 -41.5q87 0 130 72h79q-23 -61 -80.5 -102.5t-130.5 -41.5q-67 0 -121.5 33.5t-86 93.5t-31.5 135q0 74 32 133.5t87 93.5t120 34q64 0 116.5 -32.5t82.5 -89t30 -125.5q0 -29 -5 -49zM171 397q-45 -44 -54 -115h312q-6 70 -48.5 114.5
t-103.5 44.5t-106 -44zM252 559q23 31 23 61q0 54 -53 54q-13 0 -28 -4v53q26 7 45 7q45 0 70 -24t25 -66t-29 -81h-53z" />
    <glyph glyph-name="uni1EBC" unicode="&#x1ebc;" horiz-adv-x="580" 
d="M169 321v-243h368v-78h-451v700h441v-78h-358v-224h320v-77h-320zM327.5 771.5q-16.5 9.5 -35.5 27.5q-13 12 -22 18t-19 6q-17 0 -28 -15t-11 -41h-56q0 56 26 86t64 30q25 0 41.5 -10t34.5 -28q13 -12 22 -18t19 -6q17 0 28 14.5t11 41.5h56q0 -55 -26.5 -85t-63.5 -30
q-24 0 -40.5 9.5z" />
    <glyph glyph-name="uni1EBD" unicode="&#x1ebd;" horiz-adv-x="544" 
d="M501 216h-384q9 -72 53 -113.5t109 -41.5q87 0 130 72h79q-23 -61 -80.5 -102.5t-130.5 -41.5q-67 0 -121.5 33.5t-86 93.5t-31.5 135q0 74 32 133.5t87 93.5t120 34q64 0 116.5 -32.5t82.5 -89t30 -125.5q0 -29 -5 -49zM171 397q-45 -44 -54 -115h312q-6 70 -48.5 114.5
t-103.5 44.5t-106 -44zM296.5 578.5q-15.5 10.5 -34.5 30.5q-15 15 -23 21t-18 6q-15 0 -26 -16t-11 -46h-56q0 60 25 90.5t63 30.5q23 0 39 -10.5t35 -30.5q14 -14 22 -20t18 -6q16 0 26.5 16t10.5 45h56q0 -59 -25.5 -90t-62.5 -31q-23 0 -38.5 10.5z" />
    <glyph glyph-name="uni1EBE" unicode="&#x1ebe;" horiz-adv-x="580" 
d="M169 321v-243h368v-78h-451v700h441v-78h-358v-224h320v-77h-320zM412 830l59 117h82l-82 -117h-59zM163 746l108 133h72l107 -133h-77l-67 84l-67 -84h-76z" />
    <glyph glyph-name="uni1EBF" unicode="&#x1ebf;" horiz-adv-x="544" 
d="M501 216h-384q9 -72 53 -113.5t109 -41.5q87 0 130 72h79q-23 -61 -80.5 -102.5t-130.5 -41.5q-67 0 -121.5 33.5t-86 93.5t-31.5 135q0 74 32 133.5t87 93.5t120 34q64 0 116.5 -32.5t82.5 -89t30 -125.5q0 -29 -5 -49zM171 397q-45 -44 -54 -115h312q-6 70 -48.5 114.5
t-103.5 44.5t-106 -44zM378 635l63 129h84l-88 -129h-59zM136 551l104 139h70l104 -139h-76l-64 91l-64 -91h-74z" />
    <glyph glyph-name="uni1EC0" unicode="&#x1ec0;" horiz-adv-x="580" 
d="M169 321v-243h368v-78h-451v700h441v-78h-358v-224h320v-77h-320zM440 947l59 -117h-59l-82 117h82zM163 746l108 133h72l107 -133h-77l-67 84l-67 -84h-76z" />
    <glyph glyph-name="uni1EC1" unicode="&#x1ec1;" horiz-adv-x="544" 
d="M501 216h-384q9 -72 53 -113.5t109 -41.5q87 0 130 72h79q-23 -61 -80.5 -102.5t-130.5 -41.5q-67 0 -121.5 33.5t-86 93.5t-31.5 135q0 74 32 133.5t87 93.5t120 34q64 0 116.5 -32.5t82.5 -89t30 -125.5q0 -29 -5 -49zM171 397q-45 -44 -54 -115h312q-6 70 -48.5 114.5
t-103.5 44.5t-106 -44zM401 764l62 -129h-59l-88 129h85zM136 551l104 139h70l104 -139h-76l-64 91l-64 -91h-74z" />
    <glyph glyph-name="uni1EC2" unicode="&#x1ec2;" horiz-adv-x="580" 
d="M169 321v-243h368v-78h-451v700h441v-78h-358v-224h320v-77h-320zM477.5 958.5q23.5 -20.5 23.5 -55.5q0 -21 -8 -40t-22 -33h-55q23 29 23 52q0 18 -11.5 29t-31.5 11q-18 0 -31 -4v55q24 6 49 6q40 0 63.5 -20.5zM163 746l108 133h72l107 -133h-77l-67 84l-67 -84h-76z
" />
    <glyph glyph-name="uni1EC3" unicode="&#x1ec3;" horiz-adv-x="544" 
d="M501 216h-384q9 -72 53 -113.5t109 -41.5q87 0 130 72h79q-23 -61 -80.5 -102.5t-130.5 -41.5q-67 0 -121.5 33.5t-86 93.5t-31.5 135q0 74 32 133.5t87 93.5t120 34q64 0 116.5 -32.5t82.5 -89t30 -125.5q0 -29 -5 -49zM171 397q-45 -44 -54 -115h312q-6 70 -48.5 114.5
t-103.5 44.5t-106 -44zM435.5 765q24.5 -22 24.5 -56q0 -20 -7 -37t-20 -36h-53q20 30 20 54q0 19 -12.5 30.5t-31.5 11.5q-15 0 -28 -4v53q20 6 44 6q39 0 63.5 -22zM136 551l104 139h70l104 -139h-76l-64 91l-64 -91h-74z" />
    <glyph glyph-name="uni1EC4" unicode="&#x1ec4;" horiz-adv-x="580" 
d="M169 321v-243h368v-78h-451v700h441v-78h-358v-224h320v-77h-320zM230.5 941q-10.5 -14 -10.5 -37h-56q0 53 25 81.5t61 28.5q23 0 37.5 -9t31.5 -26q12 -11 19 -16.5t16 -5.5q14 0 24.5 13.5t10.5 37.5h57q0 -52 -26 -81t-60 -29q-23 0 -38.5 9.5t-31.5 25.5
q-12 11 -19 16.5t-16 5.5q-14 0 -24.5 -14zM342 879l107 -133h-77l-67 84l-67 -84h-76l108 133h72z" />
    <glyph glyph-name="uni1EC5" unicode="&#x1ec5;" horiz-adv-x="544" 
d="M501 216h-384q9 -72 53 -113.5t109 -41.5q87 0 130 72h79q-23 -61 -80.5 -102.5t-130.5 -41.5q-67 0 -121.5 33.5t-86 93.5t-31.5 135q0 74 32 133.5t87 93.5t120 34q64 0 116.5 -32.5t82.5 -89t30 -125.5q0 -29 -5 -49zM171 397q-45 -44 -54 -115h312q-6 70 -48.5 114.5
t-103.5 44.5t-106 -44zM197.5 753.5q-10.5 -14.5 -10.5 -37.5h-56q0 52 25.5 81.5t60.5 29.5q22 0 36.5 -9t32.5 -26q12 -12 19.5 -17.5t16.5 -5.5q14 0 24.5 14.5t10.5 37.5h56q0 -53 -25.5 -82t-60.5 -29q-23 0 -38 9.5t-31 26.5q-11 12 -19 17t-17 5q-14 0 -24.5 -14.5z
M310 690l104 -139h-76l-64 91l-64 -91h-74l104 139h70z" />
    <glyph glyph-name="uni1EC6" unicode="&#x1ec6;" horiz-adv-x="580" 
d="M169 321v-243h368v-78h-451v700h441v-78h-358v-224h320v-77h-320zM275.5 -164q-14.5 14 -14.5 36t14.5 36.5t36.5 14.5q21 0 35.5 -14.5t14.5 -36.5t-14.5 -36t-35.5 -14q-22 0 -36.5 14zM343 888l107 -133h-77l-67 84l-67 -84h-76l108 133h72z" />
    <glyph glyph-name="uni1EC7" unicode="&#x1ec7;" horiz-adv-x="544" 
d="M501 216h-384q9 -72 53 -113.5t109 -41.5q87 0 130 72h79q-23 -61 -80.5 -102.5t-130.5 -41.5q-67 0 -121.5 33.5t-86 93.5t-31.5 135q0 74 32 133.5t87 93.5t120 34q64 0 116.5 -32.5t82.5 -89t30 -125.5q0 -29 -5 -49zM171 397q-45 -44 -54 -115h312q-6 70 -48.5 114.5
t-103.5 44.5t-106 -44zM240.5 -164q-14.5 14 -14.5 36t14.5 36.5t36.5 14.5q21 0 35.5 -14.5t14.5 -36.5t-14.5 -36t-35.5 -14q-22 0 -36.5 14zM310 701l104 -139h-76l-64 91l-64 -91h-74l104 139h70z" />
    <glyph glyph-name="uni1EC8" unicode="&#x1ec8;" horiz-adv-x="254" 
d="M169 0h-83v700h83v-700zM109 752q21 31 21 60q0 21 -13.5 34t-37.5 13q-16 0 -31 -4v55q23 7 49 7q44 0 70 -23t26 -62q0 -45 -29 -80h-55z" />
    <glyph glyph-name="uni1EC9" unicode="&#x1ec9;" horiz-adv-x="217" 
d="M147 0h-77v502h77v-502zM85 559q23 31 23 61q0 54 -53 54q-13 0 -28 -4v53q26 7 45 7q45 0 70 -24t25 -66t-29 -81h-53z" />
    <glyph glyph-name="uni1ECA" unicode="&#x1eca;" horiz-adv-x="254" 
d="M169 0h-83v700h83v-700zM91.5 -164q-14.5 14 -14.5 36t14.5 36.5t36.5 14.5q21 0 35.5 -14.5t14.5 -36.5t-14.5 -36t-35.5 -14q-22 0 -36.5 14z" />
    <glyph glyph-name="uni1ECB" unicode="&#x1ecb;" horiz-adv-x="217" 
d="M147 0h-77v502h77v-502zM72.5 593.5q-14.5 14.5 -14.5 36.5t14.5 36t36.5 14q21 0 35.5 -14t14.5 -36t-14.5 -36.5t-35.5 -14.5q-22 0 -36.5 14.5zM72.5 -164q-14.5 14 -14.5 36t14.5 36.5t36.5 14.5q21 0 35.5 -14.5t14.5 -36.5t-14.5 -36t-35.5 -14q-22 0 -36.5 14z
" />
    <glyph glyph-name="uni1ECC" unicode="&#x1ecc;" horiz-adv-x="740" 
d="M207.5 36.5q-75.5 47.5 -120.5 130t-45 183.5t45 183.5t120.5 130t162.5 47.5t162.5 -47.5t120.5 -130t45 -183.5t-45 -183.5t-120.5 -130t-162.5 -47.5t-162.5 47.5zM491.5 103q56.5 36 90 100.5t33.5 146.5t-33.5 146.5t-90 100.5t-121.5 36t-121.5 -36t-90 -100.5
t-33.5 -146.5t33.5 -146.5t90 -100.5t121.5 -36t121.5 36zM333.5 -164q-14.5 14 -14.5 36t14.5 36.5t36.5 14.5q21 0 35.5 -14.5t14.5 -36.5t-14.5 -36t-35.5 -14q-22 0 -36.5 14z" />
    <glyph glyph-name="uni1ECD" unicode="&#x1ecd;" horiz-adv-x="555" 
d="M157 23q-55 34 -87 94t-32 134t32 133.5t87 93.5t120 34t120.5 -34t87.5 -93.5t32 -133.5t-32.5 -134t-87.5 -94t-120 -34t-120 34zM358 86q37 24 59 67t22 98t-22 98t-59 67t-81 24q-43 0 -80.5 -24t-59.5 -67.5t-22 -97.5q0 -55 22 -98t59 -67t81 -24t81 24z
M241.5 -164q-14.5 14 -14.5 36t14.5 36.5t36.5 14.5q21 0 35.5 -14.5t14.5 -36.5t-14.5 -36t-35.5 -14q-22 0 -36.5 14z" />
    <glyph glyph-name="uni1ECE" unicode="&#x1ece;" horiz-adv-x="740" 
d="M207.5 36.5q-75.5 47.5 -120.5 130t-45 183.5t45 183.5t120.5 130t162.5 47.5t162.5 -47.5t120.5 -130t45 -183.5t-45 -183.5t-120.5 -130t-162.5 -47.5t-162.5 47.5zM491.5 103q56.5 36 90 100.5t33.5 146.5t-33.5 146.5t-90 100.5t-121.5 36t-121.5 -36t-90 -100.5
t-33.5 -146.5t33.5 -146.5t90 -100.5t121.5 -36t121.5 36zM351 752q21 31 21 60q0 21 -13.5 34t-37.5 13q-16 0 -31 -4v55q23 7 49 7q44 0 70 -23t26 -62q0 -45 -29 -80h-55z" />
    <glyph glyph-name="uni1ECF" unicode="&#x1ecf;" horiz-adv-x="555" 
d="M157 23q-55 34 -87 94t-32 134t32 133.5t87 93.5t120 34t120.5 -34t87.5 -93.5t32 -133.5t-32.5 -134t-87.5 -94t-120 -34t-120 34zM358 86q37 24 59 67t22 98t-22 98t-59 67t-81 24q-43 0 -80.5 -24t-59.5 -67.5t-22 -97.5q0 -55 22 -98t59 -67t81 -24t81 24zM254 559
q23 31 23 61q0 54 -53 54q-13 0 -28 -4v53q26 7 45 7q45 0 70 -24t25 -66t-29 -81h-53z" />
    <glyph glyph-name="uni1ED0" unicode="&#x1ed0;" horiz-adv-x="740" 
d="M207.5 36.5q-75.5 47.5 -120.5 130t-45 183.5t45 183.5t120.5 130t162.5 47.5t162.5 -47.5t120.5 -130t45 -183.5t-45 -183.5t-120.5 -130t-162.5 -47.5t-162.5 47.5zM491.5 103q56.5 36 90 100.5t33.5 146.5t-33.5 146.5t-90 100.5t-121.5 36t-121.5 -36t-90 -100.5
t-33.5 -146.5t33.5 -146.5t90 -100.5t121.5 -36t121.5 36zM475 830l59 117h82l-82 -117h-59zM226 746l108 133h72l107 -133h-77l-67 84l-67 -84h-76z" />
    <glyph glyph-name="uni1ED1" unicode="&#x1ed1;" horiz-adv-x="555" 
d="M157 23q-55 34 -87 94t-32 134t32 133.5t87 93.5t120 34t120.5 -34t87.5 -93.5t32 -133.5t-32.5 -134t-87.5 -94t-120 -34t-120 34zM358 86q37 24 59 67t22 98t-22 98t-59 67t-81 24q-43 0 -80.5 -24t-59.5 -67.5t-22 -97.5q0 -55 22 -98t59 -67t81 -24t81 24zM381 635
l63 129h84l-88 -129h-59zM139 551l104 139h70l104 -139h-76l-64 91l-64 -91h-74z" />
    <glyph glyph-name="uni1ED2" unicode="&#x1ed2;" horiz-adv-x="740" 
d="M207.5 36.5q-75.5 47.5 -120.5 130t-45 183.5t45 183.5t120.5 130t162.5 47.5t162.5 -47.5t120.5 -130t45 -183.5t-45 -183.5t-120.5 -130t-162.5 -47.5t-162.5 47.5zM491.5 103q56.5 36 90 100.5t33.5 146.5t-33.5 146.5t-90 100.5t-121.5 36t-121.5 -36t-90 -100.5
t-33.5 -146.5t33.5 -146.5t90 -100.5t121.5 -36t121.5 36zM503 947l59 -117h-59l-82 117h82zM226 746l108 133h72l107 -133h-77l-67 84l-67 -84h-76z" />
    </font>
</defs>
</svg>
