<?xml version="1.0" standalone="no"?>
<!DOCTYPE svg PUBLIC "-//W3C//DTD SVG 1.1//EN" "http://www.w3.org/Graphics/SVG/1.1/DTD/svg11.dtd" >
<svg xmlns="http://www.w3.org/2000/svg" xmlns:xlink="http://www.w3.org/1999/xlink" version="1.1">
<metadata>
Created by FontForge 20201107 at Mon Mar  6 10:17:17 2023
 By 
Copyright (c) 2018-2021 by TypeType. All rights reserved.
</metadata>
<defs>
<font id="TTCommonsProTrial-Rg" horiz-adv-x="555" >
  <font-face 
    font-family="TT Commons Pro Trial"
    font-weight="400"
    font-stretch="normal"
    units-per-em="1000"
    panose-1="2 11 1 3 3 1 2 2 2 4"
    ascent="800"
    descent="-200"
    x-height="500"
    cap-height="700"
    bbox="-394 -355 1438 1057"
    underline-thickness="50"
    underline-position="-230"
    unicode-range="U+0020-FB06"
  />
<missing-glyph horiz-adv-x="900" 
d="M100 284h45v-139h33v139h50v31h-128v126l19 -61h23l34 106l33 -106h23l54 170h-32l-34 -110l-35 110h-19l-35 -110l-31 103v157h700v-150h-110v-170h110v-91q-6 13 -19.5 20t-30.5 7q-27 0 -43.5 -14.5t-16.5 -34.5q0 -22 14.5 -32.5t39.5 -17.5q17 -5 25.5 -9.5
t8.5 -13.5q0 -21 -28 -21q-14 0 -21 7t-7 18h-33q0 -24 17 -39.5t44 -15.5q17 0 30.5 6.5t19.5 13.5v-163h-700v284zM344 380v62h24l35 -62h37l-40 67q36 17 36 50q0 22 -16 37.5t-41 15.5h-68v-170h33zM469 380h33v170h-33v-170zM580 380h32v139h50v31h-132v-31h50v-139z
M379 519q10 0 17 -6.5t7 -16.5q0 -12 -7.5 -17.5t-16.5 -5.5h-35v46h35zM722 483v36h78v-36h-78zM722 411v41h78v-41h-78zM387.5 167.5q22.5 24.5 22.5 61.5t-23 62t-59 25t-59 -25t-23 -62t22.5 -61.5t59.5 -24.5t59.5 24.5zM549 315h-32v-106q0 -28 19.5 -47t48.5 -19
t48 19t19 47v106h-32v-106q0 -15 -9.5 -25t-25.5 -10q-17 0 -26.5 10.5t-9.5 24.5v106zM800 224q-15 14 -46 22q-16 5 -23 9t-7 12q0 9 7.5 14.5t18.5 5.5q10 0 18 -7t8 -18h24v-38zM291.5 190q-14.5 16 -14.5 39q0 25 14 40.5t37 15.5q24 0 37.5 -15.5t13.5 -40.5
q0 -23 -14.5 -39t-36.5 -16t-36.5 16z" />
    <glyph glyph-name="f_f.liga" unicode="ff" horiz-adv-x="549" 
d="M442 624.5q-22 -24.5 -22 -73.5v-51h117v-61h-117v-439h-65v439h-190v-439h-65v439h-72v61h72v30q0 74 39 117t99 43q22 0 44 -8v-59q-17 6 -34 6q-39 0 -61 -24.5t-22 -74.5v-30h190v50q0 74 39 117t99 43q22 0 44 -8v-59q-17 6 -34 6q-39 0 -61 -24.5z" />
    <glyph glyph-name="fi.liga" unicode="fi" horiz-adv-x="487" 
d="M165 500h255v-500h-65v439h-190v-439h-65v439h-72v61h72v14q0 92 54.5 144t144.5 52q49 0 88 -18v-59q-41 16 -88 16q-62 0 -98 -34.5t-36 -100.5v-14z" />
    <glyph glyph-name="fl.liga" unicode="fl" horiz-adv-x="497" 
d="M361.5 704q33.5 -6 58.5 -18v-686h-65v642q-25 7 -61 7q-58 0 -93.5 -35t-35.5 -100v-14h117v-61h-117v-439h-65v439h-72v61h72v14q0 91 53.5 143.5t140.5 52.5q34 0 67.5 -6z" />
    <glyph glyph-name="f_f_i.liga" unicode="ffi" horiz-adv-x="742" 
d="M420 500h255v-500h-65v439h-190v-439h-65v439h-190v-439h-65v439h-72v61h72v30q0 74 39 117t99 43q22 0 44 -8v-59q-17 6 -34 6q-39 0 -61 -24.5t-22 -74.5v-30h190v14q0 92 54.5 144t144.5 52q49 0 88 -18v-59q-41 16 -88 16q-62 0 -98 -34.5t-36 -100.5v-14z" />
    <glyph glyph-name="f_f_l.liga" unicode="ffl" horiz-adv-x="752" 
d="M616.5 704q33.5 -6 58.5 -18v-686h-65v642q-25 7 -61 7q-58 0 -93.5 -35t-35.5 -100v-14h117v-61h-117v-439h-65v439h-190v-439h-65v439h-72v61h72v30q0 74 39 117t99 43q22 0 44 -8v-59q-17 6 -34 6q-39 0 -61 -24.5t-22 -74.5v-30h190v14q0 91 53.5 143.5t140.5 52.5
q34 0 67.5 -6z" />
    <glyph glyph-name="f_f_j.liga" unicode="ffj" horiz-adv-x="742" 
d="M420 500h255v-526q0 -74 -38.5 -116.5t-99.5 -42.5q-22 0 -44 8v59q17 -6 34 -6q39 0 61 24.5t22 73.5v465h-190v-439h-65v439h-190v-439h-65v439h-72v61h72v30q0 74 39 117t99 43q22 0 44 -8v-59q-17 6 -34 6q-39 0 -61 -24.5t-22 -74.5v-30h190v14q0 92 54.5 144
t144.5 52q49 0 88 -18v-59q-41 16 -88 16q-62 0 -98 -34.5t-36 -100.5v-14z" />
    <glyph glyph-name="f_j.liga" unicode="fj" horiz-adv-x="487" 
d="M165 500h255v-526q0 -74 -38.5 -116.5t-99.5 -42.5q-22 0 -44 8v59q17 -6 34 -6q39 0 61 24.5t22 73.5v465h-190v-439h-65v439h-72v61h72v14q0 92 54.5 144t144.5 52q49 0 88 -18v-59q-41 16 -88 16q-62 0 -98 -34.5t-36 -100.5v-14z" />
    <glyph glyph-name=".notdef" horiz-adv-x="900" 
d="M100 284h45v-139h33v139h50v31h-128v126l19 -61h23l34 106l33 -106h23l54 170h-32l-34 -110l-35 110h-19l-35 -110l-31 103v157h700v-150h-110v-170h110v-91q-6 13 -19.5 20t-30.5 7q-27 0 -43.5 -14.5t-16.5 -34.5q0 -22 14.5 -32.5t39.5 -17.5q17 -5 25.5 -9.5
t8.5 -13.5q0 -21 -28 -21q-14 0 -21 7t-7 18h-33q0 -24 17 -39.5t44 -15.5q17 0 30.5 6.5t19.5 13.5v-163h-700v284zM344 380v62h24l35 -62h37l-40 67q36 17 36 50q0 22 -16 37.5t-41 15.5h-68v-170h33zM469 380h33v170h-33v-170zM580 380h32v139h50v31h-132v-31h50v-139z
M379 519q10 0 17 -6.5t7 -16.5q0 -12 -7.5 -17.5t-16.5 -5.5h-35v46h35zM722 483v36h78v-36h-78zM722 411v41h78v-41h-78zM387.5 167.5q22.5 24.5 22.5 61.5t-23 62t-59 25t-59 -25t-23 -62t22.5 -61.5t59.5 -24.5t59.5 24.5zM549 315h-32v-106q0 -28 19.5 -47t48.5 -19
t48 19t19 47v106h-32v-106q0 -15 -9.5 -25t-25.5 -10q-17 0 -26.5 10.5t-9.5 24.5v106zM800 224q-15 14 -46 22q-16 5 -23 9t-7 12q0 9 7.5 14.5t18.5 5.5q10 0 18 -7t8 -18h24v-38zM291.5 190q-14.5 16 -14.5 39q0 25 14 40.5t37 15.5q24 0 37.5 -15.5t13.5 -40.5
q0 -23 -14.5 -39t-36.5 -16t-36.5 16z" />
    <glyph glyph-name=".null" horiz-adv-x="0" 
 />
    <glyph glyph-name="nonmarkingreturn" horiz-adv-x="0" 
 />
    <glyph glyph-name="space" unicode=" " horiz-adv-x="238" 
 />
    <glyph glyph-name="exclam" unicode="!" horiz-adv-x="282" 
d="M167 175h-52l-16 525h84zM104 5q-15 15 -15 37t15 37t37 15t37 -15t15 -37t-15 -37t-37 -15t-37 15z" />
    <glyph glyph-name="quotedbl" unicode="&#x22;" horiz-adv-x="306" 
d="M111 480h-59v220h59v-220zM254 480h-59v220h59v-220z" />
    <glyph glyph-name="numbersign" unicode="#" horiz-adv-x="673" 
d="M648 496l-16 -62h-128l-35 -168h133l-16 -62h-130l-43 -204h-67l43 204h-165l-43 -204h-67l43 204h-132l16 62h128l36 168h-133l15 62h130l43 204h68l-43 -204h164l43 204h68l-43 -204h131zM237 266h164l36 168h-165z" />
    <glyph glyph-name="dollar" unicode="$" horiz-adv-x="554" 
d="M454.5 50.5q-50.5 -51.5 -142.5 -59.5v-96h-70v97q-89 10 -141 67.5t-57 144.5h70q5 -71 48.5 -110t117.5 -39t114.5 34.5t40.5 90.5q0 43 -23 70t-56.5 43t-91.5 36q-66 22 -106.5 42t-68.5 57t-28 97q0 74 48.5 124.5t132.5 58.5v97h70v-98q82 -12 130 -68.5t52 -137.5
h-70q-4 66 -44.5 105t-106.5 39q-67 0 -104.5 -33.5t-37.5 -86.5q0 -40 22 -65.5t54 -40t89 -33.5q67 -21 109 -41.5t71 -60.5t29 -104q0 -78 -50.5 -129.5z" />
    <glyph glyph-name="percent" unicode="%" horiz-adv-x="687" 
d="M106.5 431q-33.5 19 -53.5 53t-20 77t20 77t53.5 53t72.5 19t72.5 -19t53.5 -53t20 -77t-20 -77t-53.5 -53t-72.5 -19t-72.5 19zM165 0h-67l424 700h67zM244 489q27 27 27 72t-27 72t-65 27t-65 -27t-27 -72t27 -72t65 -27t65 27zM435.5 9q-33.5 19 -53.5 53t-20 77
t20 77t53.5 53t72.5 19t72.5 -19t53.5 -53t20 -77t-20 -77t-53.5 -53t-72.5 -19t-72.5 19zM573 67q27 27 27 72t-27 72t-65 27t-65 -27t-27 -72t27 -72t65 -27t65 27z" />
    <glyph glyph-name="ampersand" unicode="&#x26;" horiz-adv-x="577" 
d="M602 0h-92l-85 97q-89 -107 -197 -107q-53 0 -94.5 21t-65 58t-23.5 85q0 58 29 106t86 93l23 18l-13 15q-45 51 -64 89t-19 77q0 45 20 81t55.5 56.5t79.5 20.5q42 0 78 -21t57 -57.5t21 -79.5q0 -39 -22 -79t-62 -77l-35 -32l145 -163l82 118h75l-114 -167zM174.5 492
q17.5 -31 61.5 -81l27 25q65 59 65 116q0 41 -24 67t-62 26t-61.5 -26t-23.5 -67q0 -29 17.5 -60zM382 146l-156 176l-20 -15q-47 -36 -69 -70t-22 -79q0 -48 30.5 -75.5t82.5 -27.5q79 0 154 91z" />
    <glyph glyph-name="quotesingle" unicode="'" horiz-adv-x="163" 
d="M111 480h-59v220h59v-220z" />
    <glyph glyph-name="parenleft" unicode="(" horiz-adv-x="295" 
d="M217 -214q-49 66 -100.5 188t-51.5 276t51.5 276t100.5 188l48 -32q-41 -63 -86.5 -179.5t-45.5 -252.5q0 -96 25 -186t55.5 -152.5t51.5 -93.5z" />
    <glyph glyph-name="parenright" unicode=")" horiz-adv-x="295" 
d="M30 -182q21 31 51.5 93.5t55.5 152.5t25 186q0 136 -45.5 252.5t-86.5 179.5l48 32q49 -66 100.5 -188t51.5 -276t-51.5 -276t-100.5 -188z" />
    <glyph glyph-name="asterisk" unicode="*" horiz-adv-x="359" 
d="M310 613l19 -55l-115 -29l80 -104l-47 -34l-67 114l-68 -114l-47 34l80 104l-115 29l19 55l108 -44l-6 131h57l-6 -132z" />
    <glyph glyph-name="plus" unicode="+" horiz-adv-x="570" 
d="M318 141h-65v189h-179v61h179v189h65v-189h179v-61h-179v-189z" />
    <glyph glyph-name="comma" unicode="," horiz-adv-x="182" 
d="M128 78q15 -16 15 -44q0 -50 -26 -94.5t-56 -74.5l-17 22q37 49 41 103q-20 2 -33 17t-13 35q0 22 15 37t37 15t37 -16z" />
    <glyph glyph-name="hyphen" unicode="-" horiz-adv-x="390" 
d="M351 234h-312v63h312v-63z" />
    <glyph glyph-name="period" unicode="." horiz-adv-x="182" 
d="M54 5q-15 15 -15 37t15 37t37 15t37 -15t15 -37t-15 -37t-37 -15t-37 15z" />
    <glyph glyph-name="slash" unicode="/" horiz-adv-x="350" 
d="M62 -200h-62l288 900h62z" />
    <glyph glyph-name="zero" unicode="0" horiz-adv-x="598" 
d="M171 31q-58 41 -92.5 122.5t-34.5 196.5t34.5 196.5t92.5 122.5t128 41t128 -41t92.5 -122.5t34.5 -196.5t-34.5 -196.5t-92.5 -122.5t-128 -41t-128 41zM392 86.5q42 31.5 67 98t25 165.5t-25 165.5t-67 98t-93 31.5t-93 -31.5t-67 -98t-25 -165.5t25 -165.5t67 -98
t93 -31.5t93 31.5z" />
    <glyph glyph-name="one" unicode="1" horiz-adv-x="330" 
d="M24 582l166 118h51v-700h-70v611l-114 -82z" />
    <glyph glyph-name="two" unicode="2" horiz-adv-x="529" 
d="M136 65h343v-65h-439v58l271 278q47 48 72.5 87.5t25.5 89.5q0 59 -40.5 95.5t-109.5 36.5t-111 -40.5t-45 -103.5h-70q2 58 31 105.5t79.5 75.5t115.5 28q64 0 114.5 -26.5t78 -71.5t27.5 -99q0 -59 -31.5 -111t-87.5 -109z" />
    <glyph glyph-name="three" unicode="3" horiz-adv-x="532" 
d="M488 187q0 -52 -29 -97.5t-80.5 -72.5t-116.5 -27q-66 0 -116 26t-80 69t-38 93h70q5 -31 26 -59t56.5 -46t81.5 -18q70 0 113 37t43 95q0 60 -43.5 98.5t-116.5 38.5h-38v63h33q67 0 107.5 35t40.5 91q0 59 -39 95.5t-105 36.5q-39 0 -71 -17t-50.5 -45.5t-21.5 -59.5
h-70q4 49 32.5 92t75.5 69t105 26q62 0 111 -26.5t76 -71.5t27 -99q0 -57 -33 -93.5t-79 -58.5q129 -52 129 -174z" />
    <glyph glyph-name="four" unicode="4" horiz-adv-x="534" 
d="M417 221h78v-65h-78v-156h-70v156h-324v59l308 485h86v-479zM347 221v382l-243 -382h243z" />
    <glyph glyph-name="five" unicode="5" horiz-adv-x="551" 
d="M397 432q51 -30 81 -84t30 -123q0 -68 -30.5 -121.5t-84 -83.5t-120.5 -30q-62 0 -110.5 26.5t-78 69.5t-36.5 92h70q4 -29 24.5 -57.5t54.5 -47t76 -18.5q46 0 84 21.5t59.5 60.5t21.5 88q0 50 -21.5 89.5t-59.5 61t-84 21.5q-59 0 -93.5 -30t-51.5 -66h-64l44 399h350
v-65h-291l-26 -229q23 23 60.5 39.5t81.5 16.5q63 0 114 -30z" />
    <glyph glyph-name="six" unicode="6" horiz-adv-x="549" 
d="M393.5 435.5q53.5 -31.5 85 -86.5t31.5 -123q0 -66 -31.5 -120t-85 -85t-117.5 -31t-117.5 31t-85 85t-31.5 120q0 55 17.5 97t42.5 80l200 297h76l-167 -244q27 11 65 11q64 0 117.5 -31.5zM359.5 76.5q37.5 21.5 59 61.5t21.5 91t-21.5 90.5t-59 61t-83.5 21.5
t-83.5 -21.5t-59 -61t-21.5 -90.5t21.5 -91t59 -61.5t83.5 -21.5t83.5 21.5z" />
    <glyph glyph-name="seven" unicode="7" horiz-adv-x="489" 
d="M25 635v65h429v-50l-275 -650h-75l269 635h-348z" />
    <glyph glyph-name="eight" unicode="8" horiz-adv-x="556" 
d="M476 310q36 -44 36 -112q0 -57 -28.5 -104.5t-82 -75.5t-123.5 -28t-123.5 28t-82 75.5t-28.5 104.5q0 68 36 112t82 64q-37 23 -63.5 59.5t-26.5 90.5q0 51 26 93.5t73 67.5t107 25t107 -25t73 -67.5t26 -93.5q0 -54 -26.5 -90.5t-63.5 -59.5q46 -20 82 -64zM179.5 611
q-37.5 -34 -37.5 -87q0 -52 37.5 -86t98.5 -34t98.5 34t37.5 86q0 53 -37.5 87t-98.5 34t-98.5 -34zM397.5 95.5q44.5 40.5 44.5 102.5q0 60 -44.5 100.5t-119.5 40.5t-119.5 -40.5t-44.5 -100.5q0 -62 44.5 -102.5t119.5 -40.5t119.5 40.5z" />
    <glyph glyph-name="nine" unicode="9" horiz-adv-x="549" 
d="M390.5 679q53.5 -31 85 -85t31.5 -120q0 -55 -17.5 -97t-42.5 -80l-200 -297h-76l167 244q-27 -11 -65 -11q-64 0 -117.5 31.5t-85 86.5t-31.5 123q0 66 31.5 120t85 85t117.5 31t117.5 -31zM356.5 319.5q37.5 21.5 59 61t21.5 90.5t-21.5 91t-59 61.5t-83.5 21.5
t-83.5 -21.5t-59 -61.5t-21.5 -91t21.5 -90.5t59 -61t83.5 -21.5t83.5 21.5z" />
    <glyph glyph-name="colon" unicode=":" horiz-adv-x="182" 
d="M54 411q-15 15 -15 37t15 37t37 15t37 -15t15 -37t-15 -37t-37 -15t-37 15zM54 5q-15 15 -15 37t15 37t37 15t37 -15t15 -37t-15 -37t-37 -15t-37 15z" />
    <glyph glyph-name="semicolon" unicode=";" horiz-adv-x="182" 
d="M54 411q-15 15 -15 37t15 37t37 15t37 -15t15 -37t-15 -37t-37 -15t-37 15zM128 78q15 -16 15 -44q0 -50 -26 -94.5t-56 -74.5l-17 22q37 49 41 103q-20 2 -33 17t-13 35q0 22 15 37t37 15t37 -16z" />
    <glyph glyph-name="less" unicode="&#x3c;" horiz-adv-x="570" 
d="M86 382l384 199v-67l-305 -154l305 -154v-67l-384 200v43z" />
    <glyph glyph-name="equal" unicode="=" horiz-adv-x="570" 
d="M497 433h-423v61h423v-61zM497 226h-423v61h423v-61z" />
    <glyph glyph-name="greater" unicode="&#x3e;" horiz-adv-x="570" 
d="M100 514v67l384 -200v-43l-384 -199v67l305 154z" />
    <glyph glyph-name="question" unicode="?" horiz-adv-x="473" 
d="M192 189q0 50 13 86t31.5 59t48.5 52q37 35 55 63.5t18 74.5q0 53 -33.5 87t-87.5 34q-59 0 -95.5 -41.5t-36.5 -108.5v-13h-70v13q0 61 26.5 110t72.5 77t103 28q54 0 97.5 -25t68.5 -67.5t25 -93.5q0 -41 -11.5 -71t-27.5 -50t-44 -48q-41 -38 -62 -73t-21 -93v-14h-70
v14zM191 5q-15 15 -15 37t15 37t37 15t37 -15.5t15 -36.5q0 -22 -15 -37t-37 -15t-37 15z" />
    <glyph glyph-name="at" unicode="@" horiz-adv-x="821" 
d="M228 -72q-85 48 -134.5 132.5t-49.5 189.5q0 104 49.5 188.5t134 133t186.5 48.5q101 0 186.5 -48t135 -130.5t49.5 -180.5q0 -63 -20 -108t-54 -68.5t-75 -23.5q-47 0 -74 25t-36 46h-5q-12 -21 -45 -46t-85 -25q-43 0 -80.5 23.5t-60.5 66.5t-23 98t23 98t60.5 66.5
t80.5 23.5q48 0 77 -22t42 -44h5l18 61h37v-222q0 -48 18 -70.5t48 -22.5q39 0 64 36t25 108q0 83 -42 153t-113.5 110.5t-155.5 40.5t-155 -41t-113 -113t-42 -161t41.5 -161t113 -113t156.5 -41q57 0 98 14t65 32l28 -48q-29 -19 -79 -36t-112 -17q-102 0 -187 48z
M478 153q32 37 32 96q0 60 -31.5 96.5t-79.5 36.5t-80 -37t-32 -96t32.5 -96t79.5 -37t79 37z" />
    <glyph glyph-name="A" unicode="A" horiz-adv-x="607" 
d="M602 0h-75l-67 178h-316l-67 -178h-72l266 700h65zM436 243l-134 357l-134 -357h268z" />
    <glyph glyph-name="B" unicode="B" horiz-adv-x="614" 
d="M529 317.5q41 -43.5 41 -115.5q0 -58 -28 -104t-78 -72t-115 -26h-260v700h249q60 0 106.5 -24t72 -65.5t25.5 -91.5q0 -57 -30.5 -92.5t-70.5 -50.5q47 -15 88 -58.5zM159 635v-233h179q62 0 98 32t36 85q0 52 -36 84t-98 32h-179zM349 65q66 0 108.5 39t42.5 98
t-42.5 98t-108.5 39h-190v-274h190z" />
    <glyph glyph-name="C" unicode="C" horiz-adv-x="704" 
d="M207.5 37q-74.5 47 -119 129.5t-44.5 183.5t44.5 183.5t119 129.5t160.5 47q70 0 130.5 -32t102.5 -87.5t59 -124.5h-70q-26 79 -83.5 129t-138.5 50q-67 0 -125.5 -37.5t-93.5 -105t-35 -152.5t35 -152.5t93.5 -105t125.5 -37.5q84 0 142.5 50t84.5 129h70
q-17 -69 -59.5 -124.5t-104 -87.5t-133.5 -32q-86 0 -160.5 47z" />
    <glyph glyph-name="D" unicode="D" horiz-adv-x="654" 
d="M89 0v700h178q95 0 173.5 -45t124 -125t45.5 -180t-45.5 -180t-124 -125t-173.5 -45h-178zM267 65q74 0 136.5 37t99.5 102t37 146t-37 146t-99.5 102t-136.5 37h-108v-570h108z" />
    <glyph glyph-name="E" unicode="E" horiz-adv-x="577" 
d="M159 328v-263h373v-65h-443v700h433v-65h-363v-242h325v-65h-325z" />
    <glyph glyph-name="F" unicode="F" horiz-adv-x="554" 
d="M514 700v-65h-355v-252h309v-65h-309v-318h-70v700h425z" />
    <glyph glyph-name="G" unicode="G" horiz-adv-x="743" 
d="M391 342h280v-342h-49l-16 113q-36 -52 -98 -87.5t-140 -35.5q-86 0 -160.5 47t-119 129.5t-44.5 183.5t44.5 183.5t119 129.5t160.5 47q69 0 130.5 -29.5t104 -81t57.5 -113.5h-70q-26 70 -83 114.5t-139 44.5q-67 0 -125.5 -37.5t-93.5 -105t-35 -152.5t35 -152.5
t93.5 -105t125.5 -37.5q63 0 115 28.5t83.5 79.5t34.5 116h-210v63z" />
    <glyph glyph-name="H" unicode="H" horiz-adv-x="680" 
d="M521 390v310h70v-700h-70v325h-362v-325h-70v700h70v-310h362z" />
    <glyph glyph-name="I" unicode="I" horiz-adv-x="248" 
d="M159 0h-70v700h70v-700z" />
    <glyph glyph-name="J" unicode="J" horiz-adv-x="525" 
d="M119.5 17.5q-48.5 27.5 -75.5 73t-27 98.5h70q0 -34 18.5 -65t51 -50t73.5 -19q64 0 102.5 40t38.5 106v499h70v-499q0 -62 -26 -110t-74 -74.5t-111 -26.5q-62 0 -110.5 27.5z" />
    <glyph glyph-name="K" unicode="K" horiz-adv-x="550" 
d="M89 0v700h70v-700h-70zM542 700l-299 -341l315 -359h-90l-309 355l299 345h84z" />
    <glyph glyph-name="L" unicode="L" horiz-adv-x="513" 
d="M503 0h-414v700h70v-635h344v-65z" />
    <glyph glyph-name="M" unicode="M" horiz-adv-x="830" 
d="M415 106l262 594h64v-700h-70v524l-233 -524h-47l-232 524v-524h-70v700h65z" />
    <glyph glyph-name="N" unicode="N" horiz-adv-x="690" 
d="M531 129v571h70v-700h-66l-376 571v-571h-70v700h66z" />
    <glyph glyph-name="O" unicode="O" horiz-adv-x="737" 
d="M207.5 37q-74.5 47 -119 129.5t-44.5 183.5t44.5 183.5t119 129.5t160.5 47t161 -47t119.5 -129.5t44.5 -183.5t-44.5 -183.5t-119.5 -129.5t-161 -47t-160.5 47zM494.5 92.5q58.5 37.5 93.5 105t35 152.5t-35 152.5t-93.5 105t-126.5 37.5q-67 0 -125.5 -37.5
t-93.5 -105t-35 -152.5t35 -152.5t93.5 -105t125.5 -37.5q68 0 126.5 37.5z" />
    <glyph glyph-name="P" unicode="P" horiz-adv-x="581" 
d="M311 700q62 0 113.5 -29t81.5 -78.5t30 -108.5q0 -60 -30 -109.5t-81.5 -78.5t-113.5 -29h-152v-267h-70v700h222zM311 332q67 0 111 43t44 109q0 43 -20 77.5t-55.5 54t-79.5 19.5h-152v-303h152z" />
    <glyph glyph-name="Q" unicode="Q" horiz-adv-x="737" 
d="M668.5 211q-24.5 -65 -68.5 -114l68 -67l-43 -45l-71 70q-40 -32 -87.5 -48.5t-98.5 -16.5q-86 0 -160.5 47t-119 129.5t-44.5 183.5t44.5 183.5t119 129.5t160.5 47t161 -47t119.5 -129.5t44.5 -183.5q0 -74 -24.5 -139zM507 101l-106 104l43 45l108 -106
q34 39 52.5 91.5t18.5 114.5q0 85 -35 152.5t-93.5 105t-126.5 37.5q-67 0 -125.5 -37.5t-93.5 -105t-35 -152.5t35 -152.5t93.5 -105t125.5 -37.5q76 0 139 46z" />
    <glyph glyph-name="R" unicode="R" horiz-adv-x="607" 
d="M481 0l-168 295h-154v-295h-70v700h244q62 0 111.5 -27.5t78 -74.5t28.5 -103q0 -71 -45 -123.5t-118 -69.5l174 -302h-81zM159 635v-275h174q65 0 106.5 38.5t41.5 96.5q0 61 -41 100.5t-107 39.5h-174z" />
    <glyph glyph-name="S" unicode="S" horiz-adv-x="554" 
d="M111.5 49q-62.5 59 -67.5 155h70q5 -71 48.5 -110t117.5 -39t114.5 34.5t40.5 90.5q0 43 -23 70t-56.5 43t-91.5 36q-66 22 -106.5 42t-68.5 57t-28 97q0 53 25.5 95t73.5 66t113 24q66 0 115 -27t76 -74.5t30 -107.5h-70q-4 66 -44.5 105t-106.5 39q-67 0 -104.5 -33.5
t-37.5 -86.5q0 -40 22 -65.5t54 -40t89 -33.5q67 -21 109 -41.5t71 -60.5t29 -104q0 -86 -59 -138t-167 -52q-105 0 -167.5 59z" />
    <glyph glyph-name="T" unicode="T" horiz-adv-x="536" 
d="M303 0h-70v635h-216v65h502v-65h-216v-635z" />
    <glyph glyph-name="U" unicode="U" horiz-adv-x="668" 
d="M203 23q-57 33 -88 92.5t-31 135.5v449h70v-449q0 -90 49 -143t131 -53q81 0 130.5 53t49.5 143v449h70v-449q0 -76 -31.5 -135.5t-88 -92.5t-130.5 -33t-131 33z" />
    <glyph glyph-name="V" unicode="V" horiz-adv-x="610" 
d="M307 88l220 612h71l-256 -700h-75l-255 700h75z" />
    <glyph glyph-name="W" unicode="W" horiz-adv-x="864" 
d="M619 141l163 559h70l-210 -700h-51l-160 549l-158 -549h-51l-210 700h73l163 -559l159 559h50z" />
    <glyph glyph-name="X" unicode="X" horiz-adv-x="571" 
d="M325 355l231 -355h-82l-190 298l-192 -298h-77l230 355l-219 345h80l181 -287l180 287h78z" />
    <glyph glyph-name="Y" unicode="Y" horiz-adv-x="534" 
d="M269 344l190 356h73l-230 -426v-274h-70v274l-230 426h76z" />
    <glyph glyph-name="Z" unicode="Z" horiz-adv-x="543" 
d="M491 657l-364 -592h377v-65h-465v43l364 592h-353v65h441v-43z" />
    <glyph glyph-name="bracketleft" unicode="[" horiz-adv-x="306" 
d="M281 -200h-192v900h192v-61h-127v-778h127v-61z" />
    <glyph glyph-name="backslash" unicode="\" horiz-adv-x="350" 
d="M350 -200h-62l-288 900h62z" />
    <glyph glyph-name="bracketright" unicode="]" horiz-adv-x="306" 
d="M217 -200h-192v61h127v778h-127v61h192v-900z" />
    <glyph glyph-name="asciicircum" unicode="^" horiz-adv-x="403" 
d="M220 700l148 -315h-62l-105 228l-106 -228h-60l148 315h37z" />
    <glyph glyph-name="underscore" unicode="_" horiz-adv-x="297" 
d="M317 -180h-337v61h337v-61z" />
    <glyph glyph-name="grave" unicode="`" horiz-adv-x="202" 
d="M172 560h-51l-91 134h75z" />
    <glyph glyph-name="a" unicode="a" horiz-adv-x="497" 
d="M340 486.5q42 -23.5 66 -65.5t24 -96v-325h-48l-17 68h-5q-19 -30 -58.5 -54t-95.5 -24q-50 0 -87.5 20.5t-58 54.5t-20.5 75q0 45 27.5 80.5t77 55.5t113.5 20h107v29q0 56 -33 90t-87 34q-51 0 -80.5 -26t-37.5 -68h-65q5 42 29.5 77.5t64.5 56.5t89 21q53 0 95 -23.5z
M323.5 91.5q41.5 40.5 41.5 102.5v43h-97q-77 0 -120 -25.5t-43 -71.5q0 -40 28 -64.5t80 -24.5q69 0 110.5 40.5z" />
    <glyph glyph-name="b" unicode="b" horiz-adv-x="576" 
d="M235.5 4q-33.5 14 -56 32t-32.5 32h-5l-17 -68h-48v700h65v-268h5q9 14 32 32t56.5 32t71.5 14q63 0 115.5 -33t83.5 -92.5t31 -134.5t-31 -134.5t-83.5 -92.5t-115.5 -33q-38 0 -71.5 14zM390 76q38 25 60 70.5t22 103.5t-22 103.5t-60 70.5t-83 25t-83 -25t-60 -70.5
t-22 -103.5t22 -103.5t60 -70.5t83 -25t83 25z" />
    <glyph glyph-name="c" unicode="c" horiz-adv-x="526" 
d="M156 23.5q-54 33.5 -85.5 93t-31.5 133.5t31.5 133.5t85.5 93t118 33.5q56 0 102 -25.5t76 -68.5t40 -93h-65q-17 58 -56 92t-97 34q-46 0 -85 -25t-62 -70.5t-23 -103.5t23 -103.5t62 -70.5t85 -25q59 0 97.5 33.5t55.5 92.5h65q-10 -50 -40 -92.5t-76.5 -68.5
t-101.5 -26q-64 0 -118 33.5z" />
    <glyph glyph-name="d" unicode="d" horiz-adv-x="576" 
d="M153.5 23q-52.5 33 -83.5 92.5t-31 134.5t31 134.5t83.5 92.5t115.5 33q38 0 71.5 -14t56.5 -32t32 -32h5v268h65v-700h-48l-17 68h-5q-10 -14 -32.5 -32t-56 -32t-71.5 -14q-63 0 -115.5 33zM352 76q38 25 60 70.5t22 103.5t-22 103.5t-60 70.5t-83 25t-83 -25
t-60 -70.5t-22 -103.5t22 -103.5t60 -70.5t83 -25t83 25z" />
    <glyph glyph-name="e" unicode="e" horiz-adv-x="537" 
d="M494 218h-388q8 -77 54.5 -122t115.5 -45q92 0 139 79h65q-23 -61 -79 -100.5t-127 -39.5q-66 0 -119.5 33t-84.5 92t-31 135q0 74 31.5 133.5t85.5 93t118 33.5q63 0 114.5 -32.5t80.5 -88.5t29 -124q0 -31 -4 -47zM195.5 427.5q-36.5 -21.5 -61 -61t-29.5 -89.5h327
q-5 75 -49 123.5t-109 48.5q-42 0 -78.5 -21.5z" />
    <glyph glyph-name="f" unicode="f" horiz-adv-x="294" 
d="M187 624.5q-22 -24.5 -22 -73.5v-51h117v-61h-117v-439h-65v439h-72v61h72v50q0 74 39 117t99 43q22 0 44 -8v-59q-17 6 -34 6q-39 0 -61 -24.5z" />
    <glyph glyph-name="g" unicode="g" horiz-adv-x="559" 
d="M135 -149q-57 41 -74 110h65q14 -42 52.5 -66t94.5 -24q67 0 108 40t41 106v79h-5q-9 -14 -31 -32.5t-54 -32.5t-69 -14q-61 0 -112.5 32t-81.5 88.5t-30 125.5q0 70 30 126.5t81.5 88.5t112.5 32q37 0 69 -13.5t54 -32t31 -32.5h5l17 68h48v-483q0 -61 -27 -108
t-75.5 -73t-111.5 -26q-81 0 -138 41zM341.5 102q36.5 24 58.5 66.5t22 94.5q0 53 -22 95.5t-58.5 66.5t-78.5 24q-43 0 -79.5 -24t-58 -66.5t-21.5 -95.5q0 -52 21.5 -94.5t58 -66.5t79.5 -24q42 0 78.5 24z" />
    <glyph glyph-name="h" unicode="h" horiz-adv-x="560" 
d="M77 0v700h65v-268h5q20 31 58.5 54.5t88.5 23.5q56 0 101.5 -27t71.5 -77t26 -116v-290h-65v290q0 74 -39 116.5t-101 42.5q-66 0 -106 -42.5t-40 -116.5v-290h-65z" />
    <glyph glyph-name="i" unicode="i" horiz-adv-x="209" 
d="M137 0h-65v500h65v-500zM73 593q-13 13 -13 32q0 20 13 32.5t32 12.5q20 0 32.5 -12.5t12.5 -32.5q0 -19 -13 -32t-32 -13t-32 13z" />
    <glyph glyph-name="j" unicode="j" horiz-adv-x="209" 
d="M-45 -177v59q16 -6 34 -6q39 0 61 24.5t22 73.5v526h65v-526q0 -74 -38.5 -116.5t-99.5 -42.5q-22 0 -44 8zM73 593q-13 13 -13 32q0 20 13 32.5t32 12.5q20 0 32.5 -12.5t12.5 -32.5q0 -19 -13 -32t-32 -13t-32 13z" />
    <glyph glyph-name="k" unicode="k" horiz-adv-x="455" 
d="M77 0v700h65v-700h-65zM441 500l-219 -242l241 -258h-86l-235 255l218 245h81z" />
    <glyph glyph-name="l" unicode="l" horiz-adv-x="219" 
d="M142 0h-65v700h65v-700z" />
    <glyph glyph-name="m" unicode="m" horiz-adv-x="792" 
d="M643 485q38 -25 60 -71.5t22 -107.5v-306h-65v306q0 68 -30.5 105.5t-81.5 37.5q-49 0 -83 -39.5t-34 -103.5v-306h-65v306q0 67 -31 105t-81 38t-83.5 -39.5t-33.5 -103.5v-306h-65v500h48l17 -68h5q18 30 48.5 54t74.5 24q56 0 92.5 -31.5t52.5 -67.5q18 37 55 68
t95 31q45 0 83 -25z" />
    <glyph glyph-name="n" unicode="n" 
d="M72 0v500h48l17 -68h5q20 31 58.5 54.5t88.5 23.5q56 0 101.5 -27t71.5 -77t26 -116v-290h-65v290q0 74 -39 116.5t-101 42.5q-66 0 -106 -42.5t-40 -116.5v-290h-65z" />
    <glyph glyph-name="o" unicode="o" horiz-adv-x="548" 
d="M156 23.5q-54 33.5 -85.5 93t-31.5 133.5t31.5 133.5t85.5 93t118 33.5t118 -33.5t85.5 -93t31.5 -133.5t-31.5 -133.5t-85.5 -93t-118 -33.5t-118 33.5zM359 76q39 25 62 70.5t23 103.5t-23 103.5t-62 70.5t-85 25t-85 -25t-62 -70.5t-23 -103.5t23 -103.5t62 -70.5
t85 -25t85 25z" />
    <glyph glyph-name="p" unicode="p" horiz-adv-x="571" 
d="M72 -180v680h48l17 -68h5q10 14 32.5 32t56 32t71.5 14q63 0 115.5 -33t83.5 -92.5t31 -134.5t-31 -134.5t-83.5 -92.5t-115.5 -33q-38 0 -71.5 14t-56.5 32t-32 32h-5v-248h-65zM385 76q38 25 60 70.5t22 103.5t-22 103.5t-60 70.5t-83 25t-83 -25t-60 -70.5t-22 -103.5
t22 -103.5t60 -70.5t83 -25t83 25z" />
    <glyph glyph-name="q" unicode="q" horiz-adv-x="571" 
d="M434 -180v248h-5q-9 -14 -32 -32t-56.5 -32t-71.5 -14q-63 0 -115.5 33t-83.5 92.5t-31 134.5t31 134.5t83.5 92.5t115.5 33q38 0 71.5 -14t56 -32t32.5 -32h5l17 68h48v-680h-65zM352 76q38 25 60 70.5t22 103.5t-22 103.5t-60 70.5t-83 25t-83 -25t-60 -70.5
t-22 -103.5t22 -103.5t60 -70.5t83 -25t83 25z" />
    <glyph glyph-name="r" unicode="r" horiz-adv-x="321" 
d="M72 0v500h48l17 -68h5q19 29 56 53.5t79 24.5q23 0 36 -4v-65q-16 4 -34 4q-63 0 -102.5 -42.5t-39.5 -116.5v-286h-65z" />
    <glyph glyph-name="s" unicode="s" horiz-adv-x="435" 
d="M131 11.5q-41 21.5 -65 57.5t-27 76h65q5 -42 36 -68t83 -26q51 0 78.5 23t27.5 58q0 26 -16 43t-39 27.5t-65 23.5q-51 16 -82 30.5t-53 42t-22 71.5q0 39 20.5 71t57.5 50.5t86 18.5q48 0 86 -20t60 -54.5t25 -75.5h-65q-5 42 -32 65.5t-74 23.5t-73 -21.5t-26 -54.5
q0 -36 29 -54.5t89 -37.5q51 -17 82.5 -32.5t54 -43.5t22.5 -73q0 -61 -46 -101.5t-125 -40.5q-51 0 -92 21.5z" />
    <glyph glyph-name="t" unicode="t" horiz-adv-x="320" 
d="M143 33q-39 43 -39 117v289h-89v61h39q61 0 61 60v73h54v-133h117v-61h-117v-290q0 -49 22 -73.5t61 -24.5q18 0 34 6v-59q-22 -8 -44 -8q-60 0 -99 43z" />
    <glyph glyph-name="u" unicode="u" 
d="M164.5 17q-45.5 27 -71.5 77t-26 116v290h65v-290q0 -74 39 -116.5t101 -42.5q66 0 106 42.5t40 116.5v290h65v-500h-48l-17 68h-5q-20 -31 -58.5 -54.5t-88.5 -23.5q-56 0 -101.5 27z" />
    <glyph glyph-name="v" unicode="v" horiz-adv-x="478" 
d="M240 87l163 413h68l-202 -500h-58l-204 500h70z" />
    <glyph glyph-name="w" unicode="w" horiz-adv-x="678" 
d="M481 117l123 383h67l-167 -500h-47l-119 381l-117 -381h-47l-167 500h70l121 -383l119 383h45z" />
    <glyph glyph-name="x" unicode="x" horiz-adv-x="454" 
d="M268 255l175 -255h-76l-141 209l-142 -209h-73l175 255l-164 245h75l131 -200l131 200h73z" />
    <glyph glyph-name="y" unicode="y" horiz-adv-x="474" 
d="M399 500h68l-221 -550q-32 -78 -63.5 -106.5t-71.5 -28.5q-17 0 -39 8v59q17 -6 31 -6q24 0 42.5 15t33.5 52l27 68l-199 489h70l163 -406z" />
    <glyph glyph-name="z" unicode="z" horiz-adv-x="416" 
d="M375 445l-264 -384h272v-61h-350v55l265 384h-260v61h337v-55z" />
    <glyph glyph-name="braceleft" unicode="{" horiz-adv-x="333" 
d="M187 350q0 -77 -63 -100q63 -22 63 -100v-208q0 -39 21 -60t57 -21h42v-61h-42q-66 0 -104.5 37.5t-38.5 104.5v208q0 38 -18 54.5t-59 16.5v58q41 0 59 16.5t18 54.5v208q0 67 38.5 104.5t104.5 37.5h43v-61h-43q-36 0 -57 -21t-21 -60v-208z" />
    <glyph glyph-name="bar" unicode="|" horiz-adv-x="326" 
d="M193 -180h-60v880h60v-880z" />
    <glyph glyph-name="braceright" unicode="}" horiz-adv-x="333" 
d="M211 350q0 -38 18 -54.5t59 -16.5v-58q-41 0 -59 -16.5t-18 -54.5v-208q0 -67 -38.5 -104.5t-104.5 -37.5h-43v61h43q36 0 57 21t21 60v208q0 78 63 100q-63 22 -63 100v208q0 39 -21 60t-57 21h-42v61h42q66 0 104.5 -37.5t38.5 -104.5v-208z" />
    <glyph glyph-name="asciitilde" unicode="~" horiz-adv-x="570" 
d="M327 298.5q-25 12.5 -57 36.5q-28 20 -46 29.5t-37 9.5q-27 0 -44 -21t-17 -62h-58q0 68 35 105t84 37q31 0 56.5 -12.5t56.5 -36.5q28 -20 46 -29.5t37 -9.5q27 0 44 21t17 62h58q0 -68 -35 -105t-84 -37q-31 0 -56 12.5z" />
    <glyph glyph-name="uni00A0" unicode="&#xa0;" horiz-adv-x="238" 
 />
    <glyph glyph-name="exclamdown" unicode="&#xa1;" horiz-adv-x="282" 
d="M104 411q-15 15 -15 37t15 37t37 15t37 -15t15 -37t-15 -37t-37 -15t-37 15zM183 -180h-84l16 495h52z" />
    <glyph glyph-name="cent" unicode="&#xa2;" horiz-adv-x="526" 
d="M371.5 84.5q38.5 33.5 55.5 92.5h65q-13 -69 -63.5 -121t-121.5 -63v-98h-65v97q-57 8 -103.5 43t-73 91t-26.5 124t26.5 124t73 91t103.5 43v97h65v-97q71 -11 121.5 -63.5t63.5 -121.5h-65q-17 58 -56 92t-97 34q-46 0 -85 -25t-62 -70.5t-23 -103.5t23 -103.5
t62 -70.5t85 -25q59 0 97.5 33.5z" />
    <glyph glyph-name="sterling" unicode="&#xa3;" horiz-adv-x="567" 
d="M186 149q0 -54 -40 -84h373v-65h-475v65q32 3 52 24.5t20 59.5v145h-72v65h72v142q0 58 27.5 105.5t75.5 75.5t105 28q56 0 101.5 -26.5t72 -72.5t29.5 -101h-70q-5 60 -40.5 97.5t-92.5 37.5q-59 0 -98.5 -40.5t-39.5 -103.5v-142h195v-65h-195v-145z" />
    <glyph glyph-name="currency" unicode="&#xa4;" horiz-adv-x="480" 
d="M375 259l60 -60l-41 -39l-57 57q-42 -33 -97 -33t-97 33l-57 -57l-41 39l60 60q-23 43 -23 90t23 90l-60 60l41 39l57 -57q42 33 97 33t97 -33l57 57l41 -39l-60 -60q23 -43 23 -90t-23 -90zM311 270q28 31 28 79q0 47 -28 78.5t-71 31.5t-71 -31t-28 -79t28 -79t71 -31
t71 31z" />
    <glyph glyph-name="yen" unicode="&#xa5;" horiz-adv-x="554" 
d="M469 700h73l-199 -369h124v-65h-155v-80h155v-65h-155v-121h-70v121h-155v65h155v80h-155v65h124l-199 369h76l191 -356z" />
    <glyph glyph-name="brokenbar" unicode="&#xa6;" horiz-adv-x="326" 
d="M193 355h-60v345h60v-345zM193 -180h-60v345h60v-345z" />
    <glyph glyph-name="section" unicode="&#xa7;" horiz-adv-x="494" 
d="M388 81q17 -29 17 -69t-20 -73t-56.5 -52.5t-82.5 -19.5q-51 0 -89.5 21.5t-59 56.5t-23.5 76h65q5 -43 33 -68t75 -25q41 0 67 23.5t26 60.5q0 42 -32 66t-96 51q-53 23 -85 42t-54.5 51t-22.5 78q0 89 103 145q-30 22 -47 51t-17 69t20 73t56.5 52.5t82.5 19.5
q51 0 89.5 -21.5t59 -56.5t23.5 -76h-65q-5 43 -33 68t-75 25q-41 0 -67 -23.5t-26 -60.5q0 -42 32 -66t96 -51q53 -23 85 -42t54.5 -51t22.5 -78q0 -89 -103 -145q30 -22 47 -51zM132 250.5q17 -20.5 41.5 -34t69.5 -33.5q22 -8 37 -16q99 39 99 110q0 29 -17 49.5
t-41.5 34t-69.5 33.5q-22 8 -37 16q-99 -39 -99 -110q0 -29 17 -49.5z" />
    <glyph glyph-name="dieresis" unicode="&#xa8;" horiz-adv-x="306" 
d="M43 594.5q-13 12.5 -13 30.5t12.5 30.5t30.5 12.5t30.5 -12t12.5 -31q0 -18 -12.5 -30.5t-30.5 -12.5q-17 0 -30 12.5zM202.5 594.5q-12.5 12.5 -12.5 30.5q0 19 12.5 31t30.5 12t30.5 -12.5t12.5 -30.5t-13 -30.5t-30 -12.5q-18 0 -30.5 12.5z" />
    <glyph glyph-name="copyright" unicode="&#xa9;" horiz-adv-x="788" 
d="M218 37q-80 47 -127 129.5t-47 183.5t47 183.5t127 129.5t176 47t176 -47t127 -129.5t47 -183.5t-47 -183.5t-127 -129.5t-176 -47t-176 47zM541.5 84q66.5 39 104.5 108.5t38 157.5t-38 157.5t-104.5 108.5t-147.5 39t-147.5 -39t-104.5 -108.5t-38 -157.5t38 -157.5
t104.5 -108.5t147.5 -39t147.5 39zM312.5 190.5q-38.5 23.5 -61.5 65.5t-23 94t23 94t61.5 65.5t81.5 23.5q61 0 105 -37t55 -90h-56q-26 75 -104 75q-28 0 -53.5 -16.5t-41 -46.5t-15.5 -68t15.5 -68t41 -46.5t53.5 -16.5q78 0 104 75h56q-11 -53 -55 -90t-105 -37
q-43 0 -81.5 23.5z" />
    <glyph glyph-name="ordfeminine" unicode="&#xaa;" horiz-adv-x="302" 
d="M232.5 678q31.5 -32 31.5 -84v-188h-42l-12 35h-5q-32 -41 -80 -41q-41 0 -70.5 24.5t-29.5 62.5q0 41 34 70t96 29h56v8q0 34 -16.5 52t-44.5 18q-25 0 -41 -14t-19 -34h-53q7 39 36 66.5t77 27.5q51 0 82.5 -32zM189.5 466.5q21.5 20.5 21.5 58.5v15h-52
q-42 0 -61.5 -14t-19.5 -37q0 -20 15 -31.5t41 -11.5q34 0 55.5 20.5z" />
    <glyph glyph-name="guillemotleft" unicode="&#xab;" horiz-adv-x="437" 
d="M225 87h-66l-119 178l119 178h66l-119 -178zM397 87h-66l-119 178l119 178h66l-119 -178z" />
    <glyph glyph-name="logicalnot" unicode="&#xac;" horiz-adv-x="570" 
d="M497 260h-61v100h-363v61h424v-161z" />
    <glyph glyph-name="uni00AD" unicode="&#xad;" horiz-adv-x="390" 
d="M351 234h-312v63h312v-63z" />
    <glyph glyph-name="registered" unicode="&#xae;" horiz-adv-x="402" 
d="M284.5 688q38.5 -22 61.5 -60.5t23 -85.5t-23 -85t-61.5 -60t-83.5 -22t-83.5 22t-61.5 60t-23 85t23 85.5t61.5 60.5t83.5 22t83.5 -22zM284.5 455.5q34.5 33.5 34.5 86.5t-34.5 87t-83.5 34t-83.5 -34t-34.5 -87t34.5 -86.5t83.5 -33.5t83.5 33.5zM265.5 540
q-9.5 -14 -26.5 -20l41 -60h-52l-36 55h-10v-55h-45v170h76q28 0 45 -16t17 -41q0 -19 -9.5 -33zM182 590v-35h25q23 0 23 18q0 17 -23 17h-25z" />
    <glyph glyph-name="macron" unicode="&#xaf;" horiz-adv-x="308" 
d="M278 600h-248v53h248v-53z" />
    <glyph glyph-name="degree" unicode="&#xb0;" horiz-adv-x="356" 
d="M106 434.5q-33 18.5 -53 52t-20 76.5t20 76.5t53 52t72 18.5t72 -18.5t53 -52t20 -76.5t-20 -76.5t-53 -52t-72 -18.5t-72 18.5zM238.5 495q25.5 25 25.5 68t-25.5 68t-60.5 25t-60.5 -25t-25.5 -68t25.5 -68t60.5 -25t60.5 25z" />
    <glyph glyph-name="plusminus" unicode="&#xb1;" horiz-adv-x="570" 
d="M497 394v-61h-179v-192h179v-61h-423v61h179v192h-179v61h179v189h65v-189h179z" />
    <glyph glyph-name="uni00B2" unicode="&#xb2;" horiz-adv-x="300" 
d="M119 514h148v-54h-231v44l131 137q19 20 30 37t11 34q0 22 -15.5 35.5t-40.5 13.5q-28 0 -45.5 -16.5t-17.5 -43.5h-59q0 49 34.5 81.5t87.5 32.5q51 0 83 -29.5t32 -71.5q0 -26 -13 -49t-34 -45z" />
    <glyph glyph-name="uni00B3" unicode="&#xb3;" horiz-adv-x="310" 
d="M259 612.5q18 -21.5 18 -53.5q0 -45 -32 -74.5t-89 -29.5q-54 0 -89 32.5t-37 81.5h59q2 -25 19.5 -42.5t47.5 -17.5q28 0 45 14t17 39q0 24 -17 38.5t-47 14.5h-32v49h32q23 0 37.5 13t14.5 35t-14.5 35.5t-37.5 13.5q-26 0 -42.5 -15t-16.5 -39h-59q0 44 33.5 76
t84.5 32q48 0 79.5 -28.5t31.5 -69.5q0 -25 -14 -43.5t-34 -28.5q24 -11 42 -32.5z" />
    <glyph glyph-name="acute" unicode="&#xb4;" horiz-adv-x="201" 
d="M81 560h-51l66 134h75z" />
    <glyph glyph-name="uni00B5" unicode="&#xb5;" 
d="M72 -180v680h65v-290q0 -74 39 -116.5t101 -42.5q66 0 106 42.5t40 116.5v290h65v-500h-48l-17 68h-5q-20 -30 -57.5 -54t-84.5 -24q-82 0 -134 57h-5v-227h-65z" />
    <glyph glyph-name="paragraph" unicode="&#xb6;" horiz-adv-x="542" 
d="M453 700v-800h-60v745h-126v-745h-60v471q-75 3 -121.5 48.5t-46.5 116.5q0 48 22.5 85t62.5 58t92 21h237z" />
    <glyph glyph-name="periodcentered" unicode="&#xb7;" horiz-adv-x="238" 
d="M82 228q-15 15 -15 37t15 37t37 15t37 -15t15 -37t-15 -37t-37 -15t-37 15z" />
    <glyph glyph-name="cedilla" unicode="&#xb8;" horiz-adv-x="224" 
d="M104 -43q44 -2 67 -23t23 -53q0 -38 -27.5 -59.5t-83.5 -21.5q-29 0 -53 8v41q22 -6 45 -6q71 0 71 38t-63 38q-18 0 -38 -4l41 100h45z" />
    <glyph glyph-name="uni00B9" unicode="&#xb9;" horiz-adv-x="232" 
d="M25 745l97 65h45v-350h-59v276l-53 -36z" />
    <glyph glyph-name="ordmasculine" unicode="&#xba;" horiz-adv-x="362" 
d="M108 420.5q-34 20.5 -54.5 56t-20.5 78.5t20.5 78.5t54.5 56t73 20.5t73 -20.5t54.5 -56t20.5 -78.5t-20.5 -78.5t-54.5 -56t-73 -20.5t-73 20.5zM244 482q26 28 26 73t-26 73t-63 28t-63 -28t-26 -73t26 -73t63 -28t63 28z" />
    <glyph glyph-name="guillemotright" unicode="&#xbb;" horiz-adv-x="437" 
d="M106 87h-66l119 178l-119 178h66l119 -178zM278 87h-66l119 178l-119 178h66l119 -178z" />
    <glyph glyph-name="onequarter.dlig" unicode="&#xbc;" horiz-adv-x="616" 
d="M25 635l97 65h45v-350h-59v276l-53 -36zM116 0h-67l425 700h67zM543 122h40v-54h-40v-68h-59v68h-160v48l151 234h68v-228zM484 122v145l-93 -145h93z" />
    <glyph glyph-name="onehalf.dlig" unicode="&#xbd;" horiz-adv-x="658" 
d="M25 635l97 65h45v-350h-59v276l-53 -36zM116 0h-67l425 700h67zM477 54h148v-54h-231v44l131 137q19 20 30 37t11 34q0 22 -15.5 35.5t-40.5 13.5q-28 0 -45.5 -16.5t-17.5 -43.5h-59q0 49 34.5 81.5t87.5 32.5q51 0 83 -29.5t32 -71.5q0 -26 -13 -49t-34 -45z" />
    <glyph glyph-name="threequarters.dlig" unicode="&#xbe;" horiz-adv-x="694" 
d="M259 502.5q18 -21.5 18 -53.5q0 -45 -32 -74.5t-89 -29.5q-54 0 -89 32.5t-37 81.5h59q2 -25 19.5 -42.5t47.5 -17.5q28 0 45 14t17 39q0 24 -17 38.5t-47 14.5h-32v49h32q23 0 37.5 13t14.5 35t-14.5 35.5t-37.5 13.5q-26 0 -42.5 -15t-16.5 -39h-59q0 44 33.5 76
t84.5 32q48 0 79.5 -28.5t31.5 -69.5q0 -25 -14 -43.5t-34 -28.5q24 -11 42 -32.5zM194 0h-67l425 700h67zM621 122h40v-54h-40v-68h-59v68h-160v48l151 234h68v-228zM562 122v145l-93 -145h93z" />
    <glyph glyph-name="questiondown" unicode="&#xbf;" horiz-adv-x="473" 
d="M208 411q-15 15 -15 37t15 37t37 15t37 -15t15 -37t-15 -37t-37 -15t-37 15zM138.5 -160.5q-43.5 24.5 -68.5 65t-25 86.5q0 38 11.5 66t28 47.5t44.5 45.5t44 44t27 45t11 62v14h70v-14q0 -45 -13 -78t-31.5 -54.5t-48.5 -49.5q-37 -34 -55 -60.5t-18 -67.5
q0 -46 34 -78.5t87 -32.5q59 0 95.5 41.5t36.5 108.5v13h70v-13q0 -61 -26.5 -110t-72.5 -77t-103 -28q-54 0 -97.5 24.5z" />
    <glyph glyph-name="Agrave" unicode="&#xc0;" horiz-adv-x="607" 
d="M602 0h-75l-67 178h-316l-67 -178h-72l266 700h65zM436 243l-134 357l-134 -357h268zM342 755h-54l-95 128h78z" />
    <glyph glyph-name="Aacute" unicode="&#xc1;" horiz-adv-x="607" 
d="M602 0h-75l-67 178h-316l-67 -178h-72l266 700h65zM436 243l-134 357l-134 -357h268zM320 755h-54l70 128h78z" />
    <glyph glyph-name="Acircumflex" unicode="&#xc2;" horiz-adv-x="607" 
d="M602 0h-75l-67 178h-316l-67 -178h-72l266 700h65zM436 243l-134 357l-134 -357h268zM336 883l104 -128h-68l-69 85l-68 -85h-67l105 128h63z" />
    <glyph glyph-name="Atilde" unicode="&#xc3;" horiz-adv-x="607" 
d="M602 0h-75l-67 178h-316l-67 -178h-72l266 700h65zM436 243l-134 357l-134 -357h268zM323 772q-16 10 -34 28q-14 13 -22.5 19t-18.5 6q-17 0 -28 -15t-11 -42h-50q0 53 25.5 81.5t61.5 28.5q23 0 39 -10t34 -28q14 -13 22.5 -19t18.5 -6q17 0 28 15t11 42h50
q0 -53 -26 -81.5t-61 -28.5q-23 0 -39 10z" />
    <glyph glyph-name="Adieresis" unicode="&#xc4;" horiz-adv-x="607" 
d="M602 0h-75l-67 178h-316l-67 -178h-72l266 700h65zM436 243l-134 357l-134 -357h268zM189 788.5q-13 12.5 -13 30.5t13 30.5t30 12.5q18 0 30.5 -12.5t12.5 -30.5t-12.5 -30.5t-30.5 -12.5q-17 0 -30 12.5zM359 788.5q-13 12.5 -13 30.5t13 30.5t30 12.5t30 -12.5
t13 -30.5t-13 -30.5t-30 -12.5t-30 12.5z" />
    <glyph glyph-name="Aring" unicode="&#xc5;" horiz-adv-x="607" 
d="M602 0h-75l-67 178h-316l-67 -178h-72l266 700h65zM436 243l-134 357l-134 -357h268zM237 781.5q-27 26.5 -27 64.5t27 65t67 27q39 0 66 -27t27 -65t-26.5 -64.5t-66.5 -26.5t-67 26.5zM338 811q13 13 13 35t-13.5 35.5t-33.5 13.5q-21 0 -34.5 -13.5t-13.5 -35.5
t13.5 -35t34.5 -13t34 13z" />
    <glyph glyph-name="AE" unicode="&#xc6;" horiz-adv-x="880" 
d="M492 328v-263h343v-65h-413v178h-271l-102 -178h-77l404 700h449v-65h-333v-242h295v-65h-295zM412 635l-224 -392h234v392h-10z" />
    <glyph glyph-name="Ccedilla" unicode="&#xc7;" horiz-adv-x="704" 
d="M665 234q-17 -67 -56.5 -121t-97.5 -86.5t-126 -36.5l-16 -33q44 -2 67 -23t23 -53q0 -38 -27.5 -59.5t-83.5 -21.5q-29 0 -53 8v41q22 -6 45 -6q71 0 71 38t-63 38q-18 0 -38 -4l31 76q-80 7 -148 55.5t-108.5 128t-40.5 175.5q0 101 44.5 183.5t119 129.5t160.5 47
q70 0 130.5 -32t102.5 -87.5t59 -124.5h-70q-26 79 -83.5 129t-138.5 50q-67 0 -125.5 -37.5t-93.5 -105t-35 -152.5t35 -152.5t93.5 -105t125.5 -37.5q84 0 142.5 50t84.5 129h70z" />
    <glyph glyph-name="Egrave" unicode="&#xc8;" horiz-adv-x="577" 
d="M159 328v-263h373v-65h-443v700h433v-65h-363v-242h325v-65h-325zM344 755h-54l-95 128h78z" />
    <glyph glyph-name="Eacute" unicode="&#xc9;" horiz-adv-x="577" 
d="M159 328v-263h373v-65h-443v700h433v-65h-363v-242h325v-65h-325zM322 755h-54l70 128h78z" />
    <glyph glyph-name="Ecircumflex" unicode="&#xca;" horiz-adv-x="577" 
d="M159 328v-263h373v-65h-443v700h433v-65h-363v-242h325v-65h-325zM338 883l104 -128h-68l-69 85l-68 -85h-67l105 128h63z" />
    <glyph glyph-name="Edieresis" unicode="&#xcb;" horiz-adv-x="577" 
d="M159 328v-263h373v-65h-443v700h433v-65h-363v-242h325v-65h-325zM191 788.5q-13 12.5 -13 30.5t13 30.5t30 12.5q18 0 30.5 -12.5t12.5 -30.5t-12.5 -30.5t-30.5 -12.5q-17 0 -30 12.5zM361 788.5q-13 12.5 -13 30.5t13 30.5t30 12.5t30 -12.5t13 -30.5t-13 -30.5
t-30 -12.5t-30 12.5z" />
    <glyph glyph-name="Igrave" unicode="&#xcc;" horiz-adv-x="248" 
d="M159 0h-70v700h70v-700zM162 755h-54l-95 128h78z" />
    <glyph glyph-name="Iacute" unicode="&#xcd;" horiz-adv-x="248" 
d="M159 0h-70v700h70v-700zM140 755h-54l70 128h78z" />
    <glyph glyph-name="Icircumflex" unicode="&#xce;" horiz-adv-x="248" 
d="M159 0h-70v700h70v-700zM156 883l104 -128h-68l-69 85l-68 -85h-67l105 128h63z" />
    <glyph glyph-name="Idieresis" unicode="&#xcf;" horiz-adv-x="248" 
d="M159 0h-70v700h70v-700zM27 788.5q-13 12.5 -13 30.5t13 30.5t30 12.5q18 0 30.5 -12.5t12.5 -30.5t-12.5 -30.5t-30.5 -12.5q-17 0 -30 12.5zM161 788.5q-13 12.5 -13 30.5t13 30.5t30 12.5q18 0 30.5 -12.5t12.5 -30.5t-12.5 -30.5t-30.5 -12.5q-17 0 -30 12.5z" />
    <glyph glyph-name="Eth" unicode="&#xd0;" horiz-adv-x="680" 
d="M293 700q95 0 173.5 -45t124 -125t45.5 -180t-45.5 -180t-124 -125t-173.5 -45h-178v319h-95v63h95v318h178zM293 65q74 0 136.5 37t99.5 102t37 146t-37 146t-99.5 102t-136.5 37h-108v-253h155v-63h-155v-254h108z" />
    <glyph glyph-name="Ntilde" unicode="&#xd1;" horiz-adv-x="690" 
d="M531 129v571h70v-700h-66l-376 571v-571h-70v700h66zM369 772q-16 10 -34 28q-14 13 -22.5 19t-18.5 6q-17 0 -28 -15t-11 -42h-50q0 53 25.5 81.5t61.5 28.5q23 0 39 -10t34 -28q14 -13 22.5 -19t18.5 -6q17 0 28 15t11 42h50q0 -53 -26 -81.5t-61 -28.5q-23 0 -39 10z
" />
    <glyph glyph-name="Ograve" unicode="&#xd2;" horiz-adv-x="737" 
d="M207.5 37q-74.5 47 -119 129.5t-44.5 183.5t44.5 183.5t119 129.5t160.5 47t161 -47t119.5 -129.5t44.5 -183.5t-44.5 -183.5t-119.5 -129.5t-161 -47t-160.5 47zM494.5 92.5q58.5 37.5 93.5 105t35 152.5t-35 152.5t-93.5 105t-126.5 37.5q-67 0 -125.5 -37.5
t-93.5 -105t-35 -152.5t35 -152.5t93.5 -105t125.5 -37.5q68 0 126.5 37.5zM406 755h-54l-95 128h78z" />
    <glyph glyph-name="Oacute" unicode="&#xd3;" horiz-adv-x="737" 
d="M207.5 37q-74.5 47 -119 129.5t-44.5 183.5t44.5 183.5t119 129.5t160.5 47t161 -47t119.5 -129.5t44.5 -183.5t-44.5 -183.5t-119.5 -129.5t-161 -47t-160.5 47zM494.5 92.5q58.5 37.5 93.5 105t35 152.5t-35 152.5t-93.5 105t-126.5 37.5q-67 0 -125.5 -37.5
t-93.5 -105t-35 -152.5t35 -152.5t93.5 -105t125.5 -37.5q68 0 126.5 37.5zM384 755h-54l70 128h78z" />
    <glyph glyph-name="Ocircumflex" unicode="&#xd4;" horiz-adv-x="737" 
d="M207.5 37q-74.5 47 -119 129.5t-44.5 183.5t44.5 183.5t119 129.5t160.5 47t161 -47t119.5 -129.5t44.5 -183.5t-44.5 -183.5t-119.5 -129.5t-161 -47t-160.5 47zM494.5 92.5q58.5 37.5 93.5 105t35 152.5t-35 152.5t-93.5 105t-126.5 37.5q-67 0 -125.5 -37.5
t-93.5 -105t-35 -152.5t35 -152.5t93.5 -105t125.5 -37.5q68 0 126.5 37.5zM400 883l104 -128h-68l-69 85l-68 -85h-67l105 128h63z" />
    <glyph glyph-name="Otilde" unicode="&#xd5;" horiz-adv-x="737" 
d="M207.5 37q-74.5 47 -119 129.5t-44.5 183.5t44.5 183.5t119 129.5t160.5 47t161 -47t119.5 -129.5t44.5 -183.5t-44.5 -183.5t-119.5 -129.5t-161 -47t-160.5 47zM494.5 92.5q58.5 37.5 93.5 105t35 152.5t-35 152.5t-93.5 105t-126.5 37.5q-67 0 -125.5 -37.5
t-93.5 -105t-35 -152.5t35 -152.5t93.5 -105t125.5 -37.5q68 0 126.5 37.5zM387 772q-16 10 -34 28q-14 13 -22.5 19t-18.5 6q-17 0 -28 -15t-11 -42h-50q0 53 25.5 81.5t61.5 28.5q23 0 39 -10t34 -28q14 -13 22.5 -19t18.5 -6q17 0 28 15t11 42h50q0 -53 -26 -81.5
t-61 -28.5q-23 0 -39 10z" />
    <glyph glyph-name="Odieresis" unicode="&#xd6;" horiz-adv-x="737" 
d="M207.5 37q-74.5 47 -119 129.5t-44.5 183.5t44.5 183.5t119 129.5t160.5 47t161 -47t119.5 -129.5t44.5 -183.5t-44.5 -183.5t-119.5 -129.5t-161 -47t-160.5 47zM494.5 92.5q58.5 37.5 93.5 105t35 152.5t-35 152.5t-93.5 105t-126.5 37.5q-67 0 -125.5 -37.5
t-93.5 -105t-35 -152.5t35 -152.5t93.5 -105t125.5 -37.5q68 0 126.5 37.5zM253 788.5q-13 12.5 -13 30.5t13 30.5t30 12.5q18 0 30.5 -12.5t12.5 -30.5t-12.5 -30.5t-30.5 -12.5q-17 0 -30 12.5zM423 788.5q-13 12.5 -13 30.5t13 30.5t30 12.5t30 -12.5t13 -30.5t-13 -30.5
t-30 -12.5t-30 12.5z" />
    <glyph glyph-name="multiply" unicode="&#xd7;" horiz-adv-x="570" 
d="M285 318l-138 -138l-42 42l139 138l-139 138l42 42l138 -138l138 138l42 -42l-139 -138l139 -138l-42 -42z" />
    <glyph glyph-name="Oslash" unicode="&#xd8;" horiz-adv-x="737" 
d="M693 663l-75 -82q36 -47 55.5 -106t19.5 -125q0 -101 -44.5 -183.5t-119.5 -129.5t-161 -47q-58 0 -112 22t-97 63l-73 -80l-42 42l75 82q-36 47 -55.5 106t-19.5 125q0 101 44.5 183.5t119 129.5t160.5 47q58 0 112 -22t98 -63l73 80zM242.5 607.5
q-58.5 -37.5 -93.5 -105t-35 -152.5q0 -103 51 -181l368 408q-34 33 -76.5 50.5t-88.5 17.5q-67 0 -125.5 -37.5zM494.5 92.5q58.5 37.5 93.5 105t35 152.5q0 103 -51 181l-368 -408q34 -33 76.5 -50.5t87.5 -17.5q68 0 126.5 37.5z" />
    <glyph glyph-name="Ugrave" unicode="&#xd9;" horiz-adv-x="668" 
d="M203 23q-57 33 -88 92.5t-31 135.5v449h70v-449q0 -90 49 -143t131 -53q81 0 130.5 53t49.5 143v449h70v-449q0 -76 -31.5 -135.5t-88 -92.5t-130.5 -33t-131 33zM372 755h-54l-95 128h78z" />
    <glyph glyph-name="Uacute" unicode="&#xda;" horiz-adv-x="668" 
d="M203 23q-57 33 -88 92.5t-31 135.5v449h70v-449q0 -90 49 -143t131 -53q81 0 130.5 53t49.5 143v449h70v-449q0 -76 -31.5 -135.5t-88 -92.5t-130.5 -33t-131 33zM350 755h-54l70 128h78z" />
    <glyph glyph-name="Ucircumflex" unicode="&#xdb;" horiz-adv-x="668" 
d="M203 23q-57 33 -88 92.5t-31 135.5v449h70v-449q0 -90 49 -143t131 -53q81 0 130.5 53t49.5 143v449h70v-449q0 -76 -31.5 -135.5t-88 -92.5t-130.5 -33t-131 33zM366 883l104 -128h-68l-69 85l-68 -85h-67l105 128h63z" />
    <glyph glyph-name="Udieresis" unicode="&#xdc;" horiz-adv-x="668" 
d="M203 23q-57 33 -88 92.5t-31 135.5v449h70v-449q0 -90 49 -143t131 -53q81 0 130.5 53t49.5 143v449h70v-449q0 -76 -31.5 -135.5t-88 -92.5t-130.5 -33t-131 33zM219 788.5q-13 12.5 -13 30.5t13 30.5t30 12.5q18 0 30.5 -12.5t12.5 -30.5t-12.5 -30.5t-30.5 -12.5
q-17 0 -30 12.5zM389 788.5q-13 12.5 -13 30.5t13 30.5t30 12.5t30 -12.5t13 -30.5t-13 -30.5t-30 -12.5t-30 12.5z" />
    <glyph glyph-name="Yacute" unicode="&#xdd;" horiz-adv-x="534" 
d="M269 344l190 356h73l-230 -426v-274h-70v274l-230 426h76zM285 755h-54l70 128h78z" />
    <glyph glyph-name="Thorn" unicode="&#xde;" horiz-adv-x="621" 
d="M360 576q62 0 114 -28.5t82 -77t30 -105.5t-30 -105.5t-82 -77t-114 -28.5h-201v-154h-70v700h70v-124h201zM360 219q44 0 80 19t56 52.5t20 74.5t-20 74.5t-56 52.5t-80 19h-201v-292h201z" />
    <glyph glyph-name="germandbls" unicode="&#xdf;" horiz-adv-x="559" 
d="M479.5 308q40.5 -45 40.5 -119q0 -54 -25 -97t-68.5 -67.5t-95.5 -24.5h-77v61h77q54 0 89 35.5t35 92.5q0 58 -35.5 95.5t-88.5 37.5h-72v61h33q29 0 55 17t42 47t16 69q0 60 -35.5 96.5t-94.5 36.5t-96 -39.5t-37 -107.5v-502h-65v502q0 59 26.5 106.5t72 74.5t99.5 27
q56 0 100.5 -25.5t69.5 -69.5t25 -99q0 -52 -24 -90t-55 -58q48 -15 88.5 -60z" />
    <glyph glyph-name="agrave" unicode="&#xe0;" horiz-adv-x="497" 
d="M340 486.5q42 -23.5 66 -65.5t24 -96v-325h-48l-17 68h-5q-19 -30 -58.5 -54t-95.5 -24q-50 0 -87.5 20.5t-58 54.5t-20.5 75q0 45 27.5 80.5t77 55.5t113.5 20h107v29q0 56 -33 90t-87 34q-51 0 -80.5 -26t-37.5 -68h-65q5 42 29.5 77.5t64.5 56.5t89 21q53 0 95 -23.5z
M323.5 91.5q41.5 40.5 41.5 102.5v43h-97q-77 0 -120 -25.5t-43 -71.5q0 -40 28 -64.5t80 -24.5q69 0 110.5 40.5zM283 560h-51l-91 134h75z" />
    <glyph glyph-name="aacute" unicode="&#xe1;" horiz-adv-x="497" 
d="M340 486.5q42 -23.5 66 -65.5t24 -96v-325h-48l-17 68h-5q-19 -30 -58.5 -54t-95.5 -24q-50 0 -87.5 20.5t-58 54.5t-20.5 75q0 45 27.5 80.5t77 55.5t113.5 20h107v29q0 56 -33 90t-87 34q-51 0 -80.5 -26t-37.5 -68h-65q5 42 29.5 77.5t64.5 56.5t89 21q53 0 95 -23.5z
M323.5 91.5q41.5 40.5 41.5 102.5v43h-97q-77 0 -120 -25.5t-43 -71.5q0 -40 28 -64.5t80 -24.5q69 0 110.5 40.5zM262 560h-51l66 134h75z" />
    <glyph glyph-name="acircumflex" unicode="&#xe2;" horiz-adv-x="497" 
d="M340 486.5q42 -23.5 66 -65.5t24 -96v-325h-48l-17 68h-5q-19 -30 -58.5 -54t-95.5 -24q-50 0 -87.5 20.5t-58 54.5t-20.5 75q0 45 27.5 80.5t77 55.5t113.5 20h107v29q0 56 -33 90t-87 34q-51 0 -80.5 -26t-37.5 -68h-65q5 42 29.5 77.5t64.5 56.5t89 21q53 0 95 -23.5z
M323.5 91.5q41.5 40.5 41.5 102.5v43h-97q-77 0 -120 -25.5t-43 -71.5q0 -40 28 -64.5t80 -24.5q69 0 110.5 40.5zM277 694l102 -134h-68l-65 91l-65 -91h-66l102 134h60z" />
    <glyph glyph-name="atilde" unicode="&#xe3;" horiz-adv-x="497" 
d="M340 486.5q42 -23.5 66 -65.5t24 -96v-325h-48l-17 68h-5q-19 -30 -58.5 -54t-95.5 -24q-50 0 -87.5 20.5t-58 54.5t-20.5 75q0 45 27.5 80.5t77 55.5t113.5 20h107v29q0 56 -33 90t-87 34q-51 0 -80.5 -26t-37.5 -68h-65q5 42 29.5 77.5t64.5 56.5t89 21q53 0 95 -23.5z
M323.5 91.5q41.5 40.5 41.5 102.5v43h-97q-77 0 -120 -25.5t-43 -71.5q0 -40 28 -64.5t80 -24.5q69 0 110.5 40.5zM265.5 577q-15.5 11 -33.5 31q-13 14 -21.5 20.5t-18.5 6.5q-16 0 -26.5 -16t-10.5 -47h-50q0 58 24.5 87t60.5 29q23 0 38.5 -11t33.5 -31
q13 -14 21.5 -20.5t18.5 -6.5q15 0 26 16.5t11 46.5h50q0 -58 -24.5 -87t-60.5 -29q-23 0 -38.5 11z" />
    <glyph glyph-name="adieresis" unicode="&#xe4;" horiz-adv-x="497" 
d="M340 486.5q42 -23.5 66 -65.5t24 -96v-325h-48l-17 68h-5q-19 -30 -58.5 -54t-95.5 -24q-50 0 -87.5 20.5t-58 54.5t-20.5 75q0 45 27.5 80.5t77 55.5t113.5 20h107v29q0 56 -33 90t-87 34q-51 0 -80.5 -26t-37.5 -68h-65q5 42 29.5 77.5t64.5 56.5t89 21q53 0 95 -23.5z
M323.5 91.5q41.5 40.5 41.5 102.5v43h-97q-77 0 -120 -25.5t-43 -71.5q0 -40 28 -64.5t80 -24.5q69 0 110.5 40.5zM137 594.5q-13 12.5 -13 30.5t12.5 30.5t30.5 12.5t30.5 -12t12.5 -31q0 -18 -12.5 -30.5t-30.5 -12.5q-17 0 -30 12.5zM296.5 594.5q-12.5 12.5 -12.5 30.5
q0 19 12.5 31t30.5 12t30.5 -12.5t12.5 -30.5t-13 -30.5t-30 -12.5q-18 0 -30.5 12.5z" />
    <glyph glyph-name="aring" unicode="&#xe5;" horiz-adv-x="497" 
d="M340 486.5q42 -23.5 66 -65.5t24 -96v-325h-48l-17 68h-5q-19 -30 -58.5 -54t-95.5 -24q-50 0 -87.5 20.5t-58 54.5t-20.5 75q0 45 27.5 80.5t77 55.5t113.5 20h107v29q0 56 -33 90t-87 34q-51 0 -80.5 -26t-37.5 -68h-65q5 42 29.5 77.5t64.5 56.5t89 21q53 0 95 -23.5z
M323.5 91.5q41.5 40.5 41.5 102.5v43h-97q-77 0 -120 -25.5t-43 -71.5q0 -40 28 -64.5t80 -24.5q69 0 110.5 40.5zM181.5 576q-26.5 26 -26.5 64t26.5 64t65.5 26t65.5 -26t26.5 -64t-26.5 -64t-65.5 -26t-65.5 26zM282.5 604.5q13.5 13.5 13.5 35.5t-13.5 35.5t-35.5 13.5
t-35.5 -13.5t-13.5 -35.5t13.5 -35.5t35.5 -13.5t35.5 13.5z" />
    <glyph glyph-name="ae" unicode="&#xe6;" horiz-adv-x="834" 
d="M790 225h-359q7 -80 50.5 -127t107.5 -47q42 0 72 19t51 60h65q-25 -65 -73.5 -102.5t-114.5 -37.5q-64 0 -113.5 31.5t-76.5 81.5q-21 -51 -68.5 -82t-123.5 -31q-51 0 -89 19.5t-58 52t-20 71.5q0 69 59.5 110t159.5 41h108v43q0 54 -33.5 88t-85.5 34
q-53 0 -82.5 -25.5t-38.5 -68.5h-65q6 42 30.5 77.5t65 56.5t90.5 21q60 0 102.5 -31t58.5 -73q23 45 69 74.5t109 29.5q61 0 108.5 -30.5t73.5 -85.5t26 -126q0 -28 -5 -43zM484.5 404q-43.5 -45 -52.5 -120h298q-2 69 -40 117t-103 48q-59 0 -102.5 -45zM325 91.5
q42 40.5 42 102.5v31h-99q-163 0 -163 -92q0 -37 27.5 -59.5t80.5 -22.5q70 0 112 40.5z" />
    <glyph glyph-name="ccedilla" unicode="&#xe7;" horiz-adv-x="526" 
d="M371.5 84.5q38.5 33.5 55.5 92.5h65q-9 -48 -37 -89.5t-71.5 -68t-95.5 -29.5l-16 -33q44 -2 67 -23t23 -53q0 -38 -27.5 -59.5t-83.5 -21.5q-29 0 -53 8v41q22 -6 45 -6q71 0 71 38t-63 38q-18 0 -38 -4l32 77q-58 7 -105 42t-74 91.5t-27 124.5q0 74 31.5 133.5
t85.5 93t118 33.5q56 0 102 -25.5t76 -68.5t40 -93h-65q-17 58 -56 92t-97 34q-46 0 -85 -25t-62 -70.5t-23 -103.5t23 -103.5t62 -70.5t85 -25q59 0 97.5 33.5z" />
    <glyph glyph-name="egrave" unicode="&#xe8;" horiz-adv-x="537" 
d="M494 218h-388q8 -77 54.5 -122t115.5 -45q92 0 139 79h65q-23 -61 -79 -100.5t-127 -39.5q-66 0 -119.5 33t-84.5 92t-31 135q0 74 31.5 133.5t85.5 93t118 33.5q63 0 114.5 -32.5t80.5 -88.5t29 -124q0 -31 -4 -47zM195.5 427.5q-36.5 -21.5 -61 -61t-29.5 -89.5h327
q-5 75 -49 123.5t-109 48.5q-42 0 -78.5 -21.5zM308 560h-51l-91 134h75z" />
    <glyph glyph-name="eacute" unicode="&#xe9;" horiz-adv-x="537" 
d="M494 218h-388q8 -77 54.5 -122t115.5 -45q92 0 139 79h65q-23 -61 -79 -100.5t-127 -39.5q-66 0 -119.5 33t-84.5 92t-31 135q0 74 31.5 133.5t85.5 93t118 33.5q63 0 114.5 -32.5t80.5 -88.5t29 -124q0 -31 -4 -47zM195.5 427.5q-36.5 -21.5 -61 -61t-29.5 -89.5h327
q-5 75 -49 123.5t-109 48.5q-42 0 -78.5 -21.5zM287 560h-51l66 134h75z" />
    <glyph glyph-name="ecircumflex" unicode="&#xea;" horiz-adv-x="537" 
d="M494 218h-388q8 -77 54.5 -122t115.5 -45q92 0 139 79h65q-23 -61 -79 -100.5t-127 -39.5q-66 0 -119.5 33t-84.5 92t-31 135q0 74 31.5 133.5t85.5 93t118 33.5q63 0 114.5 -32.5t80.5 -88.5t29 -124q0 -31 -4 -47zM195.5 427.5q-36.5 -21.5 -61 -61t-29.5 -89.5h327
q-5 75 -49 123.5t-109 48.5q-42 0 -78.5 -21.5zM302 694l102 -134h-68l-65 91l-65 -91h-66l102 134h60z" />
    <glyph glyph-name="edieresis" unicode="&#xeb;" horiz-adv-x="537" 
d="M494 218h-388q8 -77 54.5 -122t115.5 -45q92 0 139 79h65q-23 -61 -79 -100.5t-127 -39.5q-66 0 -119.5 33t-84.5 92t-31 135q0 74 31.5 133.5t85.5 93t118 33.5q63 0 114.5 -32.5t80.5 -88.5t29 -124q0 -31 -4 -47zM195.5 427.5q-36.5 -21.5 -61 -61t-29.5 -89.5h327
q-5 75 -49 123.5t-109 48.5q-42 0 -78.5 -21.5zM162 594.5q-13 12.5 -13 30.5t12.5 30.5t30.5 12.5t30.5 -12t12.5 -31q0 -18 -12.5 -30.5t-30.5 -12.5q-17 0 -30 12.5zM321.5 594.5q-12.5 12.5 -12.5 30.5q0 19 12.5 31t30.5 12t30.5 -12.5t12.5 -30.5t-13 -30.5t-30 -12.5
q-18 0 -30.5 12.5z" />
    <glyph glyph-name="igrave" unicode="&#xec;" horiz-adv-x="209" 
d="M137 0h-65v500h65v-500zM141 560h-51l-91 134h75z" />
    <glyph glyph-name="iacute" unicode="&#xed;" horiz-adv-x="209" 
d="M137 0h-65v500h65v-500zM120 560h-51l66 134h75z" />
    <glyph glyph-name="icircumflex" unicode="&#xee;" horiz-adv-x="209" 
d="M137 0h-65v500h65v-500zM135 694l102 -134h-68l-65 91l-65 -91h-66l102 134h60z" />
    <glyph glyph-name="idieresis" unicode="&#xef;" horiz-adv-x="209" 
d="M137 0h-65v500h65v-500zM13 594.5q-13 12.5 -13 30.5t12.5 30.5t30.5 12.5t30.5 -12t12.5 -31q0 -18 -12.5 -30.5t-30.5 -12.5q-17 0 -30 12.5zM137 594.5q-13 12.5 -13 30.5t12.5 30.5t30.5 12.5t30.5 -12t12.5 -31q0 -18 -12.5 -30.5t-30.5 -12.5q-17 0 -30 12.5z" />
    <glyph glyph-name="eth" unicode="&#xf0;" horiz-adv-x="560" 
d="M361 626q71 -66 110.5 -156t39.5 -200q0 -87 -31 -150.5t-85 -96.5t-120 -33q-64 0 -118 32t-86 88.5t-32 126.5q0 69 31.5 126t84.5 89.5t114 32.5q59 0 99.5 -25.5t56.5 -51.5h5q-33 111 -119 183l-91 -65l-35 46l77 54q-51 32 -118 52l21 57q82 -26 149 -72l101 72
l35 -46zM359.5 74.5q39.5 23.5 63 66t23.5 96.5q0 53 -23.5 96t-63 67t-84.5 24q-46 0 -85 -24t-62.5 -66.5t-23.5 -96.5t23.5 -96.5t62.5 -66t85 -23.5q45 0 84.5 23.5z" />
    <glyph glyph-name="ntilde" unicode="&#xf1;" 
d="M72 0v500h48l17 -68h5q20 31 58.5 54.5t88.5 23.5q56 0 101.5 -27t71.5 -77t26 -116v-290h-65v290q0 74 -39 116.5t-101 42.5q-66 0 -106 -42.5t-40 -116.5v-290h-65zM303.5 577q-15.5 11 -33.5 31q-13 14 -21.5 20.5t-18.5 6.5q-16 0 -26.5 -16t-10.5 -47h-50
q0 58 24.5 87t60.5 29q23 0 38.5 -11t33.5 -31q13 -14 21.5 -20.5t18.5 -6.5q15 0 26 16.5t11 46.5h50q0 -58 -24.5 -87t-60.5 -29q-23 0 -38.5 11z" />
    <glyph glyph-name="ograve" unicode="&#xf2;" horiz-adv-x="548" 
d="M156 23.5q-54 33.5 -85.5 93t-31.5 133.5t31.5 133.5t85.5 93t118 33.5t118 -33.5t85.5 -93t31.5 -133.5t-31.5 -133.5t-85.5 -93t-118 -33.5t-118 33.5zM359 76q39 25 62 70.5t23 103.5t-23 103.5t-62 70.5t-85 25t-85 -25t-62 -70.5t-23 -103.5t23 -103.5t62 -70.5
t85 -25t85 25zM310 560h-51l-91 134h75z" />
    <glyph glyph-name="oacute" unicode="&#xf3;" horiz-adv-x="548" 
d="M156 23.5q-54 33.5 -85.5 93t-31.5 133.5t31.5 133.5t85.5 93t118 33.5t118 -33.5t85.5 -93t31.5 -133.5t-31.5 -133.5t-85.5 -93t-118 -33.5t-118 33.5zM359 76q39 25 62 70.5t23 103.5t-23 103.5t-62 70.5t-85 25t-85 -25t-62 -70.5t-23 -103.5t23 -103.5t62 -70.5
t85 -25t85 25zM289 560h-51l66 134h75z" />
    <glyph glyph-name="ocircumflex" unicode="&#xf4;" horiz-adv-x="548" 
d="M156 23.5q-54 33.5 -85.5 93t-31.5 133.5t31.5 133.5t85.5 93t118 33.5t118 -33.5t85.5 -93t31.5 -133.5t-31.5 -133.5t-85.5 -93t-118 -33.5t-118 33.5zM359 76q39 25 62 70.5t23 103.5t-23 103.5t-62 70.5t-85 25t-85 -25t-62 -70.5t-23 -103.5t23 -103.5t62 -70.5
t85 -25t85 25zM304 694l102 -134h-68l-65 91l-65 -91h-66l102 134h60z" />
    <glyph glyph-name="otilde" unicode="&#xf5;" horiz-adv-x="548" 
d="M156 23.5q-54 33.5 -85.5 93t-31.5 133.5t31.5 133.5t85.5 93t118 33.5t118 -33.5t85.5 -93t31.5 -133.5t-31.5 -133.5t-85.5 -93t-118 -33.5t-118 33.5zM359 76q39 25 62 70.5t23 103.5t-23 103.5t-62 70.5t-85 25t-85 -25t-62 -70.5t-23 -103.5t23 -103.5t62 -70.5
t85 -25t85 25zM292.5 577q-15.5 11 -33.5 31q-13 14 -21.5 20.5t-18.5 6.5q-16 0 -26.5 -16t-10.5 -47h-50q0 58 24.5 87t60.5 29q23 0 38.5 -11t33.5 -31q13 -14 21.5 -20.5t18.5 -6.5q15 0 26 16.5t11 46.5h50q0 -58 -24.5 -87t-60.5 -29q-23 0 -38.5 11z" />
    <glyph glyph-name="odieresis" unicode="&#xf6;" horiz-adv-x="548" 
d="M156 23.5q-54 33.5 -85.5 93t-31.5 133.5t31.5 133.5t85.5 93t118 33.5t118 -33.5t85.5 -93t31.5 -133.5t-31.5 -133.5t-85.5 -93t-118 -33.5t-118 33.5zM359 76q39 25 62 70.5t23 103.5t-23 103.5t-62 70.5t-85 25t-85 -25t-62 -70.5t-23 -103.5t23 -103.5t62 -70.5
t85 -25t85 25zM164 594.5q-13 12.5 -13 30.5t12.5 30.5t30.5 12.5t30.5 -12t12.5 -31q0 -18 -12.5 -30.5t-30.5 -12.5q-17 0 -30 12.5zM323.5 594.5q-12.5 12.5 -12.5 30.5q0 19 12.5 31t30.5 12t30.5 -12.5t12.5 -30.5t-13 -30.5t-30 -12.5q-18 0 -30.5 12.5z" />
    <glyph glyph-name="divide" unicode="&#xf7;" horiz-adv-x="570" 
d="M248 496q-15 15 -15 37t15 37t37 15t37 -15t15 -37t-15 -37t-37 -15t-37 15zM492 330h-414v61h414v-61zM248 151q-15 15 -15 37t15 37t37 15t37 -15t15 -37t-15 -37t-37 -15t-37 15z" />
    <glyph glyph-name="oslash" unicode="&#xf8;" horiz-adv-x="548" 
d="M509 467l-50 -54q50 -69 50 -163q0 -74 -31.5 -133.5t-85.5 -93t-118 -33.5q-42 0 -80.5 15t-68.5 42l-48 -52l-38 38l50 54q-50 69 -50 163q0 74 31.5 133.5t85.5 93t118 33.5q41 0 79.5 -14.5t69.5 -41.5l48 51zM189 424q-39 -25 -62 -70.5t-23 -103.5q0 -64 29 -114
l247 271q-45 42 -106 42q-46 0 -85 -25zM359 76q39 25 62 70.5t23 103.5q0 64 -29 114l-248 -271q47 -42 107 -42q46 0 85 25z" />
    <glyph glyph-name="ugrave" unicode="&#xf9;" 
d="M164.5 17q-45.5 27 -71.5 77t-26 116v290h65v-290q0 -74 39 -116.5t101 -42.5q66 0 106 42.5t40 116.5v290h65v-500h-48l-17 68h-5q-20 -31 -58.5 -54.5t-88.5 -23.5q-56 0 -101.5 27zM311 560h-51l-91 134h75z" />
    <glyph glyph-name="uacute" unicode="&#xfa;" 
d="M164.5 17q-45.5 27 -71.5 77t-26 116v290h65v-290q0 -74 39 -116.5t101 -42.5q66 0 106 42.5t40 116.5v290h65v-500h-48l-17 68h-5q-20 -31 -58.5 -54.5t-88.5 -23.5q-56 0 -101.5 27zM290 560h-51l66 134h75z" />
    <glyph glyph-name="ucircumflex" unicode="&#xfb;" 
d="M164.5 17q-45.5 27 -71.5 77t-26 116v290h65v-290q0 -74 39 -116.5t101 -42.5q66 0 106 42.5t40 116.5v290h65v-500h-48l-17 68h-5q-20 -31 -58.5 -54.5t-88.5 -23.5q-56 0 -101.5 27zM305 694l102 -134h-68l-65 91l-65 -91h-66l102 134h60z" />
    <glyph glyph-name="udieresis" unicode="&#xfc;" 
d="M164.5 17q-45.5 27 -71.5 77t-26 116v290h65v-290q0 -74 39 -116.5t101 -42.5q66 0 106 42.5t40 116.5v290h65v-500h-48l-17 68h-5q-20 -31 -58.5 -54.5t-88.5 -23.5q-56 0 -101.5 27zM165 594.5q-13 12.5 -13 30.5t12.5 30.5t30.5 12.5t30.5 -12t12.5 -31
q0 -18 -12.5 -30.5t-30.5 -12.5q-17 0 -30 12.5zM324.5 594.5q-12.5 12.5 -12.5 30.5q0 19 12.5 31t30.5 12t30.5 -12.5t12.5 -30.5t-13 -30.5t-30 -12.5q-18 0 -30.5 12.5z" />
    <glyph glyph-name="yacute" unicode="&#xfd;" horiz-adv-x="474" 
d="M399 500h68l-221 -550q-32 -78 -63.5 -106.5t-71.5 -28.5q-17 0 -39 8v59q17 -6 31 -6q24 0 42.5 15t33.5 52l27 68l-199 489h70l163 -406zM253 560h-51l66 134h75z" />
    <glyph glyph-name="thorn" unicode="&#xfe;" horiz-adv-x="576" 
d="M77 -180v880h65v-268h5q10 14 32.5 32t56 32t71.5 14q63 0 115.5 -33t83.5 -92.5t31 -134.5t-31 -134.5t-83.5 -92.5t-115.5 -33q-38 0 -71.5 14t-56.5 32t-32 32h-5v-248h-65zM390 76q38 25 60 70.5t22 103.5t-22 103.5t-60 70.5t-83 25t-83 -25t-60 -70.5t-22 -103.5
t22 -103.5t60 -70.5t83 -25t83 25z" />
    <glyph glyph-name="ydieresis" unicode="&#xff;" horiz-adv-x="474" 
d="M399 500h68l-221 -550q-32 -78 -63.5 -106.5t-71.5 -28.5q-17 0 -39 8v59q17 -6 31 -6q24 0 42.5 15t33.5 52l27 68l-199 489h70l163 -406zM128 594.5q-13 12.5 -13 30.5t12.5 30.5t30.5 12.5t30.5 -12t12.5 -31q0 -18 -12.5 -30.5t-30.5 -12.5q-17 0 -30 12.5z
M287.5 594.5q-12.5 12.5 -12.5 30.5q0 19 12.5 31t30.5 12t30.5 -12.5t12.5 -30.5t-13 -30.5t-30 -12.5q-18 0 -30.5 12.5z" />
    <glyph glyph-name="Amacron" unicode="&#x100;" horiz-adv-x="607" 
d="M602 0h-75l-67 178h-316l-67 -178h-72l266 700h65zM436 243l-134 357l-134 -357h268zM431 792h-254v55h254v-55z" />
    <glyph glyph-name="amacron" unicode="&#x101;" horiz-adv-x="497" 
d="M340 486.5q42 -23.5 66 -65.5t24 -96v-325h-48l-17 68h-5q-19 -30 -58.5 -54t-95.5 -24q-50 0 -87.5 20.5t-58 54.5t-20.5 75q0 45 27.5 80.5t77 55.5t113.5 20h107v29q0 56 -33 90t-87 34q-51 0 -80.5 -26t-37.5 -68h-65q5 42 29.5 77.5t64.5 56.5t89 21q53 0 95 -23.5z
M323.5 91.5q41.5 40.5 41.5 102.5v43h-97q-77 0 -120 -25.5t-43 -71.5q0 -40 28 -64.5t80 -24.5q69 0 110.5 40.5zM371 600h-248v53h248v-53z" />
    <glyph glyph-name="Abreve" unicode="&#x102;" horiz-adv-x="607" 
d="M602 0h-75l-67 178h-316l-67 -178h-72l266 700h65zM436 243l-134 357l-134 -357h268zM209 795q-36 35 -38 84h54q4 -33 24 -51.5t55 -18.5t55 18.5t24 51.5h54q-2 -49 -38 -84t-95 -35t-95 35z" />
    <glyph glyph-name="abreve" unicode="&#x103;" horiz-adv-x="497" 
d="M340 486.5q42 -23.5 66 -65.5t24 -96v-325h-48l-17 68h-5q-19 -30 -58.5 -54t-95.5 -24q-50 0 -87.5 20.5t-58 54.5t-20.5 75q0 45 27.5 80.5t77 55.5t113.5 20h107v29q0 56 -33 90t-87 34q-51 0 -80.5 -26t-37.5 -68h-65q5 42 29.5 77.5t64.5 56.5t89 21q53 0 95 -23.5z
M323.5 91.5q41.5 40.5 41.5 102.5v43h-97q-77 0 -120 -25.5t-43 -71.5q0 -40 28 -64.5t80 -24.5q69 0 110.5 40.5zM153.5 601.5q-35.5 35.5 -37.5 86.5h54q4 -35 23.5 -54t53.5 -19t53.5 19t23.5 54h54q-2 -51 -37.5 -86.5t-93.5 -35.5t-93.5 35.5z" />
    <glyph glyph-name="Aogonek" unicode="&#x104;" horiz-adv-x="607" 
d="M531.5 -143.5q14.5 -13.5 39.5 -13.5q16 0 31 5v-43q-15 -5 -39 -5q-42 0 -68 23t-26 62q0 35 20.5 65.5t52.5 49.5h-15l-67 178h-316l-67 -178h-72l266 700h65l266 -700q-41 -24 -63 -51.5t-22 -55.5q0 -23 14.5 -36.5zM436 243l-134 357l-134 -357h268z" />
    <glyph glyph-name="aogonek" unicode="&#x105;" horiz-adv-x="497" 
d="M430 0q-41 -24 -63 -51.5t-22 -55.5q0 -23 14.5 -36.5t39.5 -13.5q16 0 31 5v-43q-15 -5 -39 -5q-42 0 -68 23t-26 62q0 38 24 70t59 51l-15 62h-5q-19 -30 -58.5 -54t-95.5 -24q-50 0 -87.5 20.5t-58 54.5t-20.5 75q0 45 27.5 80.5t77 55.5t113.5 20h107v29q0 56 -33 90
t-87 34q-51 0 -80.5 -26t-37.5 -68h-65q5 42 29.5 77.5t64.5 56.5t89 21q53 0 95 -23.5t66 -65.5t24 -96v-325zM323.5 91.5q41.5 40.5 41.5 102.5v43h-97q-77 0 -120 -25.5t-43 -71.5q0 -40 28 -64.5t80 -24.5q69 0 110.5 40.5z" />
    <glyph glyph-name="Cacute" unicode="&#x106;" horiz-adv-x="704" 
d="M207.5 37q-74.5 47 -119 129.5t-44.5 183.5t44.5 183.5t119 129.5t160.5 47q70 0 130.5 -32t102.5 -87.5t59 -124.5h-70q-26 79 -83.5 129t-138.5 50q-67 0 -125.5 -37.5t-93.5 -105t-35 -152.5t35 -152.5t93.5 -105t125.5 -37.5q84 0 142.5 50t84.5 129h70
q-17 -69 -59.5 -124.5t-104 -87.5t-133.5 -32q-86 0 -160.5 47zM382 755h-54l70 128h78z" />
    <glyph glyph-name="cacute" unicode="&#x107;" horiz-adv-x="526" 
d="M156 23.5q-54 33.5 -85.5 93t-31.5 133.5t31.5 133.5t85.5 93t118 33.5q56 0 102 -25.5t76 -68.5t40 -93h-65q-17 58 -56 92t-97 34q-46 0 -85 -25t-62 -70.5t-23 -103.5t23 -103.5t62 -70.5t85 -25q59 0 97.5 33.5t55.5 92.5h65q-10 -50 -40 -92.5t-76.5 -68.5
t-101.5 -26q-64 0 -118 33.5zM289 560h-51l66 134h75z" />
    <glyph glyph-name="Ccircumflex" unicode="&#x108;" horiz-adv-x="704" 
d="M207.5 37q-74.5 47 -119 129.5t-44.5 183.5t44.5 183.5t119 129.5t160.5 47q70 0 130.5 -32t102.5 -87.5t59 -124.5h-70q-26 79 -83.5 129t-138.5 50q-67 0 -125.5 -37.5t-93.5 -105t-35 -152.5t35 -152.5t93.5 -105t125.5 -37.5q84 0 142.5 50t84.5 129h70
q-17 -69 -59.5 -124.5t-104 -87.5t-133.5 -32q-86 0 -160.5 47zM398 883l104 -128h-68l-69 85l-68 -85h-67l105 128h63z" />
    <glyph glyph-name="ccircumflex" unicode="&#x109;" horiz-adv-x="526" 
d="M156 23.5q-54 33.5 -85.5 93t-31.5 133.5t31.5 133.5t85.5 93t118 33.5q56 0 102 -25.5t76 -68.5t40 -93h-65q-17 58 -56 92t-97 34q-46 0 -85 -25t-62 -70.5t-23 -103.5t23 -103.5t62 -70.5t85 -25q59 0 97.5 33.5t55.5 92.5h65q-10 -50 -40 -92.5t-76.5 -68.5
t-101.5 -26q-64 0 -118 33.5zM304 694l102 -134h-68l-65 91l-65 -91h-66l102 134h60z" />
    <glyph glyph-name="Cdotaccent" unicode="&#x10a;" horiz-adv-x="704" 
d="M207.5 37q-74.5 47 -119 129.5t-44.5 183.5t44.5 183.5t119 129.5t160.5 47q70 0 130.5 -32t102.5 -87.5t59 -124.5h-70q-26 79 -83.5 129t-138.5 50q-67 0 -125.5 -37.5t-93.5 -105t-35 -152.5t35 -152.5t93.5 -105t125.5 -37.5q84 0 142.5 50t84.5 129h70
q-17 -69 -59.5 -124.5t-104 -87.5t-133.5 -32q-86 0 -160.5 47zM334 787q-13 13 -13 32q0 20 13 32.5t32 12.5q20 0 32.5 -12.5t12.5 -32.5q0 -19 -13 -32t-32 -13t-32 13z" />
    <glyph glyph-name="cdotaccent" unicode="&#x10b;" horiz-adv-x="526" 
d="M156 23.5q-54 33.5 -85.5 93t-31.5 133.5t31.5 133.5t85.5 93t118 33.5q56 0 102 -25.5t76 -68.5t40 -93h-65q-17 58 -56 92t-97 34q-46 0 -85 -25t-62 -70.5t-23 -103.5t23 -103.5t62 -70.5t85 -25q59 0 97.5 33.5t55.5 92.5h65q-10 -50 -40 -92.5t-76.5 -68.5
t-101.5 -26q-64 0 -118 33.5zM242 593q-13 13 -13 32q0 20 13 32.5t32 12.5q20 0 32.5 -12.5t12.5 -32.5q0 -19 -13 -32t-32 -13t-32 13z" />
    <glyph glyph-name="Ccaron" unicode="&#x10c;" horiz-adv-x="704" 
d="M207.5 37q-74.5 47 -119 129.5t-44.5 183.5t44.5 183.5t119 129.5t160.5 47q70 0 130.5 -32t102.5 -87.5t59 -124.5h-70q-26 79 -83.5 129t-138.5 50q-67 0 -125.5 -37.5t-93.5 -105t-35 -152.5t35 -152.5t93.5 -105t125.5 -37.5q84 0 142.5 50t84.5 129h70
q-17 -69 -59.5 -124.5t-104 -87.5t-133.5 -32q-86 0 -160.5 47zM365 798l69 85h68l-104 -128h-63l-105 128h67z" />
    <glyph glyph-name="ccaron" unicode="&#x10d;" horiz-adv-x="526" 
d="M156 23.5q-54 33.5 -85.5 93t-31.5 133.5t31.5 133.5t85.5 93t118 33.5q56 0 102 -25.5t76 -68.5t40 -93h-65q-17 58 -56 92t-97 34q-46 0 -85 -25t-62 -70.5t-23 -103.5t23 -103.5t62 -70.5t85 -25q59 0 97.5 33.5t55.5 92.5h65q-10 -50 -40 -92.5t-76.5 -68.5
t-101.5 -26q-64 0 -118 33.5zM273 603l65 91h68l-102 -134h-60l-102 134h66z" />
    <glyph glyph-name="Dcaron" unicode="&#x10e;" horiz-adv-x="654" 
d="M89 0v700h178q95 0 173.5 -45t124 -125t45.5 -180t-45.5 -180t-124 -125t-173.5 -45h-178zM267 65q74 0 136.5 37t99.5 102t37 146t-37 146t-99.5 102t-136.5 37h-108v-570h108zM324 798l69 85h68l-104 -128h-63l-105 128h67z" />
    <glyph glyph-name="dcaron" unicode="&#x10f;" horiz-adv-x="576" 
d="M153.5 23q-52.5 33 -83.5 92.5t-31 134.5t31 134.5t83.5 92.5t115.5 33q38 0 71.5 -14t56.5 -32t32 -32h5v268h65v-700h-48l-17 68h-5q-10 -14 -32.5 -32t-56 -32t-71.5 -14q-63 0 -115.5 33zM352 76q38 25 60 70.5t22 103.5t-22 103.5t-60 70.5t-83 25t-83 -25
t-60 -70.5t-22 -103.5t22 -103.5t60 -70.5t83 -25t83 25zM579 560h-40l32 140h69z" />
    <glyph glyph-name="Dcroat" unicode="&#x110;" horiz-adv-x="680" 
d="M293 700q95 0 173.5 -45t124 -125t45.5 -180t-45.5 -180t-124 -125t-173.5 -45h-178v319h-95v63h95v318h178zM293 65q74 0 136.5 37t99.5 102t37 146t-37 146t-99.5 102t-136.5 37h-108v-253h155v-63h-155v-254h108z" />
    <glyph glyph-name="dcroat" unicode="&#x111;" horiz-adv-x="589" 
d="M579 617v-59h-80v-558h-48l-17 68h-5q-18 -25 -60.5 -51.5t-99.5 -26.5q-65 0 -117.5 32.5t-82.5 90t-30 129.5t30 130t82.5 90.5t117.5 32.5q58 0 100.5 -26.5t59.5 -51.5h5v141h-175v59h175v83h65v-83h80zM353.5 75.5q37.5 24.5 59 68t21.5 98.5t-21.5 99t-59 68.5
t-84.5 24.5t-84.5 -24.5t-59 -68.5t-21.5 -99t21.5 -98.5t59 -68t84.5 -24.5t84.5 24.5z" />
    <glyph glyph-name="Emacron" unicode="&#x112;" horiz-adv-x="577" 
d="M159 328v-263h373v-65h-443v700h433v-65h-363v-242h325v-65h-325zM433 792h-254v55h254v-55z" />
    <glyph glyph-name="emacron" unicode="&#x113;" horiz-adv-x="537" 
d="M494 218h-388q8 -77 54.5 -122t115.5 -45q92 0 139 79h65q-23 -61 -79 -100.5t-127 -39.5q-66 0 -119.5 33t-84.5 92t-31 135q0 74 31.5 133.5t85.5 93t118 33.5q63 0 114.5 -32.5t80.5 -88.5t29 -124q0 -31 -4 -47zM195.5 427.5q-36.5 -21.5 -61 -61t-29.5 -89.5h327
q-5 75 -49 123.5t-109 48.5q-42 0 -78.5 -21.5zM396 600h-248v53h248v-53z" />
    <glyph glyph-name="Ebreve" unicode="&#x114;" horiz-adv-x="577" 
d="M159 328v-263h373v-65h-443v700h433v-65h-363v-242h325v-65h-325zM211 795q-36 35 -38 84h54q4 -33 24 -51.5t55 -18.5t55 18.5t24 51.5h54q-2 -49 -38 -84t-95 -35t-95 35z" />
    <glyph glyph-name="ebreve" unicode="&#x115;" horiz-adv-x="537" 
d="M494 218h-388q8 -77 54.5 -122t115.5 -45q92 0 139 79h65q-23 -61 -79 -100.5t-127 -39.5q-66 0 -119.5 33t-84.5 92t-31 135q0 74 31.5 133.5t85.5 93t118 33.5q63 0 114.5 -32.5t80.5 -88.5t29 -124q0 -31 -4 -47zM195.5 427.5q-36.5 -21.5 -61 -61t-29.5 -89.5h327
q-5 75 -49 123.5t-109 48.5q-42 0 -78.5 -21.5zM178.5 601.5q-35.5 35.5 -37.5 86.5h54q4 -35 23.5 -54t53.5 -19t53.5 19t23.5 54h54q-2 -51 -37.5 -86.5t-93.5 -35.5t-93.5 35.5z" />
    <glyph glyph-name="Edotaccent" unicode="&#x116;" horiz-adv-x="577" 
d="M159 328v-263h373v-65h-443v700h433v-65h-363v-242h325v-65h-325zM274 787q-13 13 -13 32q0 20 13 32.5t32 12.5q20 0 32.5 -12.5t12.5 -32.5q0 -19 -13 -32t-32 -13t-32 13z" />
    <glyph glyph-name="edotaccent" unicode="&#x117;" horiz-adv-x="537" 
d="M494 218h-388q8 -77 54.5 -122t115.5 -45q92 0 139 79h65q-23 -61 -79 -100.5t-127 -39.5q-66 0 -119.5 33t-84.5 92t-31 135q0 74 31.5 133.5t85.5 93t118 33.5q63 0 114.5 -32.5t80.5 -88.5t29 -124q0 -31 -4 -47zM195.5 427.5q-36.5 -21.5 -61 -61t-29.5 -89.5h327
q-5 75 -49 123.5t-109 48.5q-42 0 -78.5 -21.5zM240 593q-13 13 -13 32q0 20 13 32.5t32 12.5q20 0 32.5 -12.5t12.5 -32.5q0 -19 -13 -32t-32 -13t-32 13z" />
    <glyph glyph-name="Eogonek" unicode="&#x118;" horiz-adv-x="577" 
d="M532 0q-41 -24 -63 -51.5t-22 -55.5q0 -23 14.5 -36.5t39.5 -13.5q16 0 31 5v-43q-15 -5 -39 -5q-42 0 -68 23t-26 62q0 35 20.5 65.5t52.5 49.5h-383v700h433v-65h-363v-242h325v-65h-325v-263h373v-65z" />
    <glyph glyph-name="eogonek" unicode="&#x119;" horiz-adv-x="537" 
d="M494 218h-388q8 -77 54.5 -122t115.5 -45q92 0 139 79h65q-18 -49 -72 -99q-42 -38 -66 -71.5t-24 -66.5q0 -23 14.5 -36.5t39.5 -13.5q16 0 31 5v-42q-18 -6 -39 -6q-42 0 -68 23t-26 62q0 61 48 109q-20 -4 -44 -4q-66 0 -119.5 33t-84.5 92t-31 135q0 74 31.5 133.5
t85.5 93t118 33.5q63 0 114.5 -32.5t80.5 -88.5t29 -124q0 -31 -4 -47zM195.5 427.5q-36.5 -21.5 -61 -61t-29.5 -89.5h327q-5 75 -49 123.5t-109 48.5q-42 0 -78.5 -21.5z" />
    <glyph glyph-name="Ecaron" unicode="&#x11a;" horiz-adv-x="577" 
d="M159 328v-263h373v-65h-443v700h433v-65h-363v-242h325v-65h-325zM305 798l69 85h68l-104 -128h-63l-105 128h67z" />
    <glyph glyph-name="ecaron" unicode="&#x11b;" horiz-adv-x="537" 
d="M494 218h-388q8 -77 54.5 -122t115.5 -45q92 0 139 79h65q-23 -61 -79 -100.5t-127 -39.5q-66 0 -119.5 33t-84.5 92t-31 135q0 74 31.5 133.5t85.5 93t118 33.5q63 0 114.5 -32.5t80.5 -88.5t29 -124q0 -31 -4 -47zM195.5 427.5q-36.5 -21.5 -61 -61t-29.5 -89.5h327
q-5 75 -49 123.5t-109 48.5q-42 0 -78.5 -21.5zM271 603l65 91h68l-102 -134h-60l-102 134h66z" />
    <glyph glyph-name="Gcircumflex" unicode="&#x11c;" horiz-adv-x="743" 
d="M391 342h280v-342h-49l-16 113q-36 -52 -98 -87.5t-140 -35.5q-86 0 -160.5 47t-119 129.5t-44.5 183.5t44.5 183.5t119 129.5t160.5 47q69 0 130.5 -29.5t104 -81t57.5 -113.5h-70q-26 70 -83 114.5t-139 44.5q-67 0 -125.5 -37.5t-93.5 -105t-35 -152.5t35 -152.5
t93.5 -105t125.5 -37.5q63 0 115 28.5t83.5 79.5t34.5 116h-210v63zM399 883l104 -128h-68l-69 85l-68 -85h-67l105 128h63z" />
    <glyph glyph-name="gcircumflex" unicode="&#x11d;" horiz-adv-x="559" 
d="M135 -149q-57 41 -74 110h65q14 -42 52.5 -66t94.5 -24q67 0 108 40t41 106v79h-5q-9 -14 -31 -32.5t-54 -32.5t-69 -14q-61 0 -112.5 32t-81.5 88.5t-30 125.5q0 70 30 126.5t81.5 88.5t112.5 32q37 0 69 -13.5t54 -32t31 -32.5h5l17 68h48v-483q0 -61 -27 -108
t-75.5 -73t-111.5 -26q-81 0 -138 41zM341.5 102q36.5 24 58.5 66.5t22 94.5q0 53 -22 95.5t-58.5 66.5t-78.5 24q-43 0 -79.5 -24t-58 -66.5t-21.5 -95.5q0 -52 21.5 -94.5t58 -66.5t79.5 -24q42 0 78.5 24zM308 694l102 -134h-68l-65 91l-65 -91h-66l102 134h60z" />
    <glyph glyph-name="Gbreve" unicode="&#x11e;" horiz-adv-x="743" 
d="M391 342h280v-342h-49l-16 113q-36 -52 -98 -87.5t-140 -35.5q-86 0 -160.5 47t-119 129.5t-44.5 183.5t44.5 183.5t119 129.5t160.5 47q69 0 130.5 -29.5t104 -81t57.5 -113.5h-70q-26 70 -83 114.5t-139 44.5q-67 0 -125.5 -37.5t-93.5 -105t-35 -152.5t35 -152.5
t93.5 -105t125.5 -37.5q63 0 115 28.5t83.5 79.5t34.5 116h-210v63zM272 795q-36 35 -38 84h54q4 -33 24 -51.5t55 -18.5t55 18.5t24 51.5h54q-2 -49 -38 -84t-95 -35t-95 35z" />
    <glyph glyph-name="gbreve" unicode="&#x11f;" horiz-adv-x="559" 
d="M135 -149q-57 41 -74 110h65q14 -42 52.5 -66t94.5 -24q67 0 108 40t41 106v79h-5q-9 -14 -31 -32.5t-54 -32.5t-69 -14q-61 0 -112.5 32t-81.5 88.5t-30 125.5q0 70 30 126.5t81.5 88.5t112.5 32q37 0 69 -13.5t54 -32t31 -32.5h5l17 68h48v-483q0 -61 -27 -108
t-75.5 -73t-111.5 -26q-81 0 -138 41zM341.5 102q36.5 24 58.5 66.5t22 94.5q0 53 -22 95.5t-58.5 66.5t-78.5 24q-43 0 -79.5 -24t-58 -66.5t-21.5 -95.5q0 -52 21.5 -94.5t58 -66.5t79.5 -24q42 0 78.5 24zM184.5 601.5q-35.5 35.5 -37.5 86.5h54q4 -35 23.5 -54t53.5 -19
t53.5 19t23.5 54h54q-2 -51 -37.5 -86.5t-93.5 -35.5t-93.5 35.5z" />
    <glyph glyph-name="Gdotaccent" unicode="&#x120;" horiz-adv-x="743" 
d="M391 342h280v-342h-49l-16 113q-36 -52 -98 -87.5t-140 -35.5q-86 0 -160.5 47t-119 129.5t-44.5 183.5t44.5 183.5t119 129.5t160.5 47q69 0 130.5 -29.5t104 -81t57.5 -113.5h-70q-26 70 -83 114.5t-139 44.5q-67 0 -125.5 -37.5t-93.5 -105t-35 -152.5t35 -152.5
t93.5 -105t125.5 -37.5q63 0 115 28.5t83.5 79.5t34.5 116h-210v63zM335 787q-13 13 -13 32q0 20 13 32.5t32 12.5q20 0 32.5 -12.5t12.5 -32.5q0 -19 -13 -32t-32 -13t-32 13z" />
    <glyph glyph-name="gdotaccent" unicode="&#x121;" horiz-adv-x="559" 
d="M135 -149q-57 41 -74 110h65q14 -42 52.5 -66t94.5 -24q67 0 108 40t41 106v79h-5q-9 -14 -31 -32.5t-54 -32.5t-69 -14q-61 0 -112.5 32t-81.5 88.5t-30 125.5q0 70 30 126.5t81.5 88.5t112.5 32q37 0 69 -13.5t54 -32t31 -32.5h5l17 68h48v-483q0 -61 -27 -108
t-75.5 -73t-111.5 -26q-81 0 -138 41zM341.5 102q36.5 24 58.5 66.5t22 94.5q0 53 -22 95.5t-58.5 66.5t-78.5 24q-43 0 -79.5 -24t-58 -66.5t-21.5 -95.5q0 -52 21.5 -94.5t58 -66.5t79.5 -24q42 0 78.5 24zM246 593q-13 13 -13 32q0 20 13 32.5t32 12.5q20 0 32.5 -12.5
t12.5 -32.5q0 -19 -13 -32t-32 -13t-32 13z" />
    <glyph glyph-name="uni0122" unicode="&#x122;" horiz-adv-x="743" 
d="M391 342h280v-342h-49l-16 113q-36 -52 -98 -87.5t-140 -35.5q-86 0 -160.5 47t-119 129.5t-44.5 183.5t44.5 183.5t119 129.5t160.5 47q69 0 130.5 -29.5t104 -81t57.5 -113.5h-70q-26 70 -83 114.5t-139 44.5q-67 0 -125.5 -37.5t-93.5 -105t-35 -152.5t35 -152.5
t93.5 -105t125.5 -37.5q63 0 115 28.5t83.5 79.5t34.5 116h-210v63zM404 -96q14 -16 14 -44q0 -41 -22 -75.5t-46 -54.5l-15 18q11 11 21 31t12 47q-19 1 -33.5 13.5t-14.5 33.5t14.5 34t32.5 13q23 0 37 -16z" />
    <glyph glyph-name="uni0123" unicode="&#x123;" horiz-adv-x="559" 
d="M135 -149q-57 41 -74 110h65q14 -42 52.5 -66t94.5 -24q67 0 108 40t41 106v79h-5q-9 -14 -31 -32.5t-54 -32.5t-69 -14q-61 0 -112.5 32t-81.5 88.5t-30 125.5q0 70 30 126.5t81.5 88.5t112.5 32q37 0 69 -13.5t54 -32t31 -32.5h5l17 68h48v-483q0 -61 -27 -108
t-75.5 -73t-111.5 -26q-81 0 -138 41zM341.5 102q36.5 24 58.5 66.5t22 94.5q0 53 -22 95.5t-58.5 66.5t-78.5 24q-43 0 -79.5 -24t-58 -66.5t-21.5 -95.5q0 -52 21.5 -94.5t58 -66.5t79.5 -24q42 0 78.5 24zM312.5 640.5q14.5 -12.5 14.5 -33.5t-14.5 -34t-32.5 -13
q-23 0 -37 16t-14 44q0 41 23.5 74.5t49.5 52.5l14 -18q-13 -10 -24 -29t-13 -46q19 -1 33.5 -13.5z" />
    <glyph glyph-name="Hcircumflex" unicode="&#x124;" horiz-adv-x="680" 
d="M521 390v310h70v-700h-70v325h-362v-325h-70v700h70v-310h362zM372 883l104 -128h-68l-69 85l-68 -85h-67l105 128h63z" />
    <glyph glyph-name="hcircumflex" unicode="&#x125;" horiz-adv-x="560" 
d="M77 0v700h65v-268h5q20 31 58.5 54.5t88.5 23.5q56 0 101.5 -27t71.5 -77t26 -116v-290h-65v290q0 74 -39 116.5t-101 42.5q-66 0 -106 -42.5t-40 -116.5v-290h-65zM318 883l104 -128h-68l-69 85l-68 -85h-67l105 128h63z" />
    <glyph glyph-name="Hbar" unicode="&#x126;" horiz-adv-x="732" 
d="M617 580h95v-63h-95v-517h-70v325h-362v-325h-70v517h-95v63h95v120h70v-120h362v120h70v-120zM185 517v-127h362v127h-362z" />
    <glyph glyph-name="hbar" unicode="&#x127;" horiz-adv-x="573" 
d="M408.5 468q45.5 -27 71.5 -77t26 -116v-275h-65v275q0 74 -39 116.5t-101 42.5q-66 0 -106 -42.5t-40 -116.5v-275h-65v558h-80v59h80v83h65v-83h175v-59h-175v-141h5q20 31 58.5 54.5t88.5 23.5q56 0 101.5 -27z" />
    <glyph glyph-name="Itilde" unicode="&#x128;" horiz-adv-x="248" 
d="M159 0h-70v700h70v-700zM143 772q-16 10 -34 28q-14 13 -22.5 19t-18.5 6q-17 0 -28 -15t-11 -42h-50q0 53 25.5 81.5t61.5 28.5q23 0 39 -10t34 -28q14 -13 22.5 -19t18.5 -6q17 0 28 15t11 42h50q0 -53 -26 -81.5t-61 -28.5q-23 0 -39 10z" />
    <glyph glyph-name="itilde" unicode="&#x129;" horiz-adv-x="209" 
d="M137 0h-65v500h65v-500zM123.5 577q-15.5 11 -33.5 31q-13 14 -21.5 20.5t-18.5 6.5q-16 0 -26.5 -16t-10.5 -47h-50q0 58 24.5 87t60.5 29q23 0 38.5 -11t33.5 -31q13 -14 21.5 -20.5t18.5 -6.5q15 0 26 16.5t11 46.5h50q0 -58 -24.5 -87t-60.5 -29q-23 0 -38.5 11z" />
    <glyph glyph-name="Imacron" unicode="&#x12a;" horiz-adv-x="248" 
d="M159 0h-70v700h70v-700zM251 792h-254v55h254v-55z" />
    <glyph glyph-name="imacron" unicode="&#x12b;" horiz-adv-x="209" 
d="M137 0h-65v500h65v-500zM229 600h-248v53h248v-53z" />
    <glyph glyph-name="Ibreve" unicode="&#x12c;" horiz-adv-x="248" 
d="M159 0h-70v700h70v-700zM29 795q-36 35 -38 84h54q4 -33 24 -51.5t55 -18.5t55 18.5t24 51.5h54q-2 -49 -38 -84t-95 -35t-95 35z" />
    <glyph glyph-name="ibreve" unicode="&#x12d;" horiz-adv-x="209" 
d="M137 0h-65v500h65v-500zM11.5 601.5q-35.5 35.5 -37.5 86.5h54q4 -35 23.5 -54t53.5 -19t53.5 19t23.5 54h54q-2 -51 -37.5 -86.5t-93.5 -35.5t-93.5 35.5z" />
    <glyph glyph-name="Iogonek" unicode="&#x12e;" horiz-adv-x="248" 
d="M159 0q-33 -24 -51.5 -51.5t-18.5 -56.5q0 -24 12 -36.5t33 -12.5q13 0 25 4v-42q-17 -5 -31 -5q-37 0 -62 23t-25 63q0 35 19.5 65.5t46.5 48.5h-18v700h70v-700z" />
    <glyph glyph-name="iogonek" unicode="&#x12f;" horiz-adv-x="209" 
d="M137.5 657.5q12.5 -12.5 12.5 -32.5q0 -19 -12.5 -32t-32.5 -13q-19 0 -32 13t-13 32q0 20 13 32.5t32 12.5q20 0 32.5 -12.5zM72 0v500h65v-500h-7q-33 -24 -51.5 -51.5t-18.5 -56.5q0 -24 12 -36.5t33 -12.5q13 0 25 4v-42q-17 -5 -31 -5q-37 0 -62 23t-25 63
q0 35 19.5 65.5t46.5 48.5h-6z" />
    <glyph glyph-name="Idotaccent" unicode="&#x130;" horiz-adv-x="248" 
d="M159 0h-70v700h70v-700zM92 787q-13 13 -13 32q0 20 13 32.5t32 12.5q20 0 32.5 -12.5t12.5 -32.5q0 -19 -13 -32t-32 -13t-32 13z" />
    <glyph glyph-name="dotlessi" unicode="&#x131;" horiz-adv-x="209" 
d="M137 0h-65v500h65v-500z" />
    <glyph glyph-name="IJ" unicode="&#x132;" horiz-adv-x="773" 
d="M159 0h-70v700h70v-700zM367.5 17.5q-48.5 27.5 -75.5 73t-27 98.5h70q0 -34 18.5 -65t51 -50t73.5 -19q64 0 102.5 40t38.5 106v499h70v-499q0 -62 -26 -110t-74 -74.5t-111 -26.5q-62 0 -110.5 27.5z" />
    <glyph glyph-name="ij" unicode="&#x133;" horiz-adv-x="418" 
d="M137 0h-65v500h65v-500zM73 593q-13 13 -13 32q0 20 13 32.5t32 12.5q20 0 32.5 -12.5t12.5 -32.5q0 -19 -13 -32t-32 -13t-32 13zM164 -177v59q16 -6 34 -6q39 0 61 24.5t22 73.5v526h65v-526q0 -74 -38.5 -116.5t-99.5 -42.5q-22 0 -44 8zM282 593q-13 13 -13 32
q0 20 13 32.5t32 12.5q20 0 32.5 -12.5t12.5 -32.5q0 -19 -13 -32t-32 -13t-32 13z" />
    <glyph glyph-name="Jcircumflex" unicode="&#x134;" horiz-adv-x="525" 
d="M119.5 17.5q-48.5 27.5 -75.5 73t-27 98.5h70q0 -34 18.5 -65t51 -50t73.5 -19q64 0 102.5 40t38.5 106v499h70v-499q0 -62 -26 -110t-74 -74.5t-111 -26.5q-62 0 -110.5 27.5zM438 883l104 -128h-68l-69 85l-68 -85h-67l105 128h63z" />
    <glyph glyph-name="jcircumflex" unicode="&#x135;" horiz-adv-x="209" 
d="M-45 -177v59q16 -6 34 -6q39 0 61 24.5t22 73.5v526h65v-526q0 -74 -38.5 -116.5t-99.5 -42.5q-22 0 -44 8zM135 694l102 -134h-68l-65 91l-65 -91h-66l102 134h60z" />
    <glyph glyph-name="uni0136" unicode="&#x136;" horiz-adv-x="550" 
d="M89 0v700h70v-700h-70zM542 700l-299 -341l315 -359h-90l-309 355l299 345h84zM345 -96q14 -16 14 -44q0 -41 -22 -75.5t-46 -54.5l-15 18q11 11 21 31t12 47q-19 1 -33.5 13.5t-14.5 33.5t14.5 34t32.5 13q23 0 37 -16z" />
    <glyph glyph-name="uni0137" unicode="&#x137;" horiz-adv-x="455" 
d="M77 0v700h65v-700h-65zM441 500l-219 -242l241 -258h-86l-235 255l218 245h81zM293 -96q14 -16 14 -44q0 -41 -22 -75.5t-46 -54.5l-15 18q11 11 21 31t12 47q-19 1 -33.5 13.5t-14.5 33.5t14.5 34t32.5 13q23 0 37 -16z" />
    <glyph glyph-name="Lacute" unicode="&#x139;" horiz-adv-x="513" 
d="M503 0h-414v700h70v-635h344v-65zM140 755h-54l70 128h78z" />
    <glyph glyph-name="lacute" unicode="&#x13a;" horiz-adv-x="219" 
d="M142 0h-65v700h65v-700zM126 755h-54l70 128h78z" />
    <glyph glyph-name="uni013B" unicode="&#x13b;" horiz-adv-x="513" 
d="M503 0h-414v700h70v-635h344v-65zM330 -96q14 -16 14 -44q0 -41 -22 -75.5t-46 -54.5l-15 18q11 11 21 31t12 47q-19 1 -33.5 13.5t-14.5 33.5t14.5 34t32.5 13q23 0 37 -16z" />
    <glyph glyph-name="uni013C" unicode="&#x13c;" horiz-adv-x="219" 
d="M142 0h-65v700h65v-700zM144 -96q14 -16 14 -44q0 -41 -22 -75.5t-46 -54.5l-15 18q11 11 21 31t12 47q-19 1 -33.5 13.5t-14.5 33.5t14.5 34t32.5 13q23 0 37 -16z" />
    <glyph glyph-name="Lcaron" unicode="&#x13d;" horiz-adv-x="513" 
d="M503 0h-414v700h70v-635h344v-65zM239 560h-40l32 140h69z" />
    <glyph glyph-name="lcaron" unicode="&#x13e;" horiz-adv-x="219" 
d="M142 0h-65v700h65v-700zM223 560h-40l32 140h69z" />
    <glyph glyph-name="Ldot" unicode="&#x13f;" horiz-adv-x="513" 
d="M503 0h-414v700h70v-635h344v-65zM344 328q-15 15 -15 37t15 37t37 15t37 -15t15 -37t-15 -37t-37 -15t-37 15z" />
    <glyph glyph-name="ldot" unicode="&#x140;" horiz-adv-x="329" 
d="M142 0h-65v700h65v-700zM237 313q-15 15 -15 37t15 37t37 15t37 -15t15 -37t-15 -37t-37 -15t-37 15z" />
    <glyph glyph-name="Lslash" unicode="&#x141;" horiz-adv-x="539" 
d="M185 315v-250h344v-65h-414v272l-95 -58v72l95 58v356h70v-313l165 100v-72z" />
    <glyph glyph-name="lslash" unicode="&#x142;" horiz-adv-x="257" 
d="M161 407l86 57v-69l-86 -57v-338h-65v294l-86 -57v69l86 57v337h65v-293z" />
    <glyph glyph-name="Nacute" unicode="&#x143;" horiz-adv-x="690" 
d="M531 129v571h70v-700h-66l-376 571v-571h-70v700h66zM366 755h-54l70 128h78z" />
    <glyph glyph-name="nacute" unicode="&#x144;" 
d="M72 0v500h48l17 -68h5q20 31 58.5 54.5t88.5 23.5q56 0 101.5 -27t71.5 -77t26 -116v-290h-65v290q0 74 -39 116.5t-101 42.5q-66 0 -106 -42.5t-40 -116.5v-290h-65zM300 560h-51l66 134h75z" />
    <glyph glyph-name="uni0145" unicode="&#x145;" horiz-adv-x="690" 
d="M531 129v571h70v-700h-66l-376 571v-571h-70v700h66zM384 -96q14 -16 14 -44q0 -41 -22 -75.5t-46 -54.5l-15 18q11 11 21 31t12 47q-19 1 -33.5 13.5t-14.5 33.5t14.5 34t32.5 13q23 0 37 -16z" />
    <glyph glyph-name="uni0146" unicode="&#x146;" 
d="M72 0v500h48l17 -68h5q20 31 58.5 54.5t88.5 23.5q56 0 101.5 -27t71.5 -77t26 -116v-290h-65v290q0 74 -39 116.5t-101 42.5q-66 0 -106 -42.5t-40 -116.5v-290h-65zM316 -96q14 -16 14 -44q0 -41 -22 -75.5t-46 -54.5l-15 18q11 11 21 31t12 47q-19 1 -33.5 13.5
t-14.5 33.5t14.5 34t32.5 13q23 0 37 -16z" />
    <glyph glyph-name="Ncaron" unicode="&#x147;" horiz-adv-x="690" 
d="M531 129v571h70v-700h-66l-376 571v-571h-70v700h66zM349 798l69 85h68l-104 -128h-63l-105 128h67z" />
    <glyph glyph-name="ncaron" unicode="&#x148;" 
d="M72 0v500h48l17 -68h5q20 31 58.5 54.5t88.5 23.5q56 0 101.5 -27t71.5 -77t26 -116v-290h-65v290q0 74 -39 116.5t-101 42.5q-66 0 -106 -42.5t-40 -116.5v-290h-65zM284 603l65 91h68l-102 -134h-60l-102 134h66z" />
    <glyph glyph-name="napostrophe" unicode="&#x149;" horiz-adv-x="576" 
d="M93 0v500h48l17 -68h5q20 31 58.5 54.5t88.5 23.5q56 0 101.5 -27t71.5 -77t26 -116v-290h-65v290q0 74 -39 116.5t-101 42.5q-66 0 -106 -42.5t-40 -116.5v-290h-65zM69 694q14 -16 14 -44q0 -44 -23 -81.5t-50 -63.5l-15 18q33 44 36 93q-19 2 -32.5 14.5t-13.5 32.5
q0 21 14.5 34t32.5 13q23 0 37 -16z" />
    <glyph glyph-name="Eng" unicode="&#x14a;" horiz-adv-x="690" 
d="M531 700h70v-730q0 -78 -40.5 -121.5t-109.5 -43.5q-33 0 -53 8v63q17 -6 40 -6q93 0 93 100v36l-372 565v-571h-70v700h66l376 -571v571z" />
    <glyph glyph-name="eng" unicode="&#x14b;" 
d="M306 -177v58q10 -5 33 -5q40 0 62 24.5t22 73.5v316q0 74 -39 116.5t-101 42.5q-66 0 -106 -42.5t-40 -116.5v-290h-65v500h48l17 -68h5q20 31 58.5 54.5t88.5 23.5q56 0 101.5 -27t71.5 -77t26 -116v-316q0 -73 -37.5 -116t-94.5 -43q-34 0 -50 8z" />
    <glyph glyph-name="Omacron" unicode="&#x14c;" horiz-adv-x="737" 
d="M207.5 37q-74.5 47 -119 129.5t-44.5 183.5t44.5 183.5t119 129.5t160.5 47t161 -47t119.5 -129.5t44.5 -183.5t-44.5 -183.5t-119.5 -129.5t-161 -47t-160.5 47zM494.5 92.5q58.5 37.5 93.5 105t35 152.5t-35 152.5t-93.5 105t-126.5 37.5q-67 0 -125.5 -37.5
t-93.5 -105t-35 -152.5t35 -152.5t93.5 -105t125.5 -37.5q68 0 126.5 37.5zM495 792h-254v55h254v-55z" />
    <glyph glyph-name="omacron" unicode="&#x14d;" horiz-adv-x="548" 
d="M156 23.5q-54 33.5 -85.5 93t-31.5 133.5t31.5 133.5t85.5 93t118 33.5t118 -33.5t85.5 -93t31.5 -133.5t-31.5 -133.5t-85.5 -93t-118 -33.5t-118 33.5zM359 76q39 25 62 70.5t23 103.5t-23 103.5t-62 70.5t-85 25t-85 -25t-62 -70.5t-23 -103.5t23 -103.5t62 -70.5
t85 -25t85 25zM398 600h-248v53h248v-53z" />
    <glyph glyph-name="Obreve" unicode="&#x14e;" horiz-adv-x="737" 
d="M207.5 37q-74.5 47 -119 129.5t-44.5 183.5t44.5 183.5t119 129.5t160.5 47t161 -47t119.5 -129.5t44.5 -183.5t-44.5 -183.5t-119.5 -129.5t-161 -47t-160.5 47zM494.5 92.5q58.5 37.5 93.5 105t35 152.5t-35 152.5t-93.5 105t-126.5 37.5q-67 0 -125.5 -37.5
t-93.5 -105t-35 -152.5t35 -152.5t93.5 -105t125.5 -37.5q68 0 126.5 37.5zM273 795q-36 35 -38 84h54q4 -33 24 -51.5t55 -18.5t55 18.5t24 51.5h54q-2 -49 -38 -84t-95 -35t-95 35z" />
    <glyph glyph-name="obreve" unicode="&#x14f;" horiz-adv-x="548" 
d="M156 23.5q-54 33.5 -85.5 93t-31.5 133.5t31.5 133.5t85.5 93t118 33.5t118 -33.5t85.5 -93t31.5 -133.5t-31.5 -133.5t-85.5 -93t-118 -33.5t-118 33.5zM359 76q39 25 62 70.5t23 103.5t-23 103.5t-62 70.5t-85 25t-85 -25t-62 -70.5t-23 -103.5t23 -103.5t62 -70.5
t85 -25t85 25zM180.5 601.5q-35.5 35.5 -37.5 86.5h54q4 -35 23.5 -54t53.5 -19t53.5 19t23.5 54h54q-2 -51 -37.5 -86.5t-93.5 -35.5t-93.5 35.5z" />
    <glyph glyph-name="Ohungarumlaut" unicode="&#x150;" horiz-adv-x="737" 
d="M207.5 37q-74.5 47 -119 129.5t-44.5 183.5t44.5 183.5t119 129.5t160.5 47t161 -47t119.5 -129.5t44.5 -183.5t-44.5 -183.5t-119.5 -129.5t-161 -47t-160.5 47zM494.5 92.5q58.5 37.5 93.5 105t35 152.5t-35 152.5t-93.5 105t-126.5 37.5q-67 0 -125.5 -37.5
t-93.5 -105t-35 -152.5t35 -152.5t93.5 -105t125.5 -37.5q68 0 126.5 37.5zM329 755h-54l80 128h78zM462 755h-54l80 128h78z" />
    <glyph glyph-name="ohungarumlaut" unicode="&#x151;" horiz-adv-x="548" 
d="M156 23.5q-54 33.5 -85.5 93t-31.5 133.5t31.5 133.5t85.5 93t118 33.5t118 -33.5t85.5 -93t31.5 -133.5t-31.5 -133.5t-85.5 -93t-118 -33.5t-118 33.5zM359 76q39 25 62 70.5t23 103.5t-23 103.5t-62 70.5t-85 25t-85 -25t-62 -70.5t-23 -103.5t23 -103.5t62 -70.5
t85 -25t85 25zM234 560h-51l76 134h75zM365 560h-51l76 134h75z" />
    <glyph glyph-name="OE" unicode="&#x152;" horiz-adv-x="922" 
d="M534 65h343v-65h-490q-95 0 -173.5 45t-124 125t-45.5 180t45.5 180t124 125t173.5 45h480v-65h-333v-242h295v-65h-295v-263zM464 65v570h-77q-74 0 -137 -37t-99.5 -102t-36.5 -146t36.5 -146t99.5 -102t137 -37h77z" />
    <glyph glyph-name="oe" unicode="&#x153;" horiz-adv-x="904" 
d="M859 218h-368q8 -77 53 -122t111 -45q84 0 126 79h66q-24 -63 -74 -101.5t-118 -38.5q-67 0 -119 33t-79 87q-27 -55 -78.5 -87.5t-114.5 -32.5q-61 0 -112.5 33t-82 92t-30.5 135t30.5 135t82 92t112.5 33q63 0 114.5 -32t78.5 -86q27 53 78.5 85.5t114.5 32.5
t112 -31.5t76 -88t27 -129.5q0 -19 -6 -43zM343 75.5q37 24.5 59 70t22 104.5t-22 104.5t-59 70t-79 24.5t-79 -24.5t-59 -70t-22 -104.5t22 -104.5t59 -70t79 -24.5t79 24.5zM575.5 428q-34.5 -21 -57.5 -60t-28 -91h310q-3 72 -42.5 122t-107.5 50q-40 0 -74.5 -21z" />
    <glyph glyph-name="Racute" unicode="&#x154;" horiz-adv-x="607" 
d="M481 0l-168 295h-154v-295h-70v700h244q62 0 111.5 -27.5t78 -74.5t28.5 -103q0 -71 -45 -123.5t-118 -69.5l174 -302h-81zM159 635v-275h174q65 0 106.5 38.5t41.5 96.5q0 61 -41 100.5t-107 39.5h-174zM326 755h-54l70 128h78z" />
    <glyph glyph-name="racute" unicode="&#x155;" horiz-adv-x="321" 
d="M72 0v500h48l17 -68h5q19 29 56 53.5t79 24.5q23 0 36 -4v-65q-16 4 -34 4q-63 0 -102.5 -42.5t-39.5 -116.5v-286h-65zM205 560h-51l66 134h75z" />
    <glyph glyph-name="uni0156" unicode="&#x156;" horiz-adv-x="607" 
d="M481 0l-168 295h-154v-295h-70v700h244q62 0 111.5 -27.5t78 -74.5t28.5 -103q0 -71 -45 -123.5t-118 -69.5l174 -302h-81zM159 635v-275h174q65 0 106.5 38.5t41.5 96.5q0 61 -41 100.5t-107 39.5h-174zM351 -96q14 -16 14 -44q0 -41 -22 -75.5t-46 -54.5l-15 18
q11 11 21 31t12 47q-19 1 -33.5 13.5t-14.5 33.5t14.5 34t32.5 13q23 0 37 -16z" />
    <glyph glyph-name="uni0157" unicode="&#x157;" horiz-adv-x="321" 
d="M72 0v500h48l17 -68h5q19 29 56 53.5t79 24.5q23 0 36 -4v-65q-16 4 -34 4q-63 0 -102.5 -42.5t-39.5 -116.5v-286h-65zM139 -96q14 -16 14 -44q0 -41 -22 -75.5t-46 -54.5l-15 18q11 11 21 31t12 47q-19 1 -33.5 13.5t-14.5 33.5t14.5 34t32.5 13q23 0 37 -16z" />
    <glyph glyph-name="Rcaron" unicode="&#x158;" horiz-adv-x="607" 
d="M481 0l-168 295h-154v-295h-70v700h244q62 0 111.5 -27.5t78 -74.5t28.5 -103q0 -71 -45 -123.5t-118 -69.5l174 -302h-81zM159 635v-275h174q65 0 106.5 38.5t41.5 96.5q0 61 -41 100.5t-107 39.5h-174zM309 798l69 85h68l-104 -128h-63l-105 128h67z" />
    <glyph glyph-name="rcaron" unicode="&#x159;" horiz-adv-x="321" 
d="M72 0v500h48l17 -68h5q19 29 56 53.5t79 24.5q23 0 36 -4v-65q-16 4 -34 4q-63 0 -102.5 -42.5t-39.5 -116.5v-286h-65zM189 603l65 91h68l-102 -134h-60l-102 134h66z" />
    <glyph glyph-name="Sacute" unicode="&#x15a;" horiz-adv-x="554" 
d="M111.5 49q-62.5 59 -67.5 155h70q5 -71 48.5 -110t117.5 -39t114.5 34.5t40.5 90.5q0 43 -23 70t-56.5 43t-91.5 36q-66 22 -106.5 42t-68.5 57t-28 97q0 53 25.5 95t73.5 66t113 24q66 0 115 -27t76 -74.5t30 -107.5h-70q-4 66 -44.5 105t-106.5 39q-67 0 -104.5 -33.5
t-37.5 -86.5q0 -40 22 -65.5t54 -40t89 -33.5q67 -21 109 -41.5t71 -60.5t29 -104q0 -86 -59 -138t-167 -52q-105 0 -167.5 59zM292 755h-54l70 128h78z" />
    <glyph glyph-name="sacute" unicode="&#x15b;" horiz-adv-x="435" 
d="M131 11.5q-41 21.5 -65 57.5t-27 76h65q5 -42 36 -68t83 -26q51 0 78.5 23t27.5 58q0 26 -16 43t-39 27.5t-65 23.5q-51 16 -82 30.5t-53 42t-22 71.5q0 39 20.5 71t57.5 50.5t86 18.5q48 0 86 -20t60 -54.5t25 -75.5h-65q-5 42 -32 65.5t-74 23.5t-73 -21.5t-26 -54.5
q0 -36 29 -54.5t89 -37.5q51 -17 82.5 -32.5t54 -43.5t22.5 -73q0 -61 -46 -101.5t-125 -40.5q-51 0 -92 21.5zM231 560h-51l66 134h75z" />
    <glyph glyph-name="Scircumflex" unicode="&#x15c;" horiz-adv-x="554" 
d="M111.5 49q-62.5 59 -67.5 155h70q5 -71 48.5 -110t117.5 -39t114.5 34.5t40.5 90.5q0 43 -23 70t-56.5 43t-91.5 36q-66 22 -106.5 42t-68.5 57t-28 97q0 53 25.5 95t73.5 66t113 24q66 0 115 -27t76 -74.5t30 -107.5h-70q-4 66 -44.5 105t-106.5 39q-67 0 -104.5 -33.5
t-37.5 -86.5q0 -40 22 -65.5t54 -40t89 -33.5q67 -21 109 -41.5t71 -60.5t29 -104q0 -86 -59 -138t-167 -52q-105 0 -167.5 59zM308 883l104 -128h-68l-69 85l-68 -85h-67l105 128h63z" />
    <glyph glyph-name="scircumflex" unicode="&#x15d;" horiz-adv-x="435" 
d="M131 11.5q-41 21.5 -65 57.5t-27 76h65q5 -42 36 -68t83 -26q51 0 78.5 23t27.5 58q0 26 -16 43t-39 27.5t-65 23.5q-51 16 -82 30.5t-53 42t-22 71.5q0 39 20.5 71t57.5 50.5t86 18.5q48 0 86 -20t60 -54.5t25 -75.5h-65q-5 42 -32 65.5t-74 23.5t-73 -21.5t-26 -54.5
q0 -36 29 -54.5t89 -37.5q51 -17 82.5 -32.5t54 -43.5t22.5 -73q0 -61 -46 -101.5t-125 -40.5q-51 0 -92 21.5zM246 694l102 -134h-68l-65 91l-65 -91h-66l102 134h60z" />
    <glyph glyph-name="Scedilla" unicode="&#x15e;" horiz-adv-x="554" 
d="M449.5 45.5q-55.5 -51.5 -157.5 -55.5l-15 -33q44 -2 67 -23t23 -53q0 -38 -27.5 -59.5t-83.5 -21.5q-29 0 -53 8v41q22 -6 45 -6q71 0 71 38t-63 38q-18 0 -38 -4l31 76q-92 9 -146 66.5t-59 146.5h70q5 -71 48.5 -110t117.5 -39t114.5 34.5t40.5 90.5q0 43 -23 70
t-56.5 43t-91.5 36q-66 22 -106.5 42t-68.5 57t-28 97q0 53 25.5 95t73.5 66t113 24q66 0 115 -27t76 -74.5t30 -107.5h-70q-4 66 -44.5 105t-106.5 39q-67 0 -104.5 -33.5t-37.5 -86.5q0 -40 22 -65.5t54 -40t89 -33.5q67 -21 109 -41.5t71 -60.5t29 -104
q0 -83 -55.5 -134.5z" />
    <glyph glyph-name="scedilla" unicode="&#x15f;" horiz-adv-x="435" 
d="M352.5 34q-41.5 -40 -113.5 -44l-16 -33q44 -2 67 -23t23 -53q0 -38 -27.5 -59.5t-83.5 -21.5q-29 0 -53 8v41q22 -6 45 -6q71 0 71 38t-63 38q-18 0 -38 -4l31 77q-66 8 -109 52t-47 101h65q5 -42 36 -68t83 -26q51 0 78.5 23t27.5 58q0 26 -16 43t-39 27.5t-65 23.5
q-51 16 -82 30.5t-53 42t-22 71.5q0 39 20.5 71t57.5 50.5t86 18.5q48 0 86 -20t60 -54.5t25 -75.5h-65q-5 42 -32 65.5t-74 23.5t-73 -21.5t-26 -54.5q0 -36 29 -54.5t89 -37.5q51 -17 82.5 -32.5t54 -43.5t22.5 -73q0 -58 -41.5 -98z" />
    <glyph glyph-name="Scaron" unicode="&#x160;" horiz-adv-x="554" 
d="M111.5 49q-62.5 59 -67.5 155h70q5 -71 48.5 -110t117.5 -39t114.5 34.5t40.5 90.5q0 43 -23 70t-56.5 43t-91.5 36q-66 22 -106.5 42t-68.5 57t-28 97q0 53 25.5 95t73.5 66t113 24q66 0 115 -27t76 -74.5t30 -107.5h-70q-4 66 -44.5 105t-106.5 39q-67 0 -104.5 -33.5
t-37.5 -86.5q0 -40 22 -65.5t54 -40t89 -33.5q67 -21 109 -41.5t71 -60.5t29 -104q0 -86 -59 -138t-167 -52q-105 0 -167.5 59zM275 798l69 85h68l-104 -128h-63l-105 128h67z" />
    <glyph glyph-name="scaron" unicode="&#x161;" horiz-adv-x="435" 
d="M131 11.5q-41 21.5 -65 57.5t-27 76h65q5 -42 36 -68t83 -26q51 0 78.5 23t27.5 58q0 26 -16 43t-39 27.5t-65 23.5q-51 16 -82 30.5t-53 42t-22 71.5q0 39 20.5 71t57.5 50.5t86 18.5q48 0 86 -20t60 -54.5t25 -75.5h-65q-5 42 -32 65.5t-74 23.5t-73 -21.5t-26 -54.5
q0 -36 29 -54.5t89 -37.5q51 -17 82.5 -32.5t54 -43.5t22.5 -73q0 -61 -46 -101.5t-125 -40.5q-51 0 -92 21.5zM215 603l65 91h68l-102 -134h-60l-102 134h66z" />
    <glyph glyph-name="uni0162" unicode="&#x162;" horiz-adv-x="536" 
d="M303 0h-18l-20 -43q44 -2 67 -23t23 -53q0 -38 -27.5 -59.5t-83.5 -21.5q-29 0 -53 8v41q22 -6 45 -6q71 0 71 38t-63 38q-18 0 -38 -4l35 85h-8v635h-216v65h502v-65h-216v-635z" />
    <glyph glyph-name="uni0163" unicode="&#x163;" horiz-adv-x="320" 
d="M200 -43q44 -2 67 -23t23 -53q0 -38 -27.5 -59.5t-83.5 -21.5q-29 0 -53 8v41q22 -6 45 -6q71 0 71 38t-63 38q-18 0 -38 -4l37 90q-35 18 -54.5 55.5t-19.5 89.5v289h-89v61h39q61 0 61 60v73h54v-133h117v-61h-117v-290q0 -49 22 -73.5t61 -24.5q18 0 34 6v-59
q-22 -8 -44 -8q-8 0 -26 2z" />
    <glyph glyph-name="Tcaron" unicode="&#x164;" horiz-adv-x="536" 
d="M303 0h-70v635h-216v65h502v-65h-216v-635zM267 798l69 85h68l-104 -128h-63l-105 128h67z" />
    <glyph glyph-name="tcaron" unicode="&#x165;" horiz-adv-x="320" 
d="M143 33q-39 43 -39 117v289h-89v61h39q61 0 61 60v73h54v-133h117v-61h-117v-290q0 -49 22 -73.5t61 -24.5q18 0 34 6v-59q-22 -8 -44 -8q-60 0 -99 43zM249 560h-40l32 140h69z" />
    <glyph glyph-name="Tbar" unicode="&#x166;" horiz-adv-x="536" 
d="M519 700v-65h-216v-258h115v-63h-115v-314h-70v314h-115v63h115v258h-216v65h502z" />
    <glyph glyph-name="tbar" unicode="&#x167;" horiz-adv-x="320" 
d="M286 439h-117v-155h113v-59h-113v-76q0 -49 22 -73.5t61 -24.5q18 0 34 6v-59q-22 -8 -44 -8q-60 0 -99 43t-39 117v75h-85v59h85v155h-89v61h39q61 0 61 60v73h54v-133h117v-61z" />
    <glyph glyph-name="Utilde" unicode="&#x168;" horiz-adv-x="668" 
d="M203 23q-57 33 -88 92.5t-31 135.5v449h70v-449q0 -90 49 -143t131 -53q81 0 130.5 53t49.5 143v449h70v-449q0 -76 -31.5 -135.5t-88 -92.5t-130.5 -33t-131 33zM353 772q-16 10 -34 28q-14 13 -22.5 19t-18.5 6q-17 0 -28 -15t-11 -42h-50q0 53 25.5 81.5t61.5 28.5
q23 0 39 -10t34 -28q14 -13 22.5 -19t18.5 -6q17 0 28 15t11 42h50q0 -53 -26 -81.5t-61 -28.5q-23 0 -39 10z" />
    <glyph glyph-name="utilde" unicode="&#x169;" 
d="M164.5 17q-45.5 27 -71.5 77t-26 116v290h65v-290q0 -74 39 -116.5t101 -42.5q66 0 106 42.5t40 116.5v290h65v-500h-48l-17 68h-5q-20 -31 -58.5 -54.5t-88.5 -23.5q-56 0 -101.5 27zM293.5 577q-15.5 11 -33.5 31q-13 14 -21.5 20.5t-18.5 6.5q-16 0 -26.5 -16
t-10.5 -47h-50q0 58 24.5 87t60.5 29q23 0 38.5 -11t33.5 -31q13 -14 21.5 -20.5t18.5 -6.5q15 0 26 16.5t11 46.5h50q0 -58 -24.5 -87t-60.5 -29q-23 0 -38.5 11z" />
    <glyph glyph-name="Umacron" unicode="&#x16a;" horiz-adv-x="668" 
d="M203 23q-57 33 -88 92.5t-31 135.5v449h70v-449q0 -90 49 -143t131 -53q81 0 130.5 53t49.5 143v449h70v-449q0 -76 -31.5 -135.5t-88 -92.5t-130.5 -33t-131 33zM461 792h-254v55h254v-55z" />
    <glyph glyph-name="umacron" unicode="&#x16b;" 
d="M164.5 17q-45.5 27 -71.5 77t-26 116v290h65v-290q0 -74 39 -116.5t101 -42.5q66 0 106 42.5t40 116.5v290h65v-500h-48l-17 68h-5q-20 -31 -58.5 -54.5t-88.5 -23.5q-56 0 -101.5 27zM399 600h-248v53h248v-53z" />
    <glyph glyph-name="Ubreve" unicode="&#x16c;" horiz-adv-x="668" 
d="M203 23q-57 33 -88 92.5t-31 135.5v449h70v-449q0 -90 49 -143t131 -53q81 0 130.5 53t49.5 143v449h70v-449q0 -76 -31.5 -135.5t-88 -92.5t-130.5 -33t-131 33zM239 795q-36 35 -38 84h54q4 -33 24 -51.5t55 -18.5t55 18.5t24 51.5h54q-2 -49 -38 -84t-95 -35t-95 35z
" />
    <glyph glyph-name="ubreve" unicode="&#x16d;" 
d="M164.5 17q-45.5 27 -71.5 77t-26 116v290h65v-290q0 -74 39 -116.5t101 -42.5q66 0 106 42.5t40 116.5v290h65v-500h-48l-17 68h-5q-20 -31 -58.5 -54.5t-88.5 -23.5q-56 0 -101.5 27zM181.5 601.5q-35.5 35.5 -37.5 86.5h54q4 -35 23.5 -54t53.5 -19t53.5 19t23.5 54h54
q-2 -51 -37.5 -86.5t-93.5 -35.5t-93.5 35.5z" />
    <glyph glyph-name="Uring" unicode="&#x16e;" horiz-adv-x="668" 
d="M203 23q-57 33 -88 92.5t-31 135.5v449h70v-449q0 -90 49 -143t131 -53q81 0 130.5 53t49.5 143v449h70v-449q0 -76 -31.5 -135.5t-88 -92.5t-130.5 -33t-131 33zM267 781.5q-27 26.5 -27 64.5t27 65t67 27q39 0 66 -27t27 -65t-26.5 -64.5t-66.5 -26.5t-67 26.5z
M368 811q13 13 13 35t-13.5 35.5t-33.5 13.5q-21 0 -34.5 -13.5t-13.5 -35.5t13.5 -35t34.5 -13t34 13z" />
    <glyph glyph-name="uring" unicode="&#x16f;" 
d="M164.5 17q-45.5 27 -71.5 77t-26 116v290h65v-290q0 -74 39 -116.5t101 -42.5q66 0 106 42.5t40 116.5v290h65v-500h-48l-17 68h-5q-20 -31 -58.5 -54.5t-88.5 -23.5q-56 0 -101.5 27zM209.5 576q-26.5 26 -26.5 64t26.5 64t65.5 26t65.5 -26t26.5 -64t-26.5 -64
t-65.5 -26t-65.5 26zM310.5 604.5q13.5 13.5 13.5 35.5t-13.5 35.5t-35.5 13.5t-35.5 -13.5t-13.5 -35.5t13.5 -35.5t35.5 -13.5t35.5 13.5z" />
    <glyph glyph-name="Uhungarumlaut" unicode="&#x170;" horiz-adv-x="668" 
d="M203 23q-57 33 -88 92.5t-31 135.5v449h70v-449q0 -90 49 -143t131 -53q81 0 130.5 53t49.5 143v449h70v-449q0 -76 -31.5 -135.5t-88 -92.5t-130.5 -33t-131 33zM295 755h-54l80 128h78zM428 755h-54l80 128h78z" />
    <glyph glyph-name="uhungarumlaut" unicode="&#x171;" 
d="M164.5 17q-45.5 27 -71.5 77t-26 116v290h65v-290q0 -74 39 -116.5t101 -42.5q66 0 106 42.5t40 116.5v290h65v-500h-48l-17 68h-5q-20 -31 -58.5 -54.5t-88.5 -23.5q-56 0 -101.5 27zM235 560h-51l76 134h75zM366 560h-51l76 134h75z" />
    <glyph glyph-name="Uogonek" unicode="&#x172;" horiz-adv-x="668" 
d="M514 700h70v-449q0 -145 -108 -221q-53 -37 -85 -69.5t-32 -67.5q0 -23 14.5 -36.5t39.5 -13.5q16 0 31 5v-42q-18 -6 -39 -6q-42 0 -68 23t-26 62q0 31 17 59t44 48q-24 -2 -38 -2q-74 0 -131 33t-88 92.5t-31 135.5v449h70v-449q0 -90 49 -143t131 -53q81 0 130.5 53
t49.5 143v449z" />
    <glyph glyph-name="uogonek" unicode="&#x173;" 
d="M483 0q-41 -24 -63 -51.5t-22 -55.5q0 -23 14.5 -36.5t39.5 -13.5q16 0 31 5v-43q-15 -5 -39 -5q-42 0 -68 23t-26 62q0 38 24 70t59 51l-15 62h-5q-20 -31 -58.5 -54.5t-88.5 -23.5q-56 0 -101.5 27t-71.5 77t-26 116v290h65v-290q0 -74 39 -116.5t101 -42.5
q66 0 106 42.5t40 116.5v290h65v-500z" />
    <glyph glyph-name="Wcircumflex" unicode="&#x174;" horiz-adv-x="864" 
d="M619 141l163 559h70l-210 -700h-51l-160 549l-158 -549h-51l-210 700h73l163 -559l159 559h50zM464 883l104 -128h-68l-69 85l-68 -85h-67l105 128h63z" />
    <glyph glyph-name="wcircumflex" unicode="&#x175;" horiz-adv-x="678" 
d="M481 117l123 383h67l-167 -500h-47l-119 381l-117 -381h-47l-167 500h70l121 -383l119 383h45zM370 694l102 -134h-68l-65 91l-65 -91h-66l102 134h60z" />
    <glyph glyph-name="Ycircumflex" unicode="&#x176;" horiz-adv-x="534" 
d="M269 344l190 356h73l-230 -426v-274h-70v274l-230 426h76zM301 883l104 -128h-68l-69 85l-68 -85h-67l105 128h63z" />
    <glyph glyph-name="ycircumflex" unicode="&#x177;" horiz-adv-x="474" 
d="M399 500h68l-221 -550q-32 -78 -63.5 -106.5t-71.5 -28.5q-17 0 -39 8v59q17 -6 31 -6q24 0 42.5 15t33.5 52l27 68l-199 489h70l163 -406zM268 694l102 -134h-68l-65 91l-65 -91h-66l102 134h60z" />
    <glyph glyph-name="Ydieresis" unicode="&#x178;" horiz-adv-x="534" 
d="M269 344l190 356h73l-230 -426v-274h-70v274l-230 426h76zM154 788.5q-13 12.5 -13 30.5t13 30.5t30 12.5q18 0 30.5 -12.5t12.5 -30.5t-12.5 -30.5t-30.5 -12.5q-17 0 -30 12.5zM324 788.5q-13 12.5 -13 30.5t13 30.5t30 12.5t30 -12.5t13 -30.5t-13 -30.5t-30 -12.5
t-30 12.5z" />
    <glyph glyph-name="Zacute" unicode="&#x179;" horiz-adv-x="543" 
d="M491 657l-364 -592h377v-65h-465v43l364 592h-353v65h441v-43zM287 755h-54l70 128h78z" />
    <glyph glyph-name="zacute" unicode="&#x17a;" horiz-adv-x="416" 
d="M375 445l-264 -384h272v-61h-350v55l265 384h-260v61h337v-55zM222 560h-51l66 134h75z" />
    <glyph glyph-name="Zdotaccent" unicode="&#x17b;" horiz-adv-x="543" 
d="M491 657l-364 -592h377v-65h-465v43l364 592h-353v65h441v-43zM239 787q-13 13 -13 32q0 20 13 32.5t32 12.5q20 0 32.5 -12.5t12.5 -32.5q0 -19 -13 -32t-32 -13t-32 13z" />
    <glyph glyph-name="zdotaccent" unicode="&#x17c;" horiz-adv-x="416" 
d="M375 445l-264 -384h272v-61h-350v55l265 384h-260v61h337v-55zM175 593q-13 13 -13 32q0 20 13 32.5t32 12.5q20 0 32.5 -12.5t12.5 -32.5q0 -19 -13 -32t-32 -13t-32 13z" />
    <glyph glyph-name="Zcaron" unicode="&#x17d;" horiz-adv-x="543" 
d="M491 657l-364 -592h377v-65h-465v43l364 592h-353v65h441v-43zM270 798l69 85h68l-104 -128h-63l-105 128h67z" />
    <glyph glyph-name="zcaron" unicode="&#x17e;" horiz-adv-x="416" 
d="M375 445l-264 -384h272v-61h-350v55l265 384h-260v61h337v-55zM206 603l65 91h68l-102 -134h-60l-102 134h66z" />
    <glyph glyph-name="uni018F" unicode="&#x18f;" horiz-adv-x="732" 
d="M524 663q75 -47 119.5 -129.5t44.5 -183.5t-44.5 -183.5t-119.5 -129.5t-161 -47q-83 0 -156.5 47t-118 128.5t-44.5 179.5q0 15 2 29h571q-5 79 -41 141t-92 96t-121 34q-71 0 -131.5 -39.5t-93.5 -111.5h-70q21 65 66.5 114t105.5 75.5t123 26.5q86 0 161 -47z
M480.5 87q55.5 32 91.5 90.5t44 133.5h-499q5 -71 40.5 -130t90.5 -92.5t115 -33.5q62 0 117.5 32z" />
    <glyph glyph-name="florin" unicode="&#x192;" horiz-adv-x="364" 
d="M389 699l-12 -56q-15 5 -32 5q-45 0 -68.5 -29t-35.5 -91l-21 -114h111l-14 -62h-109l-66 -355q-17 -93 -58 -137.5t-110 -44.5q-26 0 -46 11l12 56q12 -5 31 -5q45 0 69.5 29.5t36.5 90.5l66 355h-76l12 62h75l21 114q17 93 58 137.5t109 44.5q25 0 47 -11z" />
    <glyph glyph-name="Ohorn" unicode="&#x1a0;" horiz-adv-x="737" 
d="M658 514.5q35 -75.5 35 -164.5q0 -101 -44.5 -183.5t-119.5 -129.5t-161 -47t-160.5 47t-119 129.5t-44.5 183.5t44.5 183.5t119 129.5t160.5 47q55 0 107 -20h62q52 0 52 47q0 22 -13 53h54q6 -12 10.5 -30t4.5 -33q0 -34 -22.5 -59t-59.5 -29q60 -49 95 -124.5z
M494.5 92.5q58.5 37.5 93.5 105t35 152.5t-35 152.5t-93.5 105t-126.5 37.5q-67 0 -125.5 -37.5t-93.5 -105t-35 -152.5t35 -152.5t93.5 -105t125.5 -37.5q68 0 126.5 37.5z" />
    <glyph glyph-name="ohorn" unicode="&#x1a1;" horiz-adv-x="548" 
d="M488.5 359.5q20.5 -50.5 20.5 -109.5q0 -74 -31.5 -133.5t-85.5 -93t-118 -33.5t-118 33.5t-85.5 93t-31.5 133.5t31.5 133.5t85.5 93t118 33.5q48 0 93 -20h26q26 0 39 10t13 26q0 27 -13 64h48q7 -12 12.5 -30.5t5.5 -35.5q0 -29 -17.5 -50.5t-48.5 -28.5
q36 -35 56.5 -85.5zM359 76q39 25 62 70.5t23 103.5t-23 103.5t-62 70.5t-85 25t-85 -25t-62 -70.5t-23 -103.5t23 -103.5t62 -70.5t85 -25t85 25z" />
    <glyph glyph-name="Uhorn" unicode="&#x1af;" horiz-adv-x="688" 
d="M682 800q6 -12 10.5 -30t4.5 -33q0 -38 -26.5 -63.5t-69.5 -25.5h-17v-397q0 -76 -31.5 -135.5t-88 -92.5t-130.5 -33t-131 33t-88 92.5t-31 135.5v449h70v-449q0 -90 49 -143t131 -53q81 0 130.5 53t49.5 143v449h75q52 0 52 47q0 22 -13 53h54z" />
    <glyph glyph-name="uhorn" unicode="&#x1b0;" horiz-adv-x="575" 
d="M575 600q7 -12 12.5 -30.5t5.5 -35.5q0 -35 -25.5 -58.5t-67.5 -23.5h-17v-452h-48l-17 68h-5q-20 -31 -58.5 -54.5t-88.5 -23.5q-56 0 -101.5 27t-71.5 77t-26 116v290h65v-290q0 -74 39 -116.5t101 -42.5q66 0 106 42.5t40 116.5v290h70q26 0 39 10t13 26q0 27 -13 64
h48z" />
    <glyph glyph-name="uni01F4" unicode="&#x1f4;" horiz-adv-x="743" 
d="M391 342h280v-342h-49l-16 113q-36 -52 -98 -87.5t-140 -35.5q-86 0 -160.5 47t-119 129.5t-44.5 183.5t44.5 183.5t119 129.5t160.5 47q69 0 130.5 -29.5t104 -81t57.5 -113.5h-70q-26 70 -83 114.5t-139 44.5q-67 0 -125.5 -37.5t-93.5 -105t-35 -152.5t35 -152.5
t93.5 -105t125.5 -37.5q63 0 115 28.5t83.5 79.5t34.5 116h-210v63zM383 755h-54l70 128h78z" />
    <glyph glyph-name="uni01F5" unicode="&#x1f5;" horiz-adv-x="559" 
d="M135 -149q-57 41 -74 110h65q14 -42 52.5 -66t94.5 -24q67 0 108 40t41 106v79h-5q-9 -14 -31 -32.5t-54 -32.5t-69 -14q-61 0 -112.5 32t-81.5 88.5t-30 125.5q0 70 30 126.5t81.5 88.5t112.5 32q37 0 69 -13.5t54 -32t31 -32.5h5l17 68h48v-483q0 -61 -27 -108
t-75.5 -73t-111.5 -26q-81 0 -138 41zM341.5 102q36.5 24 58.5 66.5t22 94.5q0 53 -22 95.5t-58.5 66.5t-78.5 24q-43 0 -79.5 -24t-58 -66.5t-21.5 -95.5q0 -52 21.5 -94.5t58 -66.5t79.5 -24q42 0 78.5 24zM293 560h-51l66 134h75z" />
    <glyph glyph-name="Aringacute" unicode="&#x1fa;" horiz-adv-x="607" 
d="M602 0h-75l-67 178h-316l-67 -178h-72l266 700h65zM436 243l-134 357l-134 -357h268zM332 943h-54l57 114h78zM237 771.5q-27 26.5 -27 64.5t27 65t67 27q39 0 66 -27t27 -65t-26.5 -64.5t-66.5 -26.5t-67 26.5zM338 801q13 13 13 35t-13.5 35.5t-33.5 13.5
q-21 0 -34.5 -13.5t-13.5 -35.5t13.5 -35t34.5 -13t34 13z" />
    <glyph glyph-name="aringacute" unicode="&#x1fb;" horiz-adv-x="497" 
d="M340 486.5q42 -23.5 66 -65.5t24 -96v-325h-48l-17 68h-5q-19 -30 -58.5 -54t-95.5 -24q-50 0 -87.5 20.5t-58 54.5t-20.5 75q0 45 27.5 80.5t77 55.5t113.5 20h107v29q0 56 -33 90t-87 34q-51 0 -80.5 -26t-37.5 -68h-65q5 42 29.5 77.5t64.5 56.5t89 21q53 0 95 -23.5z
M323.5 91.5q41.5 40.5 41.5 102.5v43h-97q-77 0 -120 -25.5t-43 -71.5q0 -40 28 -64.5t80 -24.5q69 0 110.5 40.5zM273 745h-51l61 124h75zM181.5 576q-26.5 26 -26.5 64t26.5 64t65.5 26t65.5 -26t26.5 -64t-26.5 -64t-65.5 -26t-65.5 26zM282.5 604.5q13.5 13.5 13.5 35.5
t-13.5 35.5t-35.5 13.5t-35.5 -13.5t-13.5 -35.5t13.5 -35.5t35.5 -13.5t35.5 13.5z" />
    <glyph glyph-name="AEacute" unicode="&#x1fc;" horiz-adv-x="880" 
d="M492 328v-263h343v-65h-413v178h-271l-102 -178h-77l404 700h449v-65h-333v-242h295v-65h-295zM412 635l-224 -392h234v392h-10zM473 755h-54l70 128h78z" />
    <glyph glyph-name="aeacute" unicode="&#x1fd;" horiz-adv-x="834" 
d="M790 225h-359q7 -80 50.5 -127t107.5 -47q42 0 72 19t51 60h65q-25 -65 -73.5 -102.5t-114.5 -37.5q-64 0 -113.5 31.5t-76.5 81.5q-21 -51 -68.5 -82t-123.5 -31q-51 0 -89 19.5t-58 52t-20 71.5q0 69 59.5 110t159.5 41h108v43q0 54 -33.5 88t-85.5 34
q-53 0 -82.5 -25.5t-38.5 -68.5h-65q6 42 30.5 77.5t65 56.5t90.5 21q60 0 102.5 -31t58.5 -73q23 45 69 74.5t109 29.5q61 0 108.5 -30.5t73.5 -85.5t26 -126q0 -28 -5 -43zM484.5 404q-43.5 -45 -52.5 -120h298q-2 69 -40 117t-103 48q-59 0 -102.5 -45zM325 91.5
q42 40.5 42 102.5v31h-99q-163 0 -163 -92q0 -37 27.5 -59.5t80.5 -22.5q70 0 112 40.5zM434 560h-51l66 134h75z" />
    <glyph glyph-name="Oslashacute" unicode="&#x1fe;" horiz-adv-x="737" 
d="M693 663l-75 -82q36 -47 55.5 -106t19.5 -125q0 -101 -44.5 -183.5t-119.5 -129.5t-161 -47q-58 0 -112 22t-97 63l-73 -80l-42 42l75 82q-36 47 -55.5 106t-19.5 125q0 101 44.5 183.5t119 129.5t160.5 47q58 0 112 -22t98 -63l73 80zM242.5 607.5
q-58.5 -37.5 -93.5 -105t-35 -152.5q0 -103 51 -181l368 408q-34 33 -76.5 50.5t-88.5 17.5q-67 0 -125.5 -37.5zM494.5 92.5q58.5 37.5 93.5 105t35 152.5q0 103 -51 181l-368 -408q34 -33 76.5 -50.5t87.5 -17.5q68 0 126.5 37.5zM384 755h-54l70 128h78z" />
    <glyph glyph-name="oslashacute" unicode="&#x1ff;" horiz-adv-x="548" 
d="M509 467l-50 -54q50 -69 50 -163q0 -74 -31.5 -133.5t-85.5 -93t-118 -33.5q-42 0 -80.5 15t-68.5 42l-48 -52l-38 38l50 54q-50 69 -50 163q0 74 31.5 133.5t85.5 93t118 33.5q41 0 79.5 -14.5t69.5 -41.5l48 51zM189 424q-39 -25 -62 -70.5t-23 -103.5q0 -64 29 -114
l247 271q-45 42 -106 42q-46 0 -85 -25zM359 76q39 25 62 70.5t23 103.5q0 64 -29 114l-248 -271q47 -42 107 -42q46 0 85 25zM289 560h-51l66 134h75z" />
    <glyph glyph-name="uni0218" unicode="&#x218;" horiz-adv-x="554" 
d="M111.5 49q-62.5 59 -67.5 155h70q5 -71 48.5 -110t117.5 -39t114.5 34.5t40.5 90.5q0 43 -23 70t-56.5 43t-91.5 36q-66 22 -106.5 42t-68.5 57t-28 97q0 53 25.5 95t73.5 66t113 24q66 0 115 -27t76 -74.5t30 -107.5h-70q-4 66 -44.5 105t-106.5 39q-67 0 -104.5 -33.5
t-37.5 -86.5q0 -40 22 -65.5t54 -40t89 -33.5q67 -21 109 -41.5t71 -60.5t29 -104q0 -86 -59 -138t-167 -52q-105 0 -167.5 59zM316 -96q14 -16 14 -44q0 -41 -22 -75.5t-46 -54.5l-15 18q11 11 21 31t12 47q-19 1 -33.5 13.5t-14.5 33.5t14.5 34t32.5 13q23 0 37 -16z" />
    <glyph glyph-name="uni0219" unicode="&#x219;" horiz-adv-x="435" 
d="M131 11.5q-41 21.5 -65 57.5t-27 76h65q5 -42 36 -68t83 -26q51 0 78.5 23t27.5 58q0 26 -16 43t-39 27.5t-65 23.5q-51 16 -82 30.5t-53 42t-22 71.5q0 39 20.5 71t57.5 50.5t86 18.5q48 0 86 -20t60 -54.5t25 -75.5h-65q-5 42 -32 65.5t-74 23.5t-73 -21.5t-26 -54.5
q0 -36 29 -54.5t89 -37.5q51 -17 82.5 -32.5t54 -43.5t22.5 -73q0 -61 -46 -101.5t-125 -40.5q-51 0 -92 21.5zM262 -96q14 -16 14 -44q0 -41 -22 -75.5t-46 -54.5l-15 18q11 11 21 31t12 47q-19 1 -33.5 13.5t-14.5 33.5t14.5 34t32.5 13q23 0 37 -16z" />
    <glyph glyph-name="uni021A" unicode="&#x21a;" horiz-adv-x="536" 
d="M303 0h-70v635h-216v65h502v-65h-216v-635zM304 -96q14 -16 14 -44q0 -41 -22 -75.5t-46 -54.5l-15 18q11 11 21 31t12 47q-19 1 -33.5 13.5t-14.5 33.5t14.5 34t32.5 13q23 0 37 -16z" />
    <glyph glyph-name="uni021B" unicode="&#x21b;" horiz-adv-x="320" 
d="M143 33q-39 43 -39 117v289h-89v61h39q61 0 61 60v73h54v-133h117v-61h-117v-290q0 -49 22 -73.5t61 -24.5q18 0 34 6v-59q-22 -8 -44 -8q-60 0 -99 43zM239 -96q14 -16 14 -44q0 -41 -22 -75.5t-46 -54.5l-15 18q11 11 21 31t12 47q-19 1 -33.5 13.5t-14.5 33.5t14.5 34
t32.5 13q23 0 37 -16z" />
    <glyph glyph-name="uni0232" unicode="&#x232;" horiz-adv-x="534" 
d="M269 344l190 356h73l-230 -426v-274h-70v274l-230 426h76zM396 792h-254v55h254v-55z" />
    <glyph glyph-name="uni0233" unicode="&#x233;" horiz-adv-x="474" 
d="M399 500h68l-221 -550q-32 -78 -63.5 -106.5t-71.5 -28.5q-17 0 -39 8v59q17 -6 31 -6q24 0 42.5 15t33.5 52l27 68l-199 489h70l163 -406zM362 600h-248v53h248v-53z" />
    <glyph glyph-name="uni0237" unicode="&#x237;" horiz-adv-x="209" 
d="M-45 -177v59q16 -6 34 -6q39 0 61 24.5t22 73.5v526h65v-526q0 -74 -38.5 -116.5t-99.5 -42.5q-22 0 -44 8z" />
    <glyph glyph-name="uni0244" unicode="&#x244;" horiz-adv-x="720" 
d="M705 442v-63h-95v-128q0 -76 -31.5 -135.5t-88 -92.5t-130.5 -33t-131 33t-88 92.5t-31 135.5v128h-95v63h95v258h70v-258h360v258h70v-258h95zM540 379h-360v-128q0 -90 49 -143t131 -53q81 0 130.5 53t49.5 143v128z" />
    <glyph glyph-name="uni0259" unicode="&#x259;" horiz-adv-x="537" 
d="M382.5 477q53.5 -33 84.5 -92t31 -135q0 -74 -31.5 -133.5t-85.5 -93t-118 -33.5q-63 0 -114.5 32.5t-80.5 88.5t-29 124q0 31 4 47h388q-8 77 -54.5 122t-115.5 45q-92 0 -139 -79h-65q23 61 79 100.5t127 39.5q66 0 119.5 -33zM341.5 72.5q36.5 21.5 61 61t29.5 89.5
h-327q5 -75 49 -123.5t109 -48.5q42 0 78.5 21.5z" />
    <glyph glyph-name="uni0289" unicode="&#x289;" horiz-adv-x="591" 
d="M581 335v-59h-80v-276h-48l-17 68h-5q-20 -31 -58.5 -54.5t-88.5 -23.5q-56 0 -101.5 27t-71.5 77t-26 116v66h-80v59h80v165h65v-165h286v165h65v-165h80zM436 276h-286v-66q0 -74 39 -116.5t101 -42.5q66 0 106 42.5t40 116.5v66z" />
    <glyph glyph-name="uni02BC" unicode="&#x2bc;" horiz-adv-x="158" 
d="M114 694q14 -16 14 -44q0 -44 -23 -81.5t-50 -63.5l-15 18q33 44 36 93q-19 2 -32.5 14.5t-13.5 32.5q0 21 14.5 34t32.5 13q23 0 37 -16z" />
    <glyph glyph-name="circumflex" unicode="&#x2c6;" horiz-adv-x="324" 
d="M192 694l102 -134h-68l-65 91l-65 -91h-66l102 134h60z" />
    <glyph glyph-name="caron" unicode="&#x2c7;" horiz-adv-x="324" 
d="M161 603l65 91h68l-102 -134h-60l-102 134h66z" />
    <glyph glyph-name="breve" unicode="&#x2d8;" horiz-adv-x="322" 
d="M67.5 601.5q-35.5 35.5 -37.5 86.5h54q4 -35 23.5 -54t53.5 -19t53.5 19t23.5 54h54q-2 -51 -37.5 -86.5t-93.5 -35.5t-93.5 35.5z" />
    <glyph glyph-name="dotaccent" unicode="&#x2d9;" horiz-adv-x="150" 
d="M43 593q-13 13 -13 32q0 20 13 32.5t32 12.5q20 0 32.5 -12.5t12.5 -32.5q0 -19 -13 -32t-32 -13t-32 13z" />
    <glyph glyph-name="ring" unicode="&#x2da;" horiz-adv-x="244" 
d="M56.5 576q-26.5 26 -26.5 64t26.5 64t65.5 26t65.5 -26t26.5 -64t-26.5 -64t-65.5 -26t-65.5 26zM157.5 604.5q13.5 13.5 13.5 35.5t-13.5 35.5t-35.5 13.5t-35.5 -13.5t-13.5 -35.5t13.5 -35.5t35.5 -13.5t35.5 13.5z" />
    <glyph glyph-name="ogonek" unicode="&#x2db;" horiz-adv-x="193" 
d="M92.5 -143.5q14.5 -13.5 39.5 -13.5q16 0 31 5v-43q-15 -5 -39 -5q-42 0 -68 23t-26 62q0 38 24.5 70.5t59.5 50.5v7l49 -13q-41 -24 -63 -51.5t-22 -55.5q0 -23 14.5 -36.5z" />
    <glyph glyph-name="tilde" unicode="&#x2dc;" horiz-adv-x="344" 
d="M190.5 577q-15.5 11 -33.5 31q-13 14 -21.5 20.5t-18.5 6.5q-16 0 -26.5 -16t-10.5 -47h-50q0 58 24.5 87t60.5 29q23 0 38.5 -11t33.5 -31q13 -14 21.5 -20.5t18.5 -6.5q15 0 26 16.5t11 46.5h50q0 -58 -24.5 -87t-60.5 -29q-23 0 -38.5 11z" />
    <glyph glyph-name="hungarumlaut" unicode="&#x2dd;" horiz-adv-x="342" 
d="M81 560h-51l76 134h75zM212 560h-51l76 134h75z" />
    <glyph glyph-name="gravecomb" unicode="&#x300;" horiz-adv-x="0" 
d="M-30 560h-51l-91 134h75z" />
    <glyph glyph-name="acutecomb" unicode="&#x301;" horiz-adv-x="0" 
d="M-120 560h-51l66 134h75z" />
    <glyph glyph-name="uni0302" unicode="&#x302;" horiz-adv-x="0" 
d="M-132 694l102 -134h-68l-65 91l-65 -91h-66l102 134h60z" />
    <glyph glyph-name="tildecomb" unicode="&#x303;" horiz-adv-x="0" 
d="M-153.5 577q-15.5 11 -33.5 31q-13 14 -21.5 20.5t-18.5 6.5q-16 0 -26.5 -16t-10.5 -47h-50q0 58 24.5 87t60.5 29q23 0 38.5 -11t33.5 -31q13 -14 21.5 -20.5t18.5 -6.5q15 0 26 16.5t11 46.5h50q0 -58 -24.5 -87t-60.5 -29q-23 0 -38.5 11z" />
    <glyph glyph-name="uni0304" unicode="&#x304;" horiz-adv-x="0" 
d="M-30 600h-248v53h248v-53z" />
    <glyph glyph-name="uni0306" unicode="&#x306;" horiz-adv-x="0" 
d="M-254.5 601.5q-35.5 35.5 -37.5 86.5h54q4 -35 23.5 -54t53.5 -19t53.5 19t23.5 54h54q-2 -51 -37.5 -86.5t-93.5 -35.5t-93.5 35.5z" />
    <glyph glyph-name="uni0307" unicode="&#x307;" horiz-adv-x="0" 
d="M-107 593q-13 13 -13 32q0 20 13 32.5t32 12.5q20 0 32.5 -12.5t12.5 -32.5q0 -19 -13 -32t-32 -13t-32 13z" />
    <glyph glyph-name="uni0308" unicode="&#x308;" horiz-adv-x="0" 
d="M-263 594.5q-13 12.5 -13 30.5t12.5 30.5t30.5 12.5t30.5 -12t12.5 -31q0 -18 -12.5 -30.5t-30.5 -12.5q-17 0 -30 12.5zM-103.5 594.5q-12.5 12.5 -12.5 30.5q0 19 12.5 31t30.5 12t30.5 -12.5t12.5 -30.5t-13 -30.5t-30 -12.5q-18 0 -30.5 12.5z" />
    <glyph glyph-name="hookabovecomb" unicode="&#x309;" horiz-adv-x="0" 
d="M-106 557q23 33 23 62q0 54 -52 54q-13 0 -28 -4v48q20 6 42 6q43 0 67 -23t24 -64q0 -25 -7.5 -42.5t-20.5 -36.5h-48z" />
    <glyph glyph-name="uni030A" unicode="&#x30a;" horiz-adv-x="0" 
d="M-187.5 576q-26.5 26 -26.5 64t26.5 64t65.5 26t65.5 -26t26.5 -64t-26.5 -64t-65.5 -26t-65.5 26zM-86.5 604.5q13.5 13.5 13.5 35.5t-13.5 35.5t-35.5 13.5t-35.5 -13.5t-13.5 -35.5t13.5 -35.5t35.5 -13.5t35.5 13.5z" />
    <glyph glyph-name="uni030B" unicode="&#x30b;" horiz-adv-x="0" 
d="M-261 560h-51l76 134h75zM-130 560h-51l76 134h75z" />
    <glyph glyph-name="uni030C" unicode="&#x30c;" horiz-adv-x="0" 
d="M-163 603l65 91h68l-102 -134h-60l-102 134h66z" />
    <glyph glyph-name="uni0312" unicode="&#x312;" horiz-adv-x="0" 
d="M-44.5 640.5q14.5 -12.5 14.5 -33.5t-14.5 -34t-32.5 -13q-23 0 -37 16t-14 44q0 41 23.5 74.5t49.5 52.5l14 -18q-13 -10 -24 -29t-13 -46q19 -1 33.5 -13.5z" />
    <glyph glyph-name="uni031B" unicode="&#x31b;" horiz-adv-x="0" 
d="M-187 452l-10 48h62q26 0 39 10t13 26q0 27 -13 64h48q7 -12 12.5 -30.5t5.5 -35.5q0 -35 -25.5 -58.5t-67.5 -23.5h-64z" />
    <glyph glyph-name="dotbelowcomb" unicode="&#x323;" horiz-adv-x="0" 
d="M-107 -157q-13 13 -13 32q0 20 13 32.5t32 12.5q20 0 32.5 -12.5t12.5 -32.5t-13 -32.5t-32 -12.5t-32 13z" />
    <glyph glyph-name="uni0327" unicode="&#x327;" horiz-adv-x="0" 
d="M-120 -43q44 -2 67 -23t23 -53q0 -38 -27.5 -59.5t-83.5 -21.5q-29 0 -53 8v41q22 -6 45 -6q71 0 71 38t-63 38q-18 0 -38 -4l41 100h45z" />
    <glyph glyph-name="uni0328" unicode="&#x328;" horiz-adv-x="0" 
d="M-100.5 -143.5q14.5 -13.5 39.5 -13.5q16 0 31 5v-43q-15 -5 -39 -5q-42 0 -68 23t-26 62q0 38 24.5 70.5t59.5 50.5v7l49 -13q-41 -24 -63 -51.5t-22 -55.5q0 -23 14.5 -36.5z" />
    <glyph glyph-name="uni0400" unicode="&#x400;" horiz-adv-x="577" 
d="M159 328v-263h373v-65h-443v700h433v-65h-363v-242h325v-65h-325zM344 755h-54l-95 128h78z" />
    <glyph glyph-name="uni0401" unicode="&#x401;" horiz-adv-x="577" 
d="M159 328v-263h373v-65h-443v700h433v-65h-363v-242h325v-65h-325zM191 788.5q-13 12.5 -13 30.5t13 30.5t30 12.5q18 0 30.5 -12.5t12.5 -30.5t-12.5 -30.5t-30.5 -12.5q-17 0 -30 12.5zM361 788.5q-13 12.5 -13 30.5t13 30.5t30 12.5t30 -12.5t13 -30.5t-13 -30.5
t-30 -12.5t-30 12.5z" />
    <glyph glyph-name="uni0402" unicode="&#x402;" horiz-adv-x="710" 
d="M589 389q63 -67 63 -188q0 -77 -30.5 -135t-84 -89.5t-119.5 -31.5v65q46 0 83.5 22.5t59 66t21.5 102.5q0 92 -44 141t-118 49q-52 0 -98 -16.5t-80 -39.5v-335h-70v635h-177v65h472v-65h-225v-234q33 22 79.5 38.5t98.5 16.5q106 0 169 -67z" />
    <glyph glyph-name="uni0403" unicode="&#x403;" horiz-adv-x="498" 
d="M159 0h-70v700h397v-65h-327v-635zM304 755h-54l70 128h78z" />
    <glyph glyph-name="uni0404" unicode="&#x404;" horiz-adv-x="699" 
d="M660 219q-17 -63 -59 -115t-103 -83t-130 -31q-86 0 -160.5 47t-119 129.5t-44.5 183.5t44.5 183.5t119 129.5t160.5 47q68 0 128 -31.5t102 -83.5t59 -114h-70q-25 69 -83 116.5t-136 47.5q-63 0 -118.5 -33t-91.5 -93t-43 -137h292v-63h-292q6 -77 42.5 -137.5
t92 -93.5t118.5 -33q79 0 138 47t84 117h70z" />
    <glyph glyph-name="uni0405" unicode="&#x405;" horiz-adv-x="554" 
d="M111.5 49q-62.5 59 -67.5 155h70q5 -71 48.5 -110t117.5 -39t114.5 34.5t40.5 90.5q0 43 -23 70t-56.5 43t-91.5 36q-66 22 -106.5 42t-68.5 57t-28 97q0 53 25.5 95t73.5 66t113 24q66 0 115 -27t76 -74.5t30 -107.5h-70q-4 66 -44.5 105t-106.5 39q-67 0 -104.5 -33.5
t-37.5 -86.5q0 -40 22 -65.5t54 -40t89 -33.5q67 -21 109 -41.5t71 -60.5t29 -104q0 -86 -59 -138t-167 -52q-105 0 -167.5 59z" />
    <glyph glyph-name="uni0406" unicode="&#x406;" horiz-adv-x="248" 
d="M159 0h-70v700h70v-700z" />
    <glyph glyph-name="uni0407" unicode="&#x407;" horiz-adv-x="248" 
d="M159 0h-70v700h70v-700zM27 788.5q-13 12.5 -13 30.5t13 30.5t30 12.5q18 0 30.5 -12.5t12.5 -30.5t-12.5 -30.5t-30.5 -12.5q-17 0 -30 12.5zM161 788.5q-13 12.5 -13 30.5t13 30.5t30 12.5q18 0 30.5 -12.5t12.5 -30.5t-12.5 -30.5t-30.5 -12.5q-17 0 -30 12.5z" />
    <glyph glyph-name="uni0408" unicode="&#x408;" horiz-adv-x="525" 
d="M119.5 17.5q-48.5 27.5 -75.5 73t-27 98.5h70q0 -34 18.5 -65t51 -50t73.5 -19q64 0 102.5 40t38.5 106v499h70v-499q0 -62 -26 -110t-74 -74.5t-111 -26.5q-62 0 -110.5 27.5z" />
    <glyph glyph-name="uni0409" unicode="&#x409;" horiz-adv-x="979" 
d="M724 411q63 0 114 -27t79.5 -74t28.5 -104t-28.5 -104.5t-79.5 -74.5t-114 -27h-220v635h-270l-34 -436q-8 -102 -54 -155.5t-117 -53.5q-25 0 -38 5v65h17q111 0 122 139l39 501h405v-289h150zM724 65q68 0 110 39t42 102q0 62 -42 101t-110 39h-150v-281h150z" />
    <glyph glyph-name="uni040A" unicode="&#x40a;" horiz-adv-x="986" 
d="M731 411q63 0 114 -27t79.5 -74.5t28.5 -104.5t-28.5 -104t-79.5 -74t-114 -27h-220v346h-352v-346h-70v700h70v-289h352v289h70v-289h150zM731 65q68 0 110 39t42 101q0 63 -42 102t-110 39h-150v-281h150z" />
    <glyph glyph-name="uni040B" unicode="&#x40b;" horiz-adv-x="715" 
d="M585.5 394q61.5 -62 61.5 -171v-223h-70v223q0 80 -42.5 124t-114.5 44q-52 0 -98 -16.5t-80 -39.5v-335h-70v635h-177v65h472v-65h-225v-234q33 22 79.5 38.5t98.5 16.5q104 0 165.5 -62z" />
    <glyph glyph-name="uni040C" unicode="&#x40c;" horiz-adv-x="550" 
d="M89 0v700h70v-700h-70zM542 700l-299 -341l315 -359h-90l-309 355l299 345h84zM321 755h-54l70 128h78z" />
    <glyph glyph-name="uni040D" unicode="&#x40d;" horiz-adv-x="690" 
d="M159 121l375 579h67v-700h-70v579l-375 -579h-67v700h70v-579zM389 755h-54l-95 128h78z" />
    <glyph glyph-name="uni040E" unicode="&#x40e;" horiz-adv-x="551" 
d="M476 700h73l-250 -557q-36 -80 -73.5 -116.5t-92.5 -36.5q-27 0 -49 11v63q18 -9 39 -9q37 0 64 27.5t50 77.5l15 33l-240 507h78l197 -428zM184.5 794.5q-36.5 34.5 -38.5 84.5h54q4 -33 24.5 -51.5t58.5 -18.5t58.5 18.5t24.5 51.5h54q-2 -50 -38.5 -84.5t-98.5 -34.5
t-98.5 34.5z" />
    <glyph glyph-name="uni040F" unicode="&#x40f;" horiz-adv-x="680" 
d="M521 700h70v-700h-216v-150h-70v150h-216v700h70v-635h362v635z" />
    <glyph glyph-name="uni0410" unicode="&#x410;" horiz-adv-x="607" 
d="M602 0h-75l-67 178h-316l-67 -178h-72l266 700h65zM436 243l-134 357l-134 -357h268z" />
    <glyph glyph-name="uni0411" unicode="&#x411;" horiz-adv-x="603" 
d="M349 407q63 0 111.5 -26t76 -72.5t27.5 -104.5t-27.5 -104.5t-76 -73t-111.5 -26.5h-260v700h420v-65h-350v-228h190zM349 65q67 0 106 37.5t39 101.5t-39 101t-106 37h-190v-277h190z" />
    <glyph glyph-name="uni0412" unicode="&#x412;" horiz-adv-x="614" 
d="M529 317.5q41 -43.5 41 -115.5q0 -58 -28 -104t-78 -72t-115 -26h-260v700h249q60 0 106.5 -24t72 -65.5t25.5 -91.5q0 -57 -30.5 -92.5t-70.5 -50.5q47 -15 88 -58.5zM159 635v-233h179q62 0 98 32t36 85q0 52 -36 84t-98 32h-179zM349 65q66 0 108.5 39t42.5 98
t-42.5 98t-108.5 39h-190v-274h190z" />
    <glyph glyph-name="uni0413" unicode="&#x413;" horiz-adv-x="498" 
d="M159 0h-70v700h397v-65h-327v-635z" />
    <glyph glyph-name="uni0414" unicode="&#x414;" horiz-adv-x="677" 
d="M568 65h87v-215h-70v150h-505v-150h-70v215h49q25 17 44 49.5t23 85.5l41 500h401v-635zM498 65v570h-268l-34 -436q-3 -49 -17 -82.5t-31 -51.5h350z" />
    <glyph glyph-name="uni0415" unicode="&#x415;" horiz-adv-x="577" 
d="M159 328v-263h373v-65h-443v700h433v-65h-363v-242h325v-65h-325z" />
    <glyph glyph-name="uni0416" unicode="&#x416;" horiz-adv-x="774" 
d="M275 359l-267 341h80l264 -345l-274 -355h-86zM352 700h70v-700h-70v700zM766 700l-267 -341l283 -359h-86l-274 355l264 345h80z" />
    <glyph glyph-name="uni0417" unicode="&#x417;" horiz-adv-x="538" 
d="M455.5 301q38.5 -43 38.5 -115q0 -50 -29 -95.5t-81.5 -73t-117.5 -27.5q-69 0 -120.5 26t-81.5 71.5t-36 101.5h70q9 -60 52 -97t116 -37q71 0 114.5 37.5t43.5 93.5q0 62 -44 101t-119 39h-46v63h46q67 0 106.5 35t39.5 91t-40 93t-107 37q-62 0 -103 -38t-45 -95h-70
q4 55 32.5 100t77 71.5t108.5 26.5q63 0 112.5 -26.5t77 -71.5t27.5 -97q0 -54 -33.5 -93t-79.5 -58q53 -20 91.5 -63z" />
    <glyph glyph-name="uni0418" unicode="&#x418;" horiz-adv-x="690" 
d="M159 121l375 579h67v-700h-70v579l-375 -579h-67v700h70v-579z" />
    <glyph glyph-name="uni0419" unicode="&#x419;" horiz-adv-x="690" 
d="M159 121l375 579h67v-700h-70v579l-375 -579h-67v700h70v-579zM252.5 794.5q-36.5 34.5 -38.5 84.5h54q4 -33 24.5 -51.5t58.5 -18.5t58.5 18.5t24.5 51.5h54q-2 -50 -38.5 -84.5t-98.5 -34.5t-98.5 34.5z" />
    <glyph glyph-name="uni041A" unicode="&#x41a;" horiz-adv-x="550" 
d="M89 0v700h70v-700h-70zM542 700l-299 -341l315 -359h-90l-309 355l299 345h84z" />
    <glyph glyph-name="uni041B" unicode="&#x41b;" horiz-adv-x="673" 
d="M-9 -5v65h17q111 0 122 139l39 501h415v-700h-70v635h-280l-34 -436q-8 -102 -54 -155.5t-117 -53.5q-25 0 -38 5z" />
    <glyph glyph-name="uni041C" unicode="&#x41c;" horiz-adv-x="830" 
d="M415 106l262 594h64v-700h-70v524l-233 -524h-47l-232 524v-524h-70v700h65z" />
    <glyph glyph-name="uni041D" unicode="&#x41d;" horiz-adv-x="680" 
d="M521 390v310h70v-700h-70v325h-362v-325h-70v700h70v-310h362z" />
    <glyph glyph-name="uni041E" unicode="&#x41e;" horiz-adv-x="737" 
d="M207.5 37q-74.5 47 -119 129.5t-44.5 183.5t44.5 183.5t119 129.5t160.5 47t161 -47t119.5 -129.5t44.5 -183.5t-44.5 -183.5t-119.5 -129.5t-161 -47t-160.5 47zM494.5 92.5q58.5 37.5 93.5 105t35 152.5t-35 152.5t-93.5 105t-126.5 37.5q-67 0 -125.5 -37.5
t-93.5 -105t-35 -152.5t35 -152.5t93.5 -105t125.5 -37.5q68 0 126.5 37.5z" />
    <glyph glyph-name="uni041F" unicode="&#x41f;" horiz-adv-x="680" 
d="M159 0h-70v700h502v-700h-70v635h-362v-635z" />
    <glyph glyph-name="uni0420" unicode="&#x420;" horiz-adv-x="581" 
d="M311 700q62 0 113.5 -29t81.5 -78.5t30 -108.5q0 -60 -30 -109.5t-81.5 -78.5t-113.5 -29h-152v-267h-70v700h222zM311 332q67 0 111 43t44 109q0 43 -20 77.5t-55.5 54t-79.5 19.5h-152v-303h152z" />
    <glyph glyph-name="uni0421" unicode="&#x421;" horiz-adv-x="704" 
d="M207.5 37q-74.5 47 -119 129.5t-44.5 183.5t44.5 183.5t119 129.5t160.5 47q70 0 130.5 -32t102.5 -87.5t59 -124.5h-70q-26 79 -83.5 129t-138.5 50q-67 0 -125.5 -37.5t-93.5 -105t-35 -152.5t35 -152.5t93.5 -105t125.5 -37.5q84 0 142.5 50t84.5 129h70
q-17 -69 -59.5 -124.5t-104 -87.5t-133.5 -32q-86 0 -160.5 47z" />
    <glyph glyph-name="uni0422" unicode="&#x422;" horiz-adv-x="536" 
d="M303 0h-70v635h-216v65h502v-65h-216v-635z" />
    <glyph glyph-name="uni0423" unicode="&#x423;" horiz-adv-x="551" 
d="M476 700h73l-250 -557q-36 -80 -73.5 -116.5t-92.5 -36.5q-27 0 -49 11v63q18 -9 39 -9q37 0 64 27.5t50 77.5l15 33l-240 507h78l197 -428z" />
    <glyph glyph-name="uni0424" unicode="&#x424;" horiz-adv-x="776" 
d="M699.5 219.5q-39.5 -61.5 -111 -95.5t-165.5 -35v-99h-70v99q-94 1 -165.5 35t-111 95.5t-39.5 142.5q0 80 39.5 141.5t111 96t165.5 35.5v75h70v-75q94 -1 165.5 -35.5t111 -96t39.5 -141.5q0 -81 -39.5 -142.5zM173 212q66 -57 180 -58v416q-114 -1 -180 -58t-66 -150
t66 -150zM423 154q114 1 180 58t66 150t-66 150t-180 58v-416z" />
    <glyph glyph-name="uni0425" unicode="&#x425;" horiz-adv-x="571" 
d="M325 355l231 -355h-82l-190 298l-192 -298h-77l230 355l-219 345h80l181 -287l180 287h78z" />
    <glyph glyph-name="uni0426" unicode="&#x426;" horiz-adv-x="684" 
d="M662 -150h-70v150h-503v700h70v-635h346v635h70v-635h87v-215z" />
    <glyph glyph-name="uni0427" unicode="&#x427;" horiz-adv-x="638" 
d="M479 700h70v-700h-70v276q-33 -23 -79.5 -39.5t-99.5 -16.5q-104 0 -165 62t-61 171v247h70v-247q0 -80 42 -124t114 -44q53 0 99 16.5t80 39.5v359z" />
    <glyph glyph-name="uni0428" unicode="&#x428;" horiz-adv-x="914" 
d="M755 65v635h70v-700h-736v700h70v-635h263v635h70v-635h263z" />
    <glyph glyph-name="uni0429" unicode="&#x429;" horiz-adv-x="934" 
d="M825 700v-635h87v-215h-70v150h-753v700h70v-635h263v635h70v-635h263v635h70z" />
    <glyph glyph-name="uni042A" unicode="&#x42a;" horiz-adv-x="647" 
d="M393 432q63 0 113.5 -28t79 -77t28.5 -111t-28.5 -111t-79 -77t-113.5 -28h-231v635h-167v65h237v-268h161zM393 65q68 0 109.5 41t41.5 110t-41.5 110t-109.5 41h-161v-302h161z" />
    <glyph glyph-name="uni042B" unicode="&#x42b;" horiz-adv-x="785" 
d="M310 432q63 0 113.5 -28t79 -77t28.5 -111t-28.5 -111t-79 -77t-113.5 -28h-221v700h70v-268h151zM626 0v700h70v-700h-70zM310 65q68 0 109.5 41t41.5 110t-41.5 110t-109.5 41h-151v-302h151z" />
    <glyph glyph-name="uni042C" unicode="&#x42c;" horiz-adv-x="574" 
d="M320 432q63 0 113.5 -28t79 -77t28.5 -111t-28.5 -111t-79 -77t-113.5 -28h-231v700h70v-268h161zM320 65q68 0 109.5 41t41.5 110t-41.5 110t-109.5 41h-161v-302h161z" />
    <glyph glyph-name="uni042D" unicode="&#x42d;" horiz-adv-x="694" 
d="M486.5 663q74.5 -47 119 -129.5t44.5 -183.5t-44.5 -183.5t-119 -129.5t-160.5 -47q-69 0 -130 31t-103 83t-59 115h70q25 -70 84 -117t138 -47q63 0 118.5 33t92 93.5t42.5 137.5h-292v63h292q-7 77 -43 137t-91.5 93t-118.5 33q-78 0 -136 -47.5t-83 -116.5h-70
q17 62 59 114t102 83.5t128 31.5q86 0 160.5 -47z" />
    <glyph glyph-name="uni042E" unicode="&#x42e;" horiz-adv-x="940" 
d="M739.5 664q71.5 -46 114 -128t42.5 -186t-42.5 -186t-114 -128t-153.5 -46q-78 0 -146.5 41.5t-112 116t-50.5 170.5h-118v-318h-70v700h70v-317h118q7 95 51 170t112 116t146 41q82 0 153.5 -46zM705 91.5q55 36.5 88 103.5t33 155t-33 155t-88 103.5t-119 36.5
t-119 -36.5t-88 -103.5t-33 -155t33 -155t88 -103.5t119 -36.5t119 36.5z" />
    <glyph glyph-name="uni042F" unicode="&#x42f;" horiz-adv-x="603" 
d="M514 700v-700h-70v295h-152l-176 -295h-81l184 302q-72 16 -117.5 68t-45.5 125q0 56 28 103t76.5 74.5t106.5 27.5h247zM144.5 427q18.5 -31 51 -49t71.5 -18h177v275h-177q-60 0 -100.5 -40t-40.5 -100q0 -37 18.5 -68z" />
    <glyph glyph-name="uni0430" unicode="&#x430;" horiz-adv-x="497" 
d="M340 486.5q42 -23.5 66 -65.5t24 -96v-325h-48l-17 68h-5q-19 -30 -58.5 -54t-95.5 -24q-50 0 -87.5 20.5t-58 54.5t-20.5 75q0 45 27.5 80.5t77 55.5t113.5 20h107v29q0 56 -33 90t-87 34q-51 0 -80.5 -26t-37.5 -68h-65q5 42 29.5 77.5t64.5 56.5t89 21q53 0 95 -23.5z
M323.5 91.5q41.5 40.5 41.5 102.5v43h-97q-77 0 -120 -25.5t-43 -71.5q0 -40 28 -64.5t80 -24.5q69 0 110.5 40.5z" />
    <glyph glyph-name="uni0431" unicode="&#x431;" horiz-adv-x="547" 
d="M164.5 22.5q-52.5 32.5 -84 100t-31.5 167.5q0 175 64 274.5t200 120.5q71 11 148 25v-63l-144 -24q-106 -18 -150 -79.5t-52 -148.5h5q17 32 61 61t106 29q59 0 109.5 -31t81 -87.5t30.5 -129.5t-30.5 -129t-82.5 -87t-114 -31q-64 0 -116.5 32.5zM362 73.5
q37 22.5 59 64.5t22 99t-22 99.5t-58.5 65t-81.5 22.5q-44 0 -81 -22.5t-59 -65t-22 -99.5t22 -99t59 -64.5t81 -22.5t81 22.5z" />
    <glyph glyph-name="uni0432" unicode="&#x432;" horiz-adv-x="481" 
d="M416 220q26 -31 26 -80q0 -62 -42 -101t-108 -39h-220v500h201q43 0 77 -17.5t53 -48t19 -66.5q0 -37 -20 -64t-47 -40q35 -13 61 -44zM137 439v-152h130q42 0 66 21t24 55q0 35 -24 55.5t-66 20.5h-130zM288 61q38 0 63.5 24t25.5 60q0 35 -25.5 59t-63.5 24h-151v-167
h151z" />
    <glyph glyph-name="uni0433" unicode="&#x433;" horiz-adv-x="402" 
d="M137 0h-65v500h320v-61h-255v-439z" />
    <glyph glyph-name="uni0434" unicode="&#x434;" 
d="M457 61h77v-189h-65v128h-395v-128h-65v189h39q52 36 59 116l27 323h323v-439zM392 61v378h-198l-22 -262q-7 -82 -44 -116h264z" />
    <glyph glyph-name="uni0435" unicode="&#x435;" horiz-adv-x="537" 
d="M494 218h-388q8 -77 54.5 -122t115.5 -45q92 0 139 79h65q-23 -61 -79 -100.5t-127 -39.5q-66 0 -119.5 33t-84.5 92t-31 135q0 74 31.5 133.5t85.5 93t118 33.5q63 0 114.5 -32.5t80.5 -88.5t29 -124q0 -31 -4 -47zM195.5 427.5q-36.5 -21.5 -61 -61t-29.5 -89.5h327
q-5 75 -49 123.5t-109 48.5q-42 0 -78.5 -21.5z" />
    <glyph glyph-name="uni0436" unicode="&#x436;" horiz-adv-x="629" 
d="M206 263l-194 237h78l192 -240l-208 -260h-82zM282 500h65v-500h-65v500zM617 500l-194 -237l214 -263h-82l-208 260l192 240h78z" />
    <glyph glyph-name="uni0437" unicode="&#x437;" horiz-adv-x="430" 
d="M367 215q24 -31 24 -78q0 -40 -21 -73.5t-61.5 -53.5t-95.5 -20q-57 0 -99 21.5t-65 58t-26 80.5h65q4 -46 35 -72.5t90 -26.5q56 0 84.5 23t28.5 63q0 42 -28.5 66.5t-81.5 24.5h-54v59h50q50 0 76 20.5t26 55.5q0 36 -28.5 61t-76.5 25q-50 0 -78.5 -25.5t-33.5 -67.5
h-65q5 65 52 109.5t130 44.5q49 0 86.5 -20t58 -53.5t20.5 -73.5q0 -42 -20.5 -66.5t-47.5 -36.5q32 -14 56 -45z" />
    <glyph glyph-name="uni0438" unicode="&#x438;" horiz-adv-x="556" 
d="M137 110l290 390h57v-500h-65v390l-290 -390h-57v500h65v-390z" />
    <glyph glyph-name="uni0439" unicode="&#x439;" horiz-adv-x="556" 
d="M137 110l290 390h57v-500h-65v390l-290 -390h-57v500h65v-390zM186 601q-36 35 -38 87h54q8 -73 81 -73t81 73h54q-2 -52 -38 -87t-97 -35t-97 35z" />
    <glyph glyph-name="uni043A" unicode="&#x43a;" horiz-adv-x="450" 
d="M72 0v500h65v-500h-65zM436 500l-219 -242l241 -258h-86l-235 255l218 245h81z" />
    <glyph glyph-name="uni043B" unicode="&#x43b;" horiz-adv-x="534" 
d="M-3 -4v57h17q42 0 65 27t28 88l28 332h327v-500h-65v439h-202l-23 -276q-7 -88 -44.5 -130.5t-96.5 -42.5q-16 0 -34 6z" />
    <glyph glyph-name="uni043C" unicode="&#x43c;" horiz-adv-x="651" 
d="M328 90l190 410h61v-500h-65v354l-167 -354h-43l-167 354v-354h-65v500h66z" />
    <glyph glyph-name="uni043D" unicode="&#x43d;" horiz-adv-x="552" 
d="M415 283v217h65v-500h-65v222h-278v-222h-65v500h65v-217h278z" />
    <glyph glyph-name="uni043E" unicode="&#x43e;" horiz-adv-x="548" 
d="M156 23.5q-54 33.5 -85.5 93t-31.5 133.5t31.5 133.5t85.5 93t118 33.5t118 -33.5t85.5 -93t31.5 -133.5t-31.5 -133.5t-85.5 -93t-118 -33.5t-118 33.5zM359 76q39 25 62 70.5t23 103.5t-23 103.5t-62 70.5t-85 25t-85 -25t-62 -70.5t-23 -103.5t23 -103.5t62 -70.5
t85 -25t85 25z" />
    <glyph glyph-name="uni043F" unicode="&#x43f;" horiz-adv-x="542" 
d="M137 0h-65v500h398v-500h-65v439h-268v-439z" />
    <glyph glyph-name="uni0440" unicode="&#x440;" horiz-adv-x="571" 
d="M72 -180v680h48l17 -68h5q10 14 32.5 32t56 32t71.5 14q63 0 115.5 -33t83.5 -92.5t31 -134.5t-31 -134.5t-83.5 -92.5t-115.5 -33q-38 0 -71.5 14t-56.5 32t-32 32h-5v-248h-65zM385 76q38 25 60 70.5t22 103.5t-22 103.5t-60 70.5t-83 25t-83 -25t-60 -70.5t-22 -103.5
t22 -103.5t60 -70.5t83 -25t83 25z" />
    <glyph glyph-name="uni0441" unicode="&#x441;" horiz-adv-x="526" 
d="M156 23.5q-54 33.5 -85.5 93t-31.5 133.5t31.5 133.5t85.5 93t118 33.5q56 0 102 -25.5t76 -68.5t40 -93h-65q-17 58 -56 92t-97 34q-46 0 -85 -25t-62 -70.5t-23 -103.5t23 -103.5t62 -70.5t85 -25q59 0 97.5 33.5t55.5 92.5h65q-10 -50 -40 -92.5t-76.5 -68.5
t-101.5 -26q-64 0 -118 33.5z" />
    <glyph glyph-name="uni0442" unicode="&#x442;" horiz-adv-x="417" 
d="M241 0h-65v439h-161v61h387v-61h-161v-439z" />
    <glyph glyph-name="uni0443" unicode="&#x443;" horiz-adv-x="474" 
d="M399 500h68l-221 -550q-32 -78 -63.5 -106.5t-71.5 -28.5q-17 0 -39 8v59q17 -6 31 -6q24 0 42.5 15t33.5 52l27 68l-199 489h70l163 -406z" />
    <glyph glyph-name="uni0444" unicode="&#x444;" horiz-adv-x="683" 
d="M389 510q72 0 130.5 -33.5t91.5 -92.5t33 -134q0 -74 -33 -133.5t-91.5 -93t-130.5 -33.5h-15v-170h-65v170h-15q-72 0 -130.5 33.5t-91.5 93t-33 133.5q0 75 33 134t91.5 92.5t130.5 33.5h15v190h65v-190h15zM129 146q25 -45 69 -70t101 -25h10v398h-10
q-57 0 -101.5 -25t-69 -70t-24.5 -104t25 -104zM384 51q57 0 101.5 25t69 70t24.5 104t-24.5 104t-69 70t-101.5 25h-10v-398h10z" />
    <glyph glyph-name="uni0445" unicode="&#x445;" horiz-adv-x="454" 
d="M268 255l175 -255h-76l-141 209l-142 -209h-73l175 255l-164 245h75l131 -200l131 200h73z" />
    <glyph glyph-name="uni0446" unicode="&#x446;" horiz-adv-x="560" 
d="M539 -128h-65v128h-402v500h65v-439h260v439h65v-439h77v-189z" />
    <glyph glyph-name="uni0447" unicode="&#x447;" horiz-adv-x="508" 
d="M371 500h65v-500h-65v193q-24 -16 -59.5 -27.5t-76.5 -11.5q-52 0 -93 22.5t-64.5 62.5t-23.5 93v168h65v-168q0 -54 33.5 -85.5t90.5 -31.5q39 0 71.5 13t56.5 31v241z" />
    <glyph glyph-name="uni0448" unicode="&#x448;" horiz-adv-x="741" 
d="M604 61v439h65v-500h-597v500h65v-439h201v439h65v-439h201z" />
    <glyph glyph-name="uni0449" unicode="&#x449;" horiz-adv-x="767" 
d="M669 500v-439h77v-189h-65v128h-609v500h65v-439h201v439h65v-439h201v439h65z" />
    <glyph glyph-name="uni044A" unicode="&#x44a;" horiz-adv-x="511" 
d="M312 317q79 0 125.5 -43.5t46.5 -115.5q0 -71 -46.5 -114.5t-125.5 -43.5h-190v439h-122v61h187v-183h125zM312 61q50 0 78.5 25.5t28.5 71.5t-28.5 72t-78.5 26h-125v-195h125z" />
    <glyph glyph-name="uni044B" unicode="&#x44b;" horiz-adv-x="650" 
d="M257 317q79 0 125.5 -43.5t46.5 -115.5q0 -71 -46.5 -114.5t-125.5 -43.5h-185v500h65v-183h120zM513 0v500h65v-500h-65zM257 61q50 0 78.5 25.5t28.5 71.5t-28.5 72t-78.5 26h-120v-195h120z" />
    <glyph glyph-name="uni044C" unicode="&#x44c;" horiz-adv-x="461" 
d="M262 317q79 0 125.5 -43.5t46.5 -115.5q0 -71 -46.5 -114.5t-125.5 -43.5h-190v500h65v-183h125zM262 61q50 0 78.5 25.5t28.5 71.5t-28.5 72t-78.5 26h-125v-195h125z" />
    <glyph glyph-name="uni044D" unicode="&#x44d;" horiz-adv-x="521" 
d="M365 476.5q54 -33.5 85.5 -93t31.5 -133.5t-31.5 -133.5t-85.5 -93t-118 -33.5q-55 0 -101.5 26t-76.5 68.5t-40 92.5h65q17 -59 55.5 -92.5t97.5 -33.5q42 0 78.5 21t60.5 60t29 89h-190v59h190q-6 50 -30 88.5t-60.5 59.5t-77.5 21q-58 0 -97 -34t-56 -92h-65
q10 50 40 93t76 68.5t102 25.5q64 0 118 -33.5z" />
    <glyph glyph-name="uni044E" unicode="&#x44e;" horiz-adv-x="699" 
d="M550 478q51 -32 80.5 -91.5t29.5 -136.5t-29.5 -136t-80.5 -91.5t-112 -32.5q-57 0 -105.5 28.5t-79 80.5t-36.5 121h-80v-220h-65v500h65v-219h80q6 69 36.5 121t79 80t105.5 28q61 0 112 -32zM516.5 75q35.5 24 57 69.5t21.5 105.5t-21.5 105t-57.5 69.5t-78 24.5
t-78 -24.5t-57.5 -69.5t-21.5 -105t21.5 -105.5t57 -69.5t78.5 -24t78.5 24z" />
    <glyph glyph-name="uni044F" unicode="&#x44f;" horiz-adv-x="484" 
d="M412 500v-500h-65v188h-123l-117 -188h-77l127 197q-49 16 -79.5 56t-30.5 91q0 43 22 78.5t60.5 56.5t85.5 21h197zM140.5 275.5q28.5 -26.5 75.5 -26.5h131v190h-131q-44 0 -74 -27.5t-30 -67.5q0 -42 28.5 -68.5z" />
    <glyph glyph-name="uni0450" unicode="&#x450;" horiz-adv-x="537" 
d="M494 218h-388q8 -77 54.5 -122t115.5 -45q92 0 139 79h65q-23 -61 -79 -100.5t-127 -39.5q-66 0 -119.5 33t-84.5 92t-31 135q0 74 31.5 133.5t85.5 93t118 33.5q63 0 114.5 -32.5t80.5 -88.5t29 -124q0 -31 -4 -47zM195.5 427.5q-36.5 -21.5 -61 -61t-29.5 -89.5h327
q-5 75 -49 123.5t-109 48.5q-42 0 -78.5 -21.5zM308 560h-51l-91 134h75z" />
    <glyph glyph-name="uni0451" unicode="&#x451;" horiz-adv-x="537" 
d="M494 218h-388q8 -77 54.5 -122t115.5 -45q92 0 139 79h65q-23 -61 -79 -100.5t-127 -39.5q-66 0 -119.5 33t-84.5 92t-31 135q0 74 31.5 133.5t85.5 93t118 33.5q63 0 114.5 -32.5t80.5 -88.5t29 -124q0 -31 -4 -47zM195.5 427.5q-36.5 -21.5 -61 -61t-29.5 -89.5h327
q-5 75 -49 123.5t-109 48.5q-42 0 -78.5 -21.5zM162 594.5q-13 12.5 -13 30.5t12.5 30.5t30.5 12.5t30.5 -12t12.5 -31q0 -18 -12.5 -30.5t-30.5 -12.5q-17 0 -30 12.5zM321.5 594.5q-12.5 12.5 -12.5 30.5q0 19 12.5 31t30.5 12t30.5 -12.5t12.5 -30.5t-13 -30.5t-30 -12.5
q-18 0 -30.5 12.5z" />
    <glyph glyph-name="uni0452" unicode="&#x452;" horiz-adv-x="563" 
d="M412 464.5q46 -30.5 72.5 -92t26.5 -151.5q0 -135 -60 -205.5t-165 -70.5v61q79 0 119.5 52t40.5 163q0 109 -39 161t-106 52q-66 0 -106 -42.5t-40 -116.5v-275h-65v558h-80v59h80v83h65v-83h175v-59h-175v-141h5q20 31 58.5 54.5t88.5 23.5q59 0 105 -30.5z" />
    <glyph glyph-name="uni0453" unicode="&#x453;" horiz-adv-x="402" 
d="M137 0h-65v500h320v-61h-255v-439zM247 560h-51l66 134h75z" />
    <glyph glyph-name="uni0454" unicode="&#x454;" horiz-adv-x="526" 
d="M371.5 84.5q38.5 33.5 55.5 92.5h65q-10 -50 -40 -92.5t-76.5 -68.5t-101.5 -26q-64 0 -118 33.5t-85.5 93t-31.5 133.5t31.5 133.5t85.5 93t118 33.5q56 0 102 -25.5t76 -68.5t40 -93h-65q-17 58 -56 92t-97 34q-41 0 -77.5 -21t-60.5 -59.5t-30 -88.5h190v-59h-190
q5 -50 29 -89t60.5 -60t78.5 -21q59 0 97.5 33.5z" />
    <glyph glyph-name="uni0455" unicode="&#x455;" horiz-adv-x="435" 
d="M131 11.5q-41 21.5 -65 57.5t-27 76h65q5 -42 36 -68t83 -26q51 0 78.5 23t27.5 58q0 26 -16 43t-39 27.5t-65 23.5q-51 16 -82 30.5t-53 42t-22 71.5q0 39 20.5 71t57.5 50.5t86 18.5q48 0 86 -20t60 -54.5t25 -75.5h-65q-5 42 -32 65.5t-74 23.5t-73 -21.5t-26 -54.5
q0 -36 29 -54.5t89 -37.5q51 -17 82.5 -32.5t54 -43.5t22.5 -73q0 -61 -46 -101.5t-125 -40.5q-51 0 -92 21.5z" />
    <glyph glyph-name="uni0456" unicode="&#x456;" horiz-adv-x="209" 
d="M137 0h-65v500h65v-500zM73 593q-13 13 -13 32q0 20 13 32.5t32 12.5q20 0 32.5 -12.5t12.5 -32.5q0 -19 -13 -32t-32 -13t-32 13z" />
    <glyph glyph-name="uni0457" unicode="&#x457;" horiz-adv-x="209" 
d="M137 0h-65v500h65v-500zM13 594.5q-13 12.5 -13 30.5t12.5 30.5t30.5 12.5t30.5 -12t12.5 -31q0 -18 -12.5 -30.5t-30.5 -12.5q-17 0 -30 12.5zM137 594.5q-13 12.5 -13 30.5t12.5 30.5t30.5 12.5t30.5 -12t12.5 -31q0 -18 -12.5 -30.5t-30.5 -12.5q-17 0 -30 12.5z" />
    <glyph glyph-name="uni0458" unicode="&#x458;" horiz-adv-x="209" 
d="M-45 -177v59q16 -6 34 -6q39 0 61 24.5t22 73.5v526h65v-526q0 -74 -38.5 -116.5t-99.5 -42.5q-22 0 -44 8zM73 593q-13 13 -13 32q0 20 13 32.5t32 12.5q20 0 32.5 -12.5t12.5 -32.5q0 -19 -13 -32t-32 -13t-32 13z" />
    <glyph glyph-name="uni0459" unicode="&#x459;" horiz-adv-x="766" 
d="M567 301q78 0 125 -42t47 -108t-47 -108.5t-125 -42.5h-180v439h-192l-23 -276q-7 -88 -44.5 -130.5t-96.5 -42.5q-16 0 -34 6v57h17q42 0 65 27t28 88l28 332h317v-199h115zM567 61q50 0 78.5 24.5t28.5 65.5q0 40 -28.5 64.5t-78.5 24.5h-115v-179h115z" />
    <glyph glyph-name="uni045A" unicode="&#x45a;" horiz-adv-x="784" 
d="M585 301q78 0 125 -42t47 -108t-47 -108.5t-125 -42.5h-180v240h-268v-240h-65v500h65v-199h268v199h65v-199h115zM585 61q50 0 78.5 24.5t28.5 65.5q0 40 -28.5 64.5t-78.5 24.5h-115v-179h115z" />
    <glyph glyph-name="uni045B" unicode="&#x45b;" horiz-adv-x="573" 
d="M408.5 468q45.5 -27 71.5 -77t26 -116v-275h-65v275q0 74 -39 116.5t-101 42.5q-66 0 -106 -42.5t-40 -116.5v-275h-65v558h-80v59h80v83h65v-83h175v-59h-175v-141h5q20 31 58.5 54.5t88.5 23.5q56 0 101.5 -27z" />
    <glyph glyph-name="uni045C" unicode="&#x45c;" horiz-adv-x="450" 
d="M72 0v500h65v-500h-65zM436 500l-219 -242l241 -258h-86l-235 255l218 245h81zM261 560h-51l66 134h75z" />
    <glyph glyph-name="uni045D" unicode="&#x45d;" horiz-adv-x="556" 
d="M137 110l290 390h57v-500h-65v390l-290 -390h-57v500h65v-390zM319 560h-51l-91 134h75z" />
    <glyph glyph-name="uni045E" unicode="&#x45e;" horiz-adv-x="474" 
d="M399 500h68l-221 -550q-32 -78 -63.5 -106.5t-71.5 -28.5q-17 0 -39 8v59q17 -6 31 -6q24 0 42.5 15t33.5 52l27 68l-199 489h70l163 -406zM141 601q-36 35 -38 87h54q8 -73 81 -73t81 73h54q-2 -52 -38 -87t-97 -35t-97 35z" />
    <glyph glyph-name="uni045F" unicode="&#x45f;" horiz-adv-x="546" 
d="M409 500h65v-500h-169v-128h-65v128h-168v500h65v-439h272v439z" />
    <glyph glyph-name="uni0462" unicode="&#x462;" horiz-adv-x="620" 
d="M366 432q63 0 113.5 -28t79 -77t28.5 -111t-28.5 -111t-79 -77t-113.5 -28h-231v524h-140v65h140v111h70v-111h186v-65h-186v-92h161zM366 65q68 0 109.5 41t41.5 110t-41.5 110t-109.5 41h-161v-302h161z" />
    <glyph glyph-name="uni0463" unicode="&#x463;" horiz-adv-x="494" 
d="M295 317q79 0 125.5 -43.5t46.5 -115.5q0 -71 -46.5 -114.5t-125.5 -43.5h-190v465h-110v59h110v176h65v-176h155v-59h-155v-148h125zM295 61q50 0 78.5 25.5t28.5 71.5t-28.5 72t-78.5 26h-125v-195h125z" />
    <glyph glyph-name="uni0472" unicode="&#x472;" horiz-adv-x="737" 
d="M529 663q75 -47 119.5 -129.5t44.5 -183.5t-44.5 -183.5t-119.5 -129.5t-161 -47t-160.5 47t-119 129.5t-44.5 183.5t44.5 183.5t119 129.5t160.5 47t161 -47zM249.5 612q-55.5 -33 -92 -93.5t-42.5 -137.5h507q-6 77 -42.5 137.5t-92 93.5t-119.5 33q-63 0 -118.5 -33z
M487 88q56 33 92 93t43 137h-507q7 -77 43 -137t91.5 -93t118.5 -33t119 33z" />
    <glyph glyph-name="uni0473" unicode="&#x473;" horiz-adv-x="548" 
d="M392 476.5q54 -33.5 85.5 -93t31.5 -133.5t-31.5 -133.5t-85.5 -93t-118 -33.5t-118 33.5t-85.5 93t-31.5 133.5t31.5 133.5t85.5 93t118 33.5t118 -33.5zM195.5 428q-36.5 -21 -60.5 -60t-29 -89h336q-5 50 -29 89t-60.5 60t-78.5 21t-78.5 -21zM351.5 72
q36.5 21 60.5 59.5t30 88.5h-336q6 -50 30 -88.5t60.5 -59.5t77.5 -21t77.5 21z" />
    <glyph glyph-name="uni0474" unicode="&#x474;" horiz-adv-x="648" 
d="M693 699l-20 -63q-16 14 -41 14q-30 0 -49 -21.5t-41 -81.5l-200 -547h-75l-255 700h75l220 -612l170 474q30 86 65 119.5t90 33.5q37 0 61 -16z" />
    <glyph glyph-name="uni0475" unicode="&#x475;" horiz-adv-x="499" 
d="M534 499l-14 -54q-14 9 -34 9q-18 0 -31 -12.5t-28 -50.5l-158 -391h-58l-204 500h70l163 -413l127 321q23 59 49.5 83t67.5 24q32 0 50 -16z" />
    <glyph glyph-name="uni048A" unicode="&#x48a;" horiz-adv-x="710" 
d="M252.5 794.5q-36.5 34.5 -38.5 84.5h54q4 -33 24.5 -51.5t58.5 -18.5t58.5 18.5t24.5 51.5h54q-2 -50 -38.5 -84.5t-98.5 -34.5t-98.5 34.5zM601 700v-635h102v-11l-76 -204h-57l42 150h-81v579l-375 -579h-67v700h70v-579l375 579h67z" />
    <glyph glyph-name="uni048B" unicode="&#x48b;" horiz-adv-x="582" 
d="M186 601q-36 35 -38 87h54q8 -73 81 -73t81 73h54q-2 -52 -38 -87t-97 -35t-97 35zM484 500v-439h82v-11l-61 -178h-56l31 128h-61v390l-290 -390h-57v500h65v-390l290 390h57z" />
    <glyph glyph-name="uni048C" unicode="&#x48c;" horiz-adv-x="620" 
d="M366 432q63 0 113.5 -28t79 -77t28.5 -111t-28.5 -111t-79 -77t-113.5 -28h-231v524h-140v65h140v111h70v-111h186v-65h-186v-92h161zM366 65q68 0 109.5 41t41.5 110t-41.5 110t-109.5 41h-161v-302h161z" />
    <glyph glyph-name="uni048D" unicode="&#x48d;" horiz-adv-x="494" 
d="M295 317q79 0 125.5 -43.5t46.5 -115.5q0 -71 -46.5 -114.5t-125.5 -43.5h-190v465h-110v59h110v176h65v-176h155v-59h-155v-148h125zM295 61q50 0 78.5 25.5t28.5 71.5t-28.5 72t-78.5 26h-125v-195h125z" />
    <glyph glyph-name="uni048E" unicode="&#x48e;" horiz-adv-x="581" 
d="M514.5 390.5q-21.5 -43.5 -58.5 -73.5l64 -92l-51 -37l-68 97q-42 -18 -90 -18h-152v-267h-70v700h222q62 0 113.5 -29t81.5 -78.5t30 -108.5q0 -50 -21.5 -93.5zM311 332q25 0 51 8l-63 89l52 37l67 -95q23 21 35.5 50t12.5 63q0 43 -20 77.5t-55.5 54t-79.5 19.5h-152
v-303h152z" />
    <glyph glyph-name="uni048F" unicode="&#x48f;" horiz-adv-x="571" 
d="M513.5 144q-18.5 -49 -51.5 -84l60 -81l-48 -37l-58 80q-52 -32 -114 -32q-38 0 -71.5 14t-56.5 32t-32 32h-5v-248h-65v680h48l17 -68h5q10 14 32.5 32t56 32t71.5 14q63 0 115.5 -33t83.5 -92.5t31 -134.5q0 -57 -18.5 -106zM379 72l-66 90l48 37l63 -86q43 54 43 137
q0 58 -22 103.5t-60 70.5t-83 25t-83 -25t-60 -70.5t-22 -103.5t22 -103.5t60 -70.5t83 -25q43 0 77 21z" />
    <glyph glyph-name="uni0490" unicode="&#x490;" horiz-adv-x="498" 
d="M159 0h-70v700h327v125h70v-190h-327v-635z" />
    <glyph glyph-name="uni0491" unicode="&#x491;" horiz-adv-x="402" 
d="M137 0h-65v500h255v100h65v-161h-255v-439z" />
    <glyph glyph-name="uni0492" unicode="&#x492;" horiz-adv-x="529" 
d="M512 700v-65h-327v-262h239v-65h-239v-308h-70v308h-95v65h95v327h397z" />
    <glyph glyph-name="uni0493" unicode="&#x493;" horiz-adv-x="425" 
d="M410 500v-61h-255v-182h190v-61h-190v-196h-65v196h-80v61h80v243h320z" />
    <glyph glyph-name="uni0494" unicode="&#x494;" horiz-adv-x="627" 
d="M506 389q63 -67 63 -188q0 -77 -30.5 -135t-84 -89.5t-119.5 -31.5v65q46 0 83.5 22.5t59 66t21.5 102.5q0 93 -45.5 141.5t-124.5 48.5q-49 0 -87.5 -21t-60.5 -58t-22 -83v-229h-70v700h387v-65h-317v-260q27 33 73.5 57t106.5 24q104 0 167 -67z" />
    <glyph glyph-name="uni0495" unicode="&#x495;" horiz-adv-x="497" 
d="M268 -124q61 0 100 45t39 126q0 54 -18 92t-47.5 58t-65.5 20q-39 0 -70.5 -19t-50 -53t-18.5 -77v-68h-65v500h310v-61h-245v-228h5q19 27 54.5 47t83.5 20q53 0 97 -28t69.5 -80.5t25.5 -122.5q0 -69 -27 -121.5t-73.5 -81.5t-103.5 -29v61z" />
    <glyph glyph-name="uni0496" unicode="&#x496;" horiz-adv-x="797" 
d="M275 359l-267 341h80l264 -345l-274 -355h-86zM352 700h70v-700h-70v700zM499 359l232 -294h71v-215h-70v150h-36l-274 355l264 345h80z" />
    <glyph glyph-name="uni0497" unicode="&#x497;" horiz-adv-x="649" 
d="M206 263l-194 237h78l192 -240l-208 -260h-82zM282 500h65v-500h-65v500zM423 263l165 -202h66v-189h-65v128h-34l-208 260l192 240h78z" />
    <glyph glyph-name="uni0498" unicode="&#x498;" horiz-adv-x="538" 
d="M469.5 98.5q-24.5 -41.5 -68.5 -70.5t-100 -36v-142h-70v142q-88 9 -141 63.5t-62 133.5h70q9 -60 52 -97t116 -37q71 0 114.5 37.5t43.5 93.5q0 62 -44 101t-119 39h-46v63h46q67 0 106.5 35t39.5 91t-40 93t-107 37q-62 0 -103 -38t-45 -95h-70q4 55 32.5 100t77 71.5
t108.5 26.5q63 0 112.5 -26.5t77 -71.5t27.5 -97q0 -54 -33.5 -93t-79.5 -58q53 -20 91.5 -63t38.5 -115q0 -46 -24.5 -87.5z" />
    <glyph glyph-name="uni0499" unicode="&#x499;" horiz-adv-x="430" 
d="M352 40.5q-39 -40.5 -108 -48.5v-120h-65v120q-70 9 -111 53.5t-45 104.5h65q4 -46 35 -72.5t90 -26.5q56 0 84.5 23t28.5 63q0 42 -28.5 66.5t-81.5 24.5h-54v59h50q50 0 76 20.5t26 55.5q0 36 -28.5 61t-76.5 25q-50 0 -78.5 -25.5t-33.5 -67.5h-65q5 65 52 109.5
t130 44.5q49 0 86.5 -20t58 -53.5t20.5 -73.5q0 -42 -20.5 -66.5t-47.5 -36.5q32 -14 56 -45t24 -78q0 -56 -39 -96.5z" />
    <glyph glyph-name="uni049A" unicode="&#x49a;" horiz-adv-x="569" 
d="M89 0v700h70v-700h-70zM243 359l258 -294h73v-215h-70v150h-36l-309 355l299 345h84z" />
    <glyph glyph-name="uni049B" unicode="&#x49b;" horiz-adv-x="466" 
d="M72 0v500h65v-500h-65zM217 258l184 -197h70v-189h-65v128h-34l-235 255l218 245h81z" />
    <glyph glyph-name="uni049C" unicode="&#x49c;" horiz-adv-x="620" 
d="M613 700l-275 -344l290 -356h-87l-257 319h-27v-105h-65v105h-33v-319h-70v700h70v-318h33v105h65v-105h22l252 318h82z" />
    <glyph glyph-name="uni049D" unicode="&#x49d;" horiz-adv-x="484" 
d="M470 500l-183 -245l205 -255h-82l-173 221h-17v-95h-53v95h-30v-221h-65v500h65v-220h30v95h53v-95h13l160 220h77z" />
    <glyph glyph-name="uni049E" unicode="&#x49e;" horiz-adv-x="576" 
d="M298 627v-63h-113v-564h-70v564h-115v63h115v73h70v-73h113zM568 700l-299 -341l315 -359h-90l-309 355l299 345h84z" />
    <glyph glyph-name="uni049F" unicode="&#x49f;" horiz-adv-x="468" 
d="M305 617v-59h-150v-558h-65v558h-80v59h80v83h65v-83h150zM454 500l-219 -242l241 -258h-86l-235 255l218 245h81z" />
    <glyph glyph-name="uni04A0" unicode="&#x4a0;" horiz-adv-x="623" 
d="M-5 635v65h237v-700h-70v635h-167zM615 700l-299 -341l315 -359h-90l-309 355l299 345h84z" />
    <glyph glyph-name="uni04A1" unicode="&#x4a1;" horiz-adv-x="500" 
d="M0 439v61h187v-500h-65v439h-122zM486 500l-219 -242l241 -258h-86l-235 255l218 245h81z" />
    <glyph glyph-name="uni04A2" unicode="&#x4a2;" horiz-adv-x="700" 
d="M591 700v-635h87v-215h-70v150h-87v325h-362v-325h-70v700h70v-310h362v310h70z" />
    <glyph glyph-name="uni04A3" unicode="&#x4a3;" horiz-adv-x="578" 
d="M480 500v-439h77v-189h-65v128h-77v222h-278v-222h-65v500h65v-217h278v217h65z" />
    <glyph glyph-name="uni04A4" unicode="&#x4a4;" horiz-adv-x="900" 
d="M506 390v310h382v-65h-312v-635h-70v325h-347v-325h-70v700h70v-310h347z" />
    <glyph glyph-name="uni04A5" unicode="&#x4a5;" horiz-adv-x="715" 
d="M400 283v217h305v-61h-240v-439h-65v222h-263v-222h-65v500h65v-217h263z" />
    <glyph glyph-name="uni04A8" unicode="&#x4a8;" horiz-adv-x="744" 
d="M749 31q-21 -14 -57 -27.5t-77 -13.5q-37 0 -71.5 11.5t-57.5 26.5q-63 -38 -130 -38q-82 0 -153.5 46.5t-115 129t-43.5 184.5q0 94 37.5 172t101.5 127.5t139 60.5v-65q-57 -11 -104.5 -51t-75.5 -103t-28 -141q0 -86 33.5 -153t89.5 -104.5t121 -37.5q31 0 62 11
q-53 42 -96.5 119t-43.5 192q0 85 28.5 146.5t75.5 93.5t102 32t102.5 -32t76 -93.5t28.5 -146.5q0 -115 -45.5 -194t-97.5 -117q31 -11 64 -11q53 0 101 28zM580 202.5q43 71.5 43 174.5q0 68 -19 115t-50.5 69.5t-67.5 22.5q-37 0 -67.5 -22.5t-49.5 -69.5t-19 -115
q0 -104 43 -175.5t93 -105.5q51 35 94 106.5z" />
    <glyph glyph-name="uni04A9" unicode="&#x4a9;" horiz-adv-x="554" 
d="M559 22q-11 -10 -40.5 -21t-69.5 -11q-57 0 -90 25q-40 -25 -88 -25q-64 0 -117 33.5t-84 92.5t-31 134q0 69 26 125t69.5 91t92.5 44v-65q-30 -9 -58.5 -35.5t-46.5 -68t-18 -91.5q0 -58 23 -103.5t61 -70.5t83 -25q19 0 28 3q-32 29 -60.5 83.5t-28.5 128.5
q0 62 20 105.5t54 66t76 22.5t76 -22.5t54 -66t20 -105.5q0 -72 -28.5 -126.5t-61.5 -84.5q14 -4 29 -4q28 0 49 6t29 13zM301.5 154q26.5 -49 58.5 -82q32 33 58.5 82t26.5 112q0 67 -24 100t-61 33t-61 -33t-24 -100q0 -63 26.5 -112z" />
    <glyph glyph-name="uni04AA" unicode="&#x4aa;" horiz-adv-x="704" 
d="M665 234q-24 -97 -94.5 -163.5t-166.5 -78.5v-142h-70v142q-79 9 -145.5 57.5t-105.5 127t-39 173.5q0 101 44.5 183.5t119 129.5t160.5 47q70 0 130.5 -32t102.5 -87.5t59 -124.5h-70q-26 79 -83.5 129t-138.5 50q-67 0 -125.5 -37.5t-93.5 -105t-35 -152.5t35 -152.5
t93.5 -105t125.5 -37.5q84 0 142.5 50t84.5 129h70z" />
    <glyph glyph-name="uni04AB" unicode="&#x4ab;" horiz-adv-x="526" 
d="M371.5 84.5q38.5 33.5 55.5 92.5h65q-13 -68 -61.5 -119.5t-117.5 -63.5v-122h-65v119q-58 7 -106 42t-75.5 91.5t-27.5 125.5q0 74 31.5 133.5t85.5 93t118 33.5q56 0 102 -25.5t76 -68.5t40 -93h-65q-17 58 -56 92t-97 34q-46 0 -85 -25t-62 -70.5t-23 -103.5
t23 -103.5t62 -70.5t85 -25q59 0 97.5 33.5z" />
    <glyph glyph-name="uni04AC" unicode="&#x4ac;" horiz-adv-x="536" 
d="M390 -150h-70v150h-87v635h-216v65h502v-65h-216v-570h87v-215z" />
    <glyph glyph-name="uni04AD" unicode="&#x4ad;" horiz-adv-x="417" 
d="M318 -128h-65v128h-77v439h-161v61h387v-61h-161v-378h77v-189z" />
    <glyph glyph-name="uni04AE" unicode="&#x4ae;" horiz-adv-x="534" 
d="M269 344l190 356h73l-230 -426v-274h-70v274l-230 426h76z" />
    <glyph glyph-name="uni04AF" unicode="&#x4af;" horiz-adv-x="478" 
d="M241 85l162 415h68l-199 -494v-186h-65v186l-200 494h70z" />
    <glyph glyph-name="uni04B0" unicode="&#x4b0;" horiz-adv-x="534" 
d="M532 700l-230 -426v-4h140v-63h-140v-207h-70v207h-140v63h140v4l-230 426h76l191 -356l190 356h73z" />
    <glyph glyph-name="uni04B1" unicode="&#x4b1;" horiz-adv-x="478" 
d="M403 500h68l-196 -487h94v-59h-97v-134h-65v134h-97v59h94l-197 487h70l164 -415z" />
    <glyph glyph-name="uni04B2" unicode="&#x4b2;" horiz-adv-x="576" 
d="M325 355l189 -290h67v-215h-70v150h-37l-190 298l-192 -298h-77l230 355l-219 345h80l181 -287l180 287h78z" />
    <glyph glyph-name="uni04B3" unicode="&#x4b3;" horiz-adv-x="461" 
d="M268 255l133 -194h65v-189h-65v128h-34l-141 209l-142 -209h-73l175 255l-164 245h75l131 -200l131 200h73z" />
    <glyph glyph-name="uni04B4" unicode="&#x4b4;" horiz-adv-x="813" 
d="M791 -150h-70v150h-503v635h-201v65h472v-65h-201v-570h346v635h70v-635h87v-215z" />
    <glyph glyph-name="uni04B5" unicode="&#x4b5;" horiz-adv-x="649" 
d="M628 -128h-65v128h-402v439h-146v61h357v-61h-146v-378h260v439h65v-439h77v-189z" />
    <glyph glyph-name="uni04B6" unicode="&#x4b6;" horiz-adv-x="658" 
d="M549 65h87v-215h-70v150h-87v276q-33 -23 -79.5 -39.5t-99.5 -16.5q-104 0 -165 62t-61 171v247h70v-247q0 -80 42 -124t114 -44q53 0 99 16.5t80 39.5v359h70v-635z" />
    <glyph glyph-name="uni04B7" unicode="&#x4b7;" horiz-adv-x="534" 
d="M436 61h77v-189h-65v128h-77v193q-24 -16 -59.5 -27.5t-76.5 -11.5q-52 0 -93 22.5t-64.5 62.5t-23.5 93v168h65v-168q0 -54 33.5 -85.5t90.5 -31.5q39 0 71.5 13t56.5 31v241h65v-439z" />
    <glyph glyph-name="uni04B8" unicode="&#x4b8;" horiz-adv-x="638" 
d="M479 700h70v-700h-70v276q-25 -17 -60 -32t-75 -21v-109h-65v107q-95 6 -150 67.5t-55 164.5v247h70v-247q0 -74 36 -117.5t99 -49.5v105h65v-103q40 6 75 21t60 32v359z" />
    <glyph glyph-name="uni04B9" unicode="&#x4b9;" horiz-adv-x="508" 
d="M371 500h65v-500h-65v193q-17 -12 -43 -22t-57 -14v-99h-53v97q-72 5 -118 53.5t-46 123.5v168h65v-168q0 -48 26.5 -78t72.5 -37v94h53v-94q54 7 100 42v241z" />
    <glyph glyph-name="uni04BA" unicode="&#x4ba;" horiz-adv-x="638" 
d="M502.5 418q61.5 -62 61.5 -171v-247h-70v247q0 80 -42.5 124t-114.5 44q-52 0 -98 -16.5t-80 -39.5v-359h-70v700h70v-276q33 23 79.5 39.5t98.5 16.5q104 0 165.5 -62z" />
    <glyph glyph-name="uni04BB" unicode="&#x4bb;" horiz-adv-x="560" 
d="M77 0v700h65v-268h5q20 31 58.5 54.5t88.5 23.5q56 0 101.5 -27t71.5 -77t26 -116v-290h-65v290q0 74 -39 116.5t-101 42.5q-66 0 -106 -42.5t-40 -116.5v-290h-65z" />
    <glyph glyph-name="uni04BC" unicode="&#x4bc;" horiz-adv-x="820" 
d="M774 326h-571q5 -79 40.5 -141t91.5 -96t121 -34q71 0 132 39.5t94 111.5h70q-22 -65 -67.5 -114t-105.5 -75.5t-123 -26.5q-83 0 -155 43.5t-117.5 120t-50.5 172.5h-17q-57 0 -89 31t-32 84v29h65v-25q0 -29 13.5 -42.5t42.5 -13.5h18q8 92 54 165.5t117 114.5t151 41
q83 0 157 -47t118.5 -128.5t44.5 -179.5q0 -14 -2 -29zM339 613q-55 -32 -91 -90.5t-44 -133.5h499q-5 71 -40.5 130t-90.5 92.5t-116 33.5q-62 0 -117 -32z" />
    <glyph glyph-name="uni04BD" unicode="&#x4bd;" horiz-adv-x="628" 
d="M585 218h-388q8 -77 54.5 -122t115.5 -45q92 0 139 79h65q-23 -61 -79 -100.5t-127 -39.5q-61 0 -112 28.5t-83 80.5t-38 119h-11q-58 0 -89.5 29.5t-31.5 79.5v18h65v-18q0 -27 12.5 -38.5t43.5 -11.5h10q6 68 38.5 121t84 82.5t111.5 29.5q63 0 114.5 -32.5t80.5 -88.5
t29 -124q0 -31 -4 -47zM286.5 427.5q-36.5 -21.5 -61 -61t-29.5 -89.5h327q-5 75 -49 123.5t-109 48.5q-42 0 -78.5 -21.5z" />
    <glyph glyph-name="uni04BE" unicode="&#x4be;" horiz-adv-x="820" 
d="M774 326h-571q5 -79 40.5 -141t91.5 -96t121 -34q71 0 132 39.5t94 111.5h70q-30 -89 -101.5 -146t-159.5 -68v-142h-70v142q-75 9 -139.5 54t-104 118t-44.5 162h-17q-57 0 -89 31t-32 84v29h65v-25q0 -29 13.5 -42.5t42.5 -13.5h18q8 92 54 165.5t117 114.5t151 41
q83 0 157 -47t118.5 -128.5t44.5 -179.5q0 -14 -2 -29zM339 613q-55 -32 -91 -90.5t-44 -133.5h499q-5 71 -40.5 130t-90.5 92.5t-116 33.5q-62 0 -117 -32z" />
    <glyph glyph-name="uni04BF" unicode="&#x4bf;" horiz-adv-x="628" 
d="M585 218h-388q8 -77 54.5 -122t115.5 -45q92 0 139 79h65q-21 -54 -67.5 -92t-107.5 -46v-120h-65v120q-81 12 -136 73t-63 153h-11q-58 0 -89.5 29.5t-31.5 79.5v18h65v-18q0 -27 12.5 -38.5t43.5 -11.5h10q6 68 38.5 121t84 82.5t111.5 29.5q63 0 114.5 -32.5
t80.5 -88.5t29 -124q0 -31 -4 -47zM286.5 427.5q-36.5 -21.5 -61 -61t-29.5 -89.5h327q-5 75 -49 123.5t-109 48.5q-42 0 -78.5 -21.5z" />
    <glyph glyph-name="uni04C0" unicode="&#x4c0;" horiz-adv-x="248" 
d="M159 0h-70v700h70v-700z" />
    <glyph glyph-name="uni04C1" unicode="&#x4c1;" horiz-adv-x="774" 
d="M275 359l-267 341h80l264 -345l-274 -355h-86zM352 700h70v-700h-70v700zM766 700l-267 -341l283 -359h-86l-274 355l264 345h80zM288.5 794.5q-36.5 34.5 -38.5 84.5h54q4 -33 24.5 -51.5t58.5 -18.5t58.5 18.5t24.5 51.5h54q-2 -50 -38.5 -84.5t-98.5 -34.5t-98.5 34.5
z" />
    <glyph glyph-name="uni04C2" unicode="&#x4c2;" horiz-adv-x="629" 
d="M206 263l-194 237h78l192 -240l-208 -260h-82zM282 500h65v-500h-65v500zM617 500l-194 -237l214 -263h-82l-208 260l192 240h78zM218 601q-36 35 -38 87h54q8 -73 81 -73t81 73h54q-2 -52 -38 -87t-97 -35t-97 35z" />
    <glyph glyph-name="uni04C3" unicode="&#x4c3;" horiz-adv-x="627" 
d="M457.5 373.5q54.5 -31.5 85.5 -89.5t31 -136t-30.5 -136.5t-84 -90t-119.5 -31.5v65q46 0 83.5 23t59 66.5t21.5 103.5q0 59 -22 102.5t-61 66.5t-87 23q-78 0 -126.5 -46.5t-48.5 -121.5v-172h-70v700h70v-363l294 363h85l-249 -299q20 4 45 4q69 0 123.5 -31.5z" />
    <glyph glyph-name="uni04C4" unicode="&#x4c4;" horiz-adv-x="497" 
d="M377 250q44 -28 69.5 -80.5t25.5 -122.5q0 -69 -27 -121.5t-73.5 -81.5t-103.5 -29v61q61 0 100 45t39 126q0 54 -18 92t-47.5 58t-65.5 20q-59 0 -99 -42t-40 -107v-68h-65v500h65v-264l208 264h81l-182 -225q17 3 36 3q53 0 97 -28z" />
    <glyph glyph-name="uni04C5" unicode="&#x4c5;" horiz-adv-x="693" 
d="M553 -150l42 150h-81v635h-280l-34 -436q-8 -102 -54 -155.5t-117 -53.5q-25 0 -38 5v65h17q111 0 122 139l39 501h415v-635h102v-11l-76 -204h-57z" />
    <glyph glyph-name="uni04C6" unicode="&#x4c6;" horiz-adv-x="560" 
d="M427 -128l31 128h-61v439h-202l-23 -276q-7 -88 -44.5 -130.5t-96.5 -42.5q-16 0 -34 6v57h17q42 0 65 27t28 88l28 332h327v-439h82v-11l-61 -178h-56z" />
    <glyph glyph-name="uni04C7" unicode="&#x4c7;" horiz-adv-x="680" 
d="M521 700h70v-730q0 -78 -40.5 -121.5t-109.5 -43.5q-33 0 -53 8v63q17 -6 40 -6q93 0 93 100v355h-362v-325h-70v700h70v-310h362v310z" />
    <glyph glyph-name="uni04C8" unicode="&#x4c8;" horiz-adv-x="552" 
d="M415 500h65v-526q0 -73 -37.5 -116t-94.5 -43q-34 0 -50 8v58q10 -5 33 -5q40 0 62 24.5t22 73.5v248h-278v-222h-65v500h65v-217h278v217z" />
    <glyph glyph-name="uni04C9" unicode="&#x4c9;" horiz-adv-x="700" 
d="M591 700v-635h102v-11l-76 -204h-57l42 150h-81v325h-362v-325h-70v700h70v-310h362v310h70z" />
    <glyph glyph-name="uni04CA" unicode="&#x4ca;" horiz-adv-x="578" 
d="M480 500v-439h82v-11l-61 -178h-56l31 128h-61v222h-278v-222h-65v500h65v-217h278v217h65z" />
    <glyph glyph-name="uni04CB" unicode="&#x4cb;" horiz-adv-x="638" 
d="M479 700h70v-700h-82v-150h-70v215h82v211q-33 -23 -79.5 -39.5t-99.5 -16.5q-104 0 -165 62t-61 171v247h70v-247q0 -80 42 -124t114 -44q53 0 99 16.5t80 39.5v359z" />
    <glyph glyph-name="uni04CC" unicode="&#x4cc;" horiz-adv-x="508" 
d="M371 500h65v-500h-72v-128h-65v189h72v132q-24 -16 -59.5 -27.5t-76.5 -11.5q-52 0 -93 22.5t-64.5 62.5t-23.5 93v168h65v-168q0 -54 33.5 -85.5t90.5 -31.5q39 0 71.5 13t56.5 31v241z" />
    <glyph glyph-name="uni04CD" unicode="&#x4cd;" horiz-adv-x="850" 
d="M741 700v-635h102v-11l-76 -204h-57l42 150h-81v524l-233 -524h-47l-232 524v-524h-70v700h65l261 -594l262 594h64z" />
    <glyph glyph-name="uni04CE" unicode="&#x4ce;" horiz-adv-x="677" 
d="M579 500v-439h82v-11l-61 -178h-56l31 128h-61v354l-167 -354h-43l-167 354v-354h-65v500h66l190 -410l190 410h61z" />
    <glyph glyph-name="uni04CF" unicode="&#x4cf;" horiz-adv-x="219" 
d="M142 0h-65v700h65v-700z" />
    <glyph glyph-name="uni04D0" unicode="&#x4d0;" horiz-adv-x="607" 
d="M602 0h-75l-67 178h-316l-67 -178h-72l266 700h65zM436 243l-134 357l-134 -357h268zM205.5 794.5q-36.5 34.5 -38.5 84.5h54q4 -33 24.5 -51.5t58.5 -18.5t58.5 18.5t24.5 51.5h54q-2 -50 -38.5 -84.5t-98.5 -34.5t-98.5 34.5z" />
    <glyph glyph-name="uni04D1" unicode="&#x4d1;" horiz-adv-x="497" 
d="M340 486.5q42 -23.5 66 -65.5t24 -96v-325h-48l-17 68h-5q-19 -30 -58.5 -54t-95.5 -24q-50 0 -87.5 20.5t-58 54.5t-20.5 75q0 45 27.5 80.5t77 55.5t113.5 20h107v29q0 56 -33 90t-87 34q-51 0 -80.5 -26t-37.5 -68h-65q5 42 29.5 77.5t64.5 56.5t89 21q53 0 95 -23.5z
M323.5 91.5q41.5 40.5 41.5 102.5v43h-97q-77 0 -120 -25.5t-43 -71.5q0 -40 28 -64.5t80 -24.5q69 0 110.5 40.5zM150 601q-36 35 -38 87h54q8 -73 81 -73t81 73h54q-2 -52 -38 -87t-97 -35t-97 35z" />
    <glyph glyph-name="uni04D2" unicode="&#x4d2;" horiz-adv-x="607" 
d="M602 0h-75l-67 178h-316l-67 -178h-72l266 700h65zM436 243l-134 357l-134 -357h268zM189 788.5q-13 12.5 -13 30.5t13 30.5t30 12.5q18 0 30.5 -12.5t12.5 -30.5t-12.5 -30.5t-30.5 -12.5q-17 0 -30 12.5zM359 788.5q-13 12.5 -13 30.5t13 30.5t30 12.5t30 -12.5
t13 -30.5t-13 -30.5t-30 -12.5t-30 12.5z" />
    <glyph glyph-name="uni04D3" unicode="&#x4d3;" horiz-adv-x="497" 
d="M340 486.5q42 -23.5 66 -65.5t24 -96v-325h-48l-17 68h-5q-19 -30 -58.5 -54t-95.5 -24q-50 0 -87.5 20.5t-58 54.5t-20.5 75q0 45 27.5 80.5t77 55.5t113.5 20h107v29q0 56 -33 90t-87 34q-51 0 -80.5 -26t-37.5 -68h-65q5 42 29.5 77.5t64.5 56.5t89 21q53 0 95 -23.5z
M323.5 91.5q41.5 40.5 41.5 102.5v43h-97q-77 0 -120 -25.5t-43 -71.5q0 -40 28 -64.5t80 -24.5q69 0 110.5 40.5zM137 594.5q-13 12.5 -13 30.5t12.5 30.5t30.5 12.5t30.5 -12t12.5 -31q0 -18 -12.5 -30.5t-30.5 -12.5q-17 0 -30 12.5zM296.5 594.5q-12.5 12.5 -12.5 30.5
q0 19 12.5 31t30.5 12t30.5 -12.5t12.5 -30.5t-13 -30.5t-30 -12.5q-18 0 -30.5 12.5z" />
    <glyph glyph-name="uni04D4" unicode="&#x4d4;" horiz-adv-x="880" 
d="M492 328v-263h343v-65h-413v178h-271l-102 -178h-77l404 700h449v-65h-333v-242h295v-65h-295zM412 635l-224 -392h234v392h-10z" />
    <glyph glyph-name="uni04D5" unicode="&#x4d5;" horiz-adv-x="834" 
d="M790 225h-359q7 -80 50.5 -127t107.5 -47q42 0 72 19t51 60h65q-25 -65 -73.5 -102.5t-114.5 -37.5q-64 0 -113.5 31.5t-76.5 81.5q-21 -51 -68.5 -82t-123.5 -31q-51 0 -89 19.5t-58 52t-20 71.5q0 69 59.5 110t159.5 41h108v43q0 54 -33.5 88t-85.5 34
q-53 0 -82.5 -25.5t-38.5 -68.5h-65q6 42 30.5 77.5t65 56.5t90.5 21q60 0 102.5 -31t58.5 -73q23 45 69 74.5t109 29.5q61 0 108.5 -30.5t73.5 -85.5t26 -126q0 -28 -5 -43zM484.5 404q-43.5 -45 -52.5 -120h298q-2 69 -40 117t-103 48q-59 0 -102.5 -45zM325 91.5
q42 40.5 42 102.5v31h-99q-163 0 -163 -92q0 -37 27.5 -59.5t80.5 -22.5q70 0 112 40.5z" />
    <glyph glyph-name="uni04D6" unicode="&#x4d6;" horiz-adv-x="577" 
d="M159 328v-263h373v-65h-443v700h433v-65h-363v-242h325v-65h-325zM207.5 794.5q-36.5 34.5 -38.5 84.5h54q4 -33 24.5 -51.5t58.5 -18.5t58.5 18.5t24.5 51.5h54q-2 -50 -38.5 -84.5t-98.5 -34.5t-98.5 34.5z" />
    <glyph glyph-name="uni04D7" unicode="&#x4d7;" horiz-adv-x="537" 
d="M494 218h-388q8 -77 54.5 -122t115.5 -45q92 0 139 79h65q-23 -61 -79 -100.5t-127 -39.5q-66 0 -119.5 33t-84.5 92t-31 135q0 74 31.5 133.5t85.5 93t118 33.5q63 0 114.5 -32.5t80.5 -88.5t29 -124q0 -31 -4 -47zM195.5 427.5q-36.5 -21.5 -61 -61t-29.5 -89.5h327
q-5 75 -49 123.5t-109 48.5q-42 0 -78.5 -21.5zM175 601q-36 35 -38 87h54q8 -73 81 -73t81 73h54q-2 -52 -38 -87t-97 -35t-97 35z" />
    <glyph glyph-name="uni04D8" unicode="&#x4d8;" horiz-adv-x="732" 
d="M524 663q75 -47 119.5 -129.5t44.5 -183.5t-44.5 -183.5t-119.5 -129.5t-161 -47q-83 0 -156.5 47t-118 128.5t-44.5 179.5q0 15 2 29h571q-5 79 -41 141t-92 96t-121 34q-71 0 -131.5 -39.5t-93.5 -111.5h-70q21 65 66.5 114t105.5 75.5t123 26.5q86 0 161 -47z
M480.5 87q55.5 32 91.5 90.5t44 133.5h-499q5 -71 40.5 -130t90.5 -92.5t115 -33.5q62 0 117.5 32z" />
    <glyph glyph-name="uni04D9" unicode="&#x4d9;" horiz-adv-x="537" 
d="M382.5 477q53.5 -33 84.5 -92t31 -135q0 -74 -31.5 -133.5t-85.5 -93t-118 -33.5q-63 0 -114.5 32.5t-80.5 88.5t-29 124q0 31 4 47h388q-8 77 -54.5 122t-115.5 45q-92 0 -139 -79h-65q23 61 79 100.5t127 39.5q66 0 119.5 -33zM341.5 72.5q36.5 21.5 61 61t29.5 89.5
h-327q5 -75 49 -123.5t109 -48.5q42 0 78.5 21.5z" />
    <glyph glyph-name="uni04DA" unicode="&#x4da;" horiz-adv-x="732" 
d="M524 663q75 -47 119.5 -129.5t44.5 -183.5t-44.5 -183.5t-119.5 -129.5t-161 -47q-83 0 -156.5 47t-118 128.5t-44.5 179.5q0 15 2 29h571q-5 79 -41 141t-92 96t-121 34q-71 0 -131.5 -39.5t-93.5 -111.5h-70q21 65 66.5 114t105.5 75.5t123 26.5q86 0 161 -47z
M480.5 87q55.5 32 91.5 90.5t44 133.5h-499q5 -71 40.5 -130t90.5 -92.5t115 -33.5q62 0 117.5 32zM248 788.5q-13 12.5 -13 30.5t13 30.5t30 12.5q18 0 30.5 -12.5t12.5 -30.5t-12.5 -30.5t-30.5 -12.5q-17 0 -30 12.5zM418 788.5q-13 12.5 -13 30.5t13 30.5t30 12.5
t30 -12.5t13 -30.5t-13 -30.5t-30 -12.5t-30 12.5z" />
    <glyph glyph-name="uni04DB" unicode="&#x4db;" horiz-adv-x="537" 
d="M382.5 477q53.5 -33 84.5 -92t31 -135q0 -74 -31.5 -133.5t-85.5 -93t-118 -33.5q-63 0 -114.5 32.5t-80.5 88.5t-29 124q0 31 4 47h388q-8 77 -54.5 122t-115.5 45q-92 0 -139 -79h-65q23 61 79 100.5t127 39.5q66 0 119.5 -33zM341.5 72.5q36.5 21.5 61 61t29.5 89.5
h-327q5 -75 49 -123.5t109 -48.5q42 0 78.5 21.5zM154 594.5q-13 12.5 -13 30.5t12.5 30.5t30.5 12.5t30.5 -12t12.5 -31q0 -18 -12.5 -30.5t-30.5 -12.5q-17 0 -30 12.5zM313.5 594.5q-12.5 12.5 -12.5 30.5q0 19 12.5 31t30.5 12t30.5 -12.5t12.5 -30.5t-13 -30.5
t-30 -12.5q-18 0 -30.5 12.5z" />
    <glyph glyph-name="uni04DC" unicode="&#x4dc;" horiz-adv-x="774" 
d="M275 359l-267 341h80l264 -345l-274 -355h-86zM352 700h70v-700h-70v700zM766 700l-267 -341l283 -359h-86l-274 355l264 345h80zM272 788.5q-13 12.5 -13 30.5t13 30.5t30 12.5q18 0 30.5 -12.5t12.5 -30.5t-12.5 -30.5t-30.5 -12.5q-17 0 -30 12.5zM442 788.5
q-13 12.5 -13 30.5t13 30.5t30 12.5t30 -12.5t13 -30.5t-13 -30.5t-30 -12.5t-30 12.5z" />
    <glyph glyph-name="uni04DD" unicode="&#x4dd;" horiz-adv-x="629" 
d="M206 263l-194 237h78l192 -240l-208 -260h-82zM282 500h65v-500h-65v500zM617 500l-194 -237l214 -263h-82l-208 260l192 240h78zM205 594.5q-13 12.5 -13 30.5t12.5 30.5t30.5 12.5t30.5 -12t12.5 -31q0 -18 -12.5 -30.5t-30.5 -12.5q-17 0 -30 12.5zM364.5 594.5
q-12.5 12.5 -12.5 30.5q0 19 12.5 31t30.5 12t30.5 -12.5t12.5 -30.5t-13 -30.5t-30 -12.5q-18 0 -30.5 12.5z" />
    <glyph glyph-name="uni04DE" unicode="&#x4de;" horiz-adv-x="538" 
d="M455.5 301q38.5 -43 38.5 -115q0 -50 -29 -95.5t-81.5 -73t-117.5 -27.5q-69 0 -120.5 26t-81.5 71.5t-36 101.5h70q9 -60 52 -97t116 -37q71 0 114.5 37.5t43.5 93.5q0 62 -44 101t-119 39h-46v63h46q67 0 106.5 35t39.5 91t-40 93t-107 37q-62 0 -103 -38t-45 -95h-70
q4 55 32.5 100t77 71.5t108.5 26.5q63 0 112.5 -26.5t77 -71.5t27.5 -97q0 -54 -33.5 -93t-79.5 -58q53 -20 91.5 -63zM149 788.5q-13 12.5 -13 30.5t13 30.5t30 12.5q18 0 30.5 -12.5t12.5 -30.5t-12.5 -30.5t-30.5 -12.5q-17 0 -30 12.5zM319 788.5q-13 12.5 -13 30.5
t13 30.5t30 12.5t30 -12.5t13 -30.5t-13 -30.5t-30 -12.5t-30 12.5z" />
    <glyph glyph-name="uni04DF" unicode="&#x4df;" horiz-adv-x="430" 
d="M367 215q24 -31 24 -78q0 -40 -21 -73.5t-61.5 -53.5t-95.5 -20q-57 0 -99 21.5t-65 58t-26 80.5h65q4 -46 35 -72.5t90 -26.5q56 0 84.5 23t28.5 63q0 42 -28.5 66.5t-81.5 24.5h-54v59h50q50 0 76 20.5t26 55.5q0 36 -28.5 61t-76.5 25q-50 0 -78.5 -25.5t-33.5 -67.5
h-65q5 65 52 109.5t130 44.5q49 0 86.5 -20t58 -53.5t20.5 -73.5q0 -42 -20.5 -66.5t-47.5 -36.5q32 -14 56 -45zM101 594.5q-13 12.5 -13 30.5t12.5 30.5t30.5 12.5t30.5 -12t12.5 -31q0 -18 -12.5 -30.5t-30.5 -12.5q-17 0 -30 12.5zM260.5 594.5q-12.5 12.5 -12.5 30.5
q0 19 12.5 31t30.5 12t30.5 -12.5t12.5 -30.5t-13 -30.5t-30 -12.5q-18 0 -30.5 12.5z" />
    <glyph glyph-name="uni04E0" unicode="&#x4e0;" horiz-adv-x="562" 
d="M283 424q66 0 119.5 -27t84.5 -76.5t31 -113.5q0 -61 -30 -110.5t-85.5 -78t-129.5 -28.5q-109 0 -173 55.5t-77 148.5h70q9 -61 56 -100t124 -39q52 0 92 20.5t61.5 55t21.5 76.5q0 68 -47.5 110t-126.5 42h-84v58l218 218h-348v65h435v-65z" />
    <glyph glyph-name="uni04E1" unicode="&#x4e1;" horiz-adv-x="473" 
d="M235 215q58 0 105 -26t74 -73t27 -105q0 -57 -27.5 -103t-77 -72t-111.5 -26q-95 0 -152 52.5t-65 142.5h65q8 -65 46 -99.5t106 -34.5q66 0 108.5 39.5t42.5 100.5q0 64 -42 103.5t-108 39.5h-88v57l200 228h-293v61h374v-61l-199 -224h15z" />
    <glyph glyph-name="uni04E2" unicode="&#x4e2;" horiz-adv-x="690" 
d="M159 121l375 579h67v-700h-70v579l-375 -579h-67v700h70v-579zM478 792h-254v55h254v-55z" />
    <glyph glyph-name="uni04E3" unicode="&#x4e3;" horiz-adv-x="556" 
d="M137 110l290 390h57v-500h-65v390l-290 -390h-57v500h65v-390zM407 600h-248v53h248v-53z" />
    <glyph glyph-name="uni04E4" unicode="&#x4e4;" horiz-adv-x="690" 
d="M159 121l375 579h67v-700h-70v579l-375 -579h-67v700h70v-579zM236 788.5q-13 12.5 -13 30.5t13 30.5t30 12.5q18 0 30.5 -12.5t12.5 -30.5t-12.5 -30.5t-30.5 -12.5q-17 0 -30 12.5zM406 788.5q-13 12.5 -13 30.5t13 30.5t30 12.5t30 -12.5t13 -30.5t-13 -30.5
t-30 -12.5t-30 12.5z" />
    <glyph glyph-name="uni04E5" unicode="&#x4e5;" horiz-adv-x="556" 
d="M137 110l290 390h57v-500h-65v390l-290 -390h-57v500h65v-390zM173 594.5q-13 12.5 -13 30.5t12.5 30.5t30.5 12.5t30.5 -12t12.5 -31q0 -18 -12.5 -30.5t-30.5 -12.5q-17 0 -30 12.5zM332.5 594.5q-12.5 12.5 -12.5 30.5q0 19 12.5 31t30.5 12t30.5 -12.5t12.5 -30.5
t-13 -30.5t-30 -12.5q-18 0 -30.5 12.5z" />
    <glyph glyph-name="uni04E6" unicode="&#x4e6;" horiz-adv-x="737" 
d="M207.5 37q-74.5 47 -119 129.5t-44.5 183.5t44.5 183.5t119 129.5t160.5 47t161 -47t119.5 -129.5t44.5 -183.5t-44.5 -183.5t-119.5 -129.5t-161 -47t-160.5 47zM494.5 92.5q58.5 37.5 93.5 105t35 152.5t-35 152.5t-93.5 105t-126.5 37.5q-67 0 -125.5 -37.5
t-93.5 -105t-35 -152.5t35 -152.5t93.5 -105t125.5 -37.5q68 0 126.5 37.5zM253 788.5q-13 12.5 -13 30.5t13 30.5t30 12.5q18 0 30.5 -12.5t12.5 -30.5t-12.5 -30.5t-30.5 -12.5q-17 0 -30 12.5zM423 788.5q-13 12.5 -13 30.5t13 30.5t30 12.5t30 -12.5t13 -30.5t-13 -30.5
t-30 -12.5t-30 12.5z" />
    <glyph glyph-name="uni04E7" unicode="&#x4e7;" horiz-adv-x="548" 
d="M156 23.5q-54 33.5 -85.5 93t-31.5 133.5t31.5 133.5t85.5 93t118 33.5t118 -33.5t85.5 -93t31.5 -133.5t-31.5 -133.5t-85.5 -93t-118 -33.5t-118 33.5zM359 76q39 25 62 70.5t23 103.5t-23 103.5t-62 70.5t-85 25t-85 -25t-62 -70.5t-23 -103.5t23 -103.5t62 -70.5
t85 -25t85 25zM164 594.5q-13 12.5 -13 30.5t12.5 30.5t30.5 12.5t30.5 -12t12.5 -31q0 -18 -12.5 -30.5t-30.5 -12.5q-17 0 -30 12.5zM323.5 594.5q-12.5 12.5 -12.5 30.5q0 19 12.5 31t30.5 12t30.5 -12.5t12.5 -30.5t-13 -30.5t-30 -12.5q-18 0 -30.5 12.5z" />
    <glyph glyph-name="uni04E8" unicode="&#x4e8;" horiz-adv-x="737" 
d="M529 663q75 -47 119.5 -129.5t44.5 -183.5t-44.5 -183.5t-119.5 -129.5t-161 -47t-160.5 47t-119 129.5t-44.5 183.5t44.5 183.5t119 129.5t160.5 47t161 -47zM249.5 612q-55.5 -33 -92 -93.5t-42.5 -137.5h507q-6 77 -42.5 137.5t-92 93.5t-119.5 33q-63 0 -118.5 -33z
M487 88q56 33 92 93t43 137h-507q7 -77 43 -137t91.5 -93t118.5 -33t119 33z" />
    <glyph glyph-name="uni04E9" unicode="&#x4e9;" horiz-adv-x="548" 
d="M392 476.5q54 -33.5 85.5 -93t31.5 -133.5t-31.5 -133.5t-85.5 -93t-118 -33.5t-118 33.5t-85.5 93t-31.5 133.5t31.5 133.5t85.5 93t118 33.5t118 -33.5zM195.5 428q-36.5 -21 -60.5 -60t-29 -89h336q-5 50 -29 89t-60.5 60t-78.5 21t-78.5 -21zM351.5 72
q36.5 21 60.5 59.5t30 88.5h-336q6 -50 30 -88.5t60.5 -59.5t77.5 -21t77.5 21z" />
    <glyph glyph-name="uni04EA" unicode="&#x4ea;" horiz-adv-x="737" 
d="M529 663q75 -47 119.5 -129.5t44.5 -183.5t-44.5 -183.5t-119.5 -129.5t-161 -47t-160.5 47t-119 129.5t-44.5 183.5t44.5 183.5t119 129.5t160.5 47t161 -47zM249.5 612q-55.5 -33 -92 -93.5t-42.5 -137.5h507q-6 77 -42.5 137.5t-92 93.5t-119.5 33q-63 0 -118.5 -33z
M487 88q56 33 92 93t43 137h-507q7 -77 43 -137t91.5 -93t118.5 -33t119 33zM253 788.5q-13 12.5 -13 30.5t13 30.5t30 12.5q18 0 30.5 -12.5t12.5 -30.5t-12.5 -30.5t-30.5 -12.5q-17 0 -30 12.5zM423 788.5q-13 12.5 -13 30.5t13 30.5t30 12.5t30 -12.5t13 -30.5
t-13 -30.5t-30 -12.5t-30 12.5z" />
    <glyph glyph-name="uni04EB" unicode="&#x4eb;" horiz-adv-x="548" 
d="M392 476.5q54 -33.5 85.5 -93t31.5 -133.5t-31.5 -133.5t-85.5 -93t-118 -33.5t-118 33.5t-85.5 93t-31.5 133.5t31.5 133.5t85.5 93t118 33.5t118 -33.5zM195.5 428q-36.5 -21 -60.5 -60t-29 -89h336q-5 50 -29 89t-60.5 60t-78.5 21t-78.5 -21zM351.5 72
q36.5 21 60.5 59.5t30 88.5h-336q6 -50 30 -88.5t60.5 -59.5t77.5 -21t77.5 21zM164 594.5q-13 12.5 -13 30.5t12.5 30.5t30.5 12.5t30.5 -12t12.5 -31q0 -18 -12.5 -30.5t-30.5 -12.5q-17 0 -30 12.5zM323.5 594.5q-12.5 12.5 -12.5 30.5q0 19 12.5 31t30.5 12t30.5 -12.5
t12.5 -30.5t-13 -30.5t-30 -12.5q-18 0 -30.5 12.5z" />
    <glyph glyph-name="uni04EC" unicode="&#x4ec;" horiz-adv-x="694" 
d="M486.5 663q74.5 -47 119 -129.5t44.5 -183.5t-44.5 -183.5t-119 -129.5t-160.5 -47q-69 0 -130 31t-103 83t-59 115h70q25 -70 84 -117t138 -47q63 0 118.5 33t92 93.5t42.5 137.5h-292v63h292q-7 77 -43 137t-91.5 93t-118.5 33q-78 0 -136 -47.5t-83 -116.5h-70
q17 62 59 114t102 83.5t128 31.5q86 0 160.5 -47zM213 788.5q-13 12.5 -13 30.5t13 30.5t30 12.5q18 0 30.5 -12.5t12.5 -30.5t-12.5 -30.5t-30.5 -12.5q-17 0 -30 12.5zM383 788.5q-13 12.5 -13 30.5t13 30.5t30 12.5t30 -12.5t13 -30.5t-13 -30.5t-30 -12.5t-30 12.5z" />
    <glyph glyph-name="uni04ED" unicode="&#x4ed;" horiz-adv-x="521" 
d="M365 476.5q54 -33.5 85.5 -93t31.5 -133.5t-31.5 -133.5t-85.5 -93t-118 -33.5q-55 0 -101.5 26t-76.5 68.5t-40 92.5h65q17 -59 55.5 -92.5t97.5 -33.5q42 0 78.5 21t60.5 60t29 89h-190v59h190q-6 50 -30 88.5t-60.5 59.5t-77.5 21q-58 0 -97 -34t-56 -92h-65
q10 50 40 93t76 68.5t102 25.5q64 0 118 -33.5zM137 594.5q-13 12.5 -13 30.5t12.5 30.5t30.5 12.5t30.5 -12t12.5 -31q0 -18 -12.5 -30.5t-30.5 -12.5q-17 0 -30 12.5zM296.5 594.5q-12.5 12.5 -12.5 30.5q0 19 12.5 31t30.5 12t30.5 -12.5t12.5 -30.5t-13 -30.5t-30 -12.5
q-18 0 -30.5 12.5z" />
    <glyph glyph-name="uni04EE" unicode="&#x4ee;" horiz-adv-x="551" 
d="M476 700h73l-250 -557q-36 -80 -73.5 -116.5t-92.5 -36.5q-27 0 -49 11v63q18 -9 39 -9q37 0 64 27.5t50 77.5l15 33l-240 507h78l197 -428zM410 792h-254v55h254v-55z" />
    <glyph glyph-name="uni04EF" unicode="&#x4ef;" horiz-adv-x="474" 
d="M399 500h68l-221 -550q-32 -78 -63.5 -106.5t-71.5 -28.5q-17 0 -39 8v59q17 -6 31 -6q24 0 42.5 15t33.5 52l27 68l-199 489h70l163 -406zM362 600h-248v53h248v-53z" />
    <glyph glyph-name="uni04F0" unicode="&#x4f0;" horiz-adv-x="551" 
d="M476 700h73l-250 -557q-36 -80 -73.5 -116.5t-92.5 -36.5q-27 0 -49 11v63q18 -9 39 -9q37 0 64 27.5t50 77.5l15 33l-240 507h78l197 -428zM168 788.5q-13 12.5 -13 30.5t13 30.5t30 12.5q18 0 30.5 -12.5t12.5 -30.5t-12.5 -30.5t-30.5 -12.5q-17 0 -30 12.5z
M338 788.5q-13 12.5 -13 30.5t13 30.5t30 12.5t30 -12.5t13 -30.5t-13 -30.5t-30 -12.5t-30 12.5z" />
    <glyph glyph-name="uni04F1" unicode="&#x4f1;" horiz-adv-x="474" 
d="M399 500h68l-221 -550q-32 -78 -63.5 -106.5t-71.5 -28.5q-17 0 -39 8v59q17 -6 31 -6q24 0 42.5 15t33.5 52l27 68l-199 489h70l163 -406zM128 594.5q-13 12.5 -13 30.5t12.5 30.5t30.5 12.5t30.5 -12t12.5 -31q0 -18 -12.5 -30.5t-30.5 -12.5q-17 0 -30 12.5z
M287.5 594.5q-12.5 12.5 -12.5 30.5q0 19 12.5 31t30.5 12t30.5 -12.5t12.5 -30.5t-13 -30.5t-30 -12.5q-18 0 -30.5 12.5z" />
    <glyph glyph-name="uni04F2" unicode="&#x4f2;" horiz-adv-x="551" 
d="M476 700h73l-250 -557q-36 -80 -73.5 -116.5t-92.5 -36.5q-27 0 -49 11v63q18 -9 39 -9q37 0 64 27.5t50 77.5l15 33l-240 507h78l197 -428zM244 755h-54l80 128h78zM377 755h-54l80 128h78z" />
    <glyph glyph-name="uni04F3" unicode="&#x4f3;" horiz-adv-x="474" 
d="M399 500h68l-221 -550q-32 -78 -63.5 -106.5t-71.5 -28.5q-17 0 -39 8v59q17 -6 31 -6q24 0 42.5 15t33.5 52l27 68l-199 489h70l163 -406zM198 560h-51l76 134h75zM329 560h-51l76 134h75z" />
    <glyph glyph-name="uni04F4" unicode="&#x4f4;" horiz-adv-x="638" 
d="M479 700h70v-700h-70v276q-33 -23 -79.5 -39.5t-99.5 -16.5q-104 0 -165 62t-61 171v247h70v-247q0 -80 42 -124t114 -44q53 0 99 16.5t80 39.5v359zM197 788.5q-13 12.5 -13 30.5t13 30.5t30 12.5q18 0 30.5 -12.5t12.5 -30.5t-12.5 -30.5t-30.5 -12.5q-17 0 -30 12.5z
M367 788.5q-13 12.5 -13 30.5t13 30.5t30 12.5t30 -12.5t13 -30.5t-13 -30.5t-30 -12.5t-30 12.5z" />
    <glyph glyph-name="uni04F5" unicode="&#x4f5;" horiz-adv-x="508" 
d="M371 500h65v-500h-65v193q-24 -16 -59.5 -27.5t-76.5 -11.5q-52 0 -93 22.5t-64.5 62.5t-23.5 93v168h65v-168q0 -54 33.5 -85.5t90.5 -31.5q39 0 71.5 13t56.5 31v241zM135 594.5q-13 12.5 -13 30.5t12.5 30.5t30.5 12.5t30.5 -12t12.5 -31q0 -18 -12.5 -30.5
t-30.5 -12.5q-17 0 -30 12.5zM294.5 594.5q-12.5 12.5 -12.5 30.5q0 19 12.5 31t30.5 12t30.5 -12.5t12.5 -30.5t-13 -30.5t-30 -12.5q-18 0 -30.5 12.5z" />
    <glyph glyph-name="uni04F6" unicode="&#x4f6;" horiz-adv-x="498" 
d="M246 -150h-70v150h-87v700h397v-65h-327v-570h87v-215z" />
    <glyph glyph-name="uni04F7" unicode="&#x4f7;" horiz-adv-x="402" 
d="M214 -128h-65v128h-77v500h320v-61h-255v-378h77v-189z" />
    <glyph glyph-name="uni04F8" unicode="&#x4f8;" horiz-adv-x="785" 
d="M310 432q63 0 113.5 -28t79 -77t28.5 -111t-28.5 -111t-79 -77t-113.5 -28h-221v700h70v-268h151zM626 0v700h70v-700h-70zM310 65q68 0 109.5 41t41.5 110t-41.5 110t-109.5 41h-151v-302h151zM277 788.5q-13 12.5 -13 30.5t13 30.5t30 12.5q18 0 30.5 -12.5t12.5 -30.5
t-12.5 -30.5t-30.5 -12.5q-17 0 -30 12.5zM447 788.5q-13 12.5 -13 30.5t13 30.5t30 12.5t30 -12.5t13 -30.5t-13 -30.5t-30 -12.5t-30 12.5z" />
    <glyph glyph-name="uni04F9" unicode="&#x4f9;" horiz-adv-x="650" 
d="M257 317q79 0 125.5 -43.5t46.5 -115.5q0 -71 -46.5 -114.5t-125.5 -43.5h-185v500h65v-183h120zM513 0v500h65v-500h-65zM257 61q50 0 78.5 25.5t28.5 71.5t-28.5 72t-78.5 26h-120v-195h120zM215 594.5q-13 12.5 -13 30.5t12.5 30.5t30.5 12.5t30.5 -12t12.5 -31
q0 -18 -12.5 -30.5t-30.5 -12.5q-17 0 -30 12.5zM374.5 594.5q-12.5 12.5 -12.5 30.5q0 19 12.5 31t30.5 12t30.5 -12.5t12.5 -30.5t-13 -30.5t-30 -12.5q-18 0 -30.5 12.5z" />
    <glyph glyph-name="uni04FA" unicode="&#x4fa;" horiz-adv-x="529" 
d="M512 635h-327v-262h239v-65h-239v-245h119v-103q0 -72 -37.5 -113.5t-97.5 -41.5q-32 0 -54 8v63q17 -6 40 -6q38 0 58.5 22.5t20.5 67.5v40h-119v308h-95v65h95v327h397v-65z" />
    <glyph glyph-name="uni04FB" unicode="&#x4fb;" horiz-adv-x="425" 
d="M410 439h-255v-182h190v-61h-190v-137h101v-100q0 -43 -16 -76t-43 -50.5t-58 -17.5q-30 0 -49 8v58q12 -5 33 -5q30 0 49 21.5t19 61.5v41h-101v196h-80v61h80v243h320v-61z" />
    <glyph glyph-name="uni04FC" unicode="&#x4fc;" horiz-adv-x="571" 
d="M506 77q27 -42 41 -72.5t14 -66.5q0 -58 -37.5 -95.5t-96.5 -37.5q-30 0 -50 8v63q17 -6 39 -6q38 0 56.5 18.5t18.5 50.5q0 23 -10 44.5t-35 60.5l-162 254l-192 -298h-77l230 355l-219 345h80l181 -287l180 287h78l-220 -345z" />
    <glyph glyph-name="uni04FD" unicode="&#x4fd;" horiz-adv-x="454" 
d="M405 56q44 -63 44 -115q0 -56 -36 -91t-86 -35q-33 0 -49 8v58q10 -5 33 -5q34 0 53.5 16.5t19.5 48.5q0 21 -8.5 40.5t-30.5 51.5l-119 177l-142 -210h-73l175 255l-164 245h75l131 -200l131 200h73l-164 -245z" />
    <glyph glyph-name="uni04FE" unicode="&#x4fe;" horiz-adv-x="571" 
d="M345 324l211 -324h-82l-190 298l-192 -298h-77l210 324h-145v63h145l-199 313h80l181 -287l180 287h78l-200 -313h146v-63h-146z" />
    <glyph glyph-name="uni04FF" unicode="&#x4ff;" horiz-adv-x="454" 
d="M288 226l155 -226h-76l-141 209l-142 -209h-73l155 226h-106v59h106l-144 215h75l131 -200l131 200h73l-144 -215h106v-59h-106z" />
    <glyph glyph-name="uni0510" unicode="&#x510;" horiz-adv-x="538" 
d="M510 189q-6 -56 -36 -101.5t-81.5 -71.5t-120.5 -26q-65 0 -117.5 27.5t-81.5 73t-29 95.5q0 72 38.5 115t91.5 63q-46 19 -79.5 58t-33.5 93q0 52 27.5 97t77 71.5t112.5 26.5q60 0 108.5 -26.5t77 -71.5t32.5 -100h-70q-4 57 -45 95t-103 38q-67 0 -107 -37t-40 -93
t39.5 -91t106.5 -35h46v-63h-46q-75 0 -119 -39t-44 -101q0 -56 43.5 -93.5t114.5 -37.5q73 0 116 37t52 97h70z" />
    <glyph glyph-name="uni0511" unicode="&#x511;" horiz-adv-x="430" 
d="M407 150q-3 -44 -26 -80.5t-65 -58t-99 -21.5q-55 0 -95.5 20t-61.5 53.5t-21 73.5q0 47 24 78t56 45q-27 12 -47.5 36.5t-20.5 66.5q0 40 20.5 73.5t58 53.5t86.5 20q83 0 130 -44.5t52 -109.5h-65q-5 42 -33.5 67.5t-78.5 25.5q-48 0 -76.5 -25t-28.5 -61
q0 -35 26 -55.5t76 -20.5h50v-59h-54q-53 0 -81.5 -24.5t-28.5 -66.5q0 -40 28.5 -63t84.5 -23q59 0 90 26.5t35 72.5h65z" />
    <glyph glyph-name="uni0512" unicode="&#x512;" horiz-adv-x="673" 
d="M381 -187v63q17 -6 40 -6q93 0 93 100v665h-280l-34 -436q-8 -102 -54 -155.5t-117 -53.5q-25 0 -38 5v65h17q111 0 122 139l39 501h415v-730q0 -78 -40.5 -121.5t-109.5 -43.5q-33 0 -53 8z" />
    <glyph glyph-name="uni0513" unicode="&#x513;" horiz-adv-x="534" 
d="M280 -177v58q10 -5 33 -5q40 0 62 24.5t22 73.5v465h-202l-23 -276q-7 -88 -44.5 -130.5t-96.5 -42.5q-16 0 -34 6v57h17q42 0 65 27t28 88l28 332h327v-526q0 -73 -37.5 -116t-94.5 -43q-34 0 -50 8z" />
    <glyph glyph-name="uni051A" unicode="&#x51a;" horiz-adv-x="737" 
d="M668.5 211q-24.5 -65 -68.5 -114l68 -67l-43 -45l-71 70q-40 -32 -87.5 -48.5t-98.5 -16.5q-86 0 -160.5 47t-119 129.5t-44.5 183.5t44.5 183.5t119 129.5t160.5 47t161 -47t119.5 -129.5t44.5 -183.5q0 -74 -24.5 -139zM507 101l-106 104l43 45l108 -106
q34 39 52.5 91.5t18.5 114.5q0 85 -35 152.5t-93.5 105t-126.5 37.5q-67 0 -125.5 -37.5t-93.5 -105t-35 -152.5t35 -152.5t93.5 -105t125.5 -37.5q76 0 139 46z" />
    <glyph glyph-name="uni051B" unicode="&#x51b;" horiz-adv-x="571" 
d="M434 -180v248h-5q-9 -14 -32 -32t-56.5 -32t-71.5 -14q-63 0 -115.5 33t-83.5 92.5t-31 134.5t31 134.5t83.5 92.5t115.5 33q38 0 71.5 -14t56 -32t32.5 -32h5l17 68h48v-680h-65zM352 76q38 25 60 70.5t22 103.5t-22 103.5t-60 70.5t-83 25t-83 -25t-60 -70.5
t-22 -103.5t22 -103.5t60 -70.5t83 -25t83 25z" />
    <glyph glyph-name="uni051C" unicode="&#x51c;" horiz-adv-x="864" 
d="M619 141l163 559h70l-210 -700h-51l-160 549l-158 -549h-51l-210 700h73l163 -559l159 559h50z" />
    <glyph glyph-name="uni051D" unicode="&#x51d;" horiz-adv-x="678" 
d="M481 117l123 383h67l-167 -500h-47l-119 381l-117 -381h-47l-167 500h70l121 -383l119 383h45z" />
    <glyph glyph-name="uni0524" unicode="&#x524;" horiz-adv-x="700" 
d="M678 -150h-70v150h-87v635h-362v-635h-70v700h502v-635h87v-215z" />
    <glyph glyph-name="uni0525" unicode="&#x525;" horiz-adv-x="568" 
d="M547 -128h-65v128h-77v439h-268v-439h-65v500h398v-439h77v-189z" />
    <glyph glyph-name="uni0526" unicode="&#x526;" horiz-adv-x="673" 
d="M564 65h87v-215h-70v150h-87v247q0 80 -42.5 124t-114.5 44q-52 0 -98 -16.5t-80 -39.5v-359h-70v700h70v-276q33 23 79.5 39.5t98.5 16.5q104 0 165.5 -62t61.5 -171v-182z" />
    <glyph glyph-name="uni0527" unicode="&#x527;" horiz-adv-x="591" 
d="M505 -128v128h-77v290q0 74 -39 116.5t-101 42.5q-66 0 -106 -42.5t-40 -116.5v-290h-65v700h65v-268h5q20 31 58.5 54.5t88.5 23.5q56 0 101.5 -27t71.5 -77t26 -116v-229h77v-189h-65z" />
    <glyph glyph-name="uni0528" unicode="&#x528;" horiz-adv-x="680" 
d="M521 700h70v-700h-70v325h-362v-355q0 -78 -40.5 -121.5t-109.5 -43.5q-33 0 -53 8v63q17 -6 40 -6q93 0 93 100v730h70v-310h362v310z" />
    <glyph glyph-name="uni0529" unicode="&#x529;" horiz-adv-x="552" 
d="M415 500h65v-500h-65v222h-278v-248q0 -73 -37.5 -116t-94.5 -43q-34 0 -50 8v58q10 -5 33 -5q40 0 62 24.5t22 73.5v526h65v-217h278v217z" />
    <glyph glyph-name="uni052E" unicode="&#x52e;" horiz-adv-x="693" 
d="M601 -150v150h-87v635h-280l-34 -436q-8 -102 -54 -155.5t-117 -53.5q-25 0 -38 5v65h17q111 0 122 139l39 501h415v-635h87v-215h-70z" />
    <glyph glyph-name="uni052F" unicode="&#x52f;" horiz-adv-x="560" 
d="M474 -128v128h-77v439h-202l-23 -276q-7 -88 -44.5 -130.5t-96.5 -42.5q-16 0 -34 6v57h17q42 0 65 27t28 88l28 332h327v-439h77v-189h-65z" />
    <glyph glyph-name="Wgrave" unicode="&#x1e80;" horiz-adv-x="864" 
d="M619 141l163 559h70l-210 -700h-51l-160 549l-158 -549h-51l-210 700h73l163 -559l159 559h50zM470 755h-54l-95 128h78z" />
    <glyph glyph-name="wgrave" unicode="&#x1e81;" horiz-adv-x="678" 
d="M481 117l123 383h67l-167 -500h-47l-119 381l-117 -381h-47l-167 500h70l121 -383l119 383h45zM376 560h-51l-91 134h75z" />
    <glyph glyph-name="Wacute" unicode="&#x1e82;" horiz-adv-x="864" 
d="M619 141l163 559h70l-210 -700h-51l-160 549l-158 -549h-51l-210 700h73l163 -559l159 559h50zM448 755h-54l70 128h78z" />
    <glyph glyph-name="wacute" unicode="&#x1e83;" horiz-adv-x="678" 
d="M481 117l123 383h67l-167 -500h-47l-119 381l-117 -381h-47l-167 500h70l121 -383l119 383h45zM355 560h-51l66 134h75z" />
    <glyph glyph-name="Wdieresis" unicode="&#x1e84;" horiz-adv-x="864" 
d="M619 141l163 559h70l-210 -700h-51l-160 549l-158 -549h-51l-210 700h73l163 -559l159 559h50zM317 788.5q-13 12.5 -13 30.5t13 30.5t30 12.5q18 0 30.5 -12.5t12.5 -30.5t-12.5 -30.5t-30.5 -12.5q-17 0 -30 12.5zM487 788.5q-13 12.5 -13 30.5t13 30.5t30 12.5
t30 -12.5t13 -30.5t-13 -30.5t-30 -12.5t-30 12.5z" />
    <glyph glyph-name="wdieresis" unicode="&#x1e85;" horiz-adv-x="678" 
d="M481 117l123 383h67l-167 -500h-47l-119 381l-117 -381h-47l-167 500h70l121 -383l119 383h45zM230 594.5q-13 12.5 -13 30.5t12.5 30.5t30.5 12.5t30.5 -12t12.5 -31q0 -18 -12.5 -30.5t-30.5 -12.5q-17 0 -30 12.5zM389.5 594.5q-12.5 12.5 -12.5 30.5q0 19 12.5 31
t30.5 12t30.5 -12.5t12.5 -30.5t-13 -30.5t-30 -12.5q-18 0 -30.5 12.5z" />
    <glyph glyph-name="uni1E9E" unicode="&#x1e9e;" horiz-adv-x="650" 
d="M401 398q56 0 103 -27t74.5 -72.5t27.5 -99.5q0 -56 -26.5 -101.5t-73.5 -71.5t-105 -26h-112v65h112q60 0 97.5 37t37.5 97q0 58 -39 96t-96 38h-103v66l171 236h-186q-34 0 -64 -18t-47.5 -48.5t-17.5 -68.5v-500h-70v500q0 57 26 102.5t71.5 71.5t101.5 26h274v-55
l-182 -247h26z" />
    <glyph glyph-name="uni1EA0" unicode="&#x1ea0;" horiz-adv-x="607" 
d="M602 0h-75l-67 178h-316l-67 -178h-72l266 700h65zM436 243l-134 357l-134 -357h268zM272 -157q-13 13 -13 32q0 20 13 32.5t32 12.5q20 0 32.5 -12.5t12.5 -32.5t-13 -32.5t-32 -12.5t-32 13z" />
    <glyph glyph-name="uni1EA1" unicode="&#x1ea1;" horiz-adv-x="497" 
d="M340 486.5q42 -23.5 66 -65.5t24 -96v-325h-48l-17 68h-5q-19 -30 -58.5 -54t-95.5 -24q-50 0 -87.5 20.5t-58 54.5t-20.5 75q0 45 27.5 80.5t77 55.5t113.5 20h107v29q0 56 -33 90t-87 34q-51 0 -80.5 -26t-37.5 -68h-65q5 42 29.5 77.5t64.5 56.5t89 21q53 0 95 -23.5z
M323.5 91.5q41.5 40.5 41.5 102.5v43h-97q-77 0 -120 -25.5t-43 -71.5q0 -40 28 -64.5t80 -24.5q69 0 110.5 40.5zM218 -157q-13 13 -13 32q0 20 13 32.5t32 12.5q20 0 32.5 -12.5t12.5 -32.5t-13 -32.5t-32 -12.5t-32 13z" />
    <glyph glyph-name="uni1EA2" unicode="&#x1ea2;" horiz-adv-x="607" 
d="M602 0h-75l-67 178h-316l-67 -178h-72l266 700h65zM436 243l-134 357l-134 -357h268zM288 752q22 31 22 61q0 21 -13.5 34t-36.5 13q-17 0 -32 -4v50q19 6 47 6q41 0 66 -22t25 -59q0 -45 -28 -79h-50z" />
    <glyph glyph-name="uni1EA3" unicode="&#x1ea3;" horiz-adv-x="497" 
d="M340 486.5q42 -23.5 66 -65.5t24 -96v-325h-48l-17 68h-5q-19 -30 -58.5 -54t-95.5 -24q-50 0 -87.5 20.5t-58 54.5t-20.5 75q0 45 27.5 80.5t77 55.5t113.5 20h107v29q0 56 -33 90t-87 34q-51 0 -80.5 -26t-37.5 -68h-65q5 42 29.5 77.5t64.5 56.5t89 21q53 0 95 -23.5z
M323.5 91.5q41.5 40.5 41.5 102.5v43h-97q-77 0 -120 -25.5t-43 -71.5q0 -40 28 -64.5t80 -24.5q69 0 110.5 40.5zM227 557q23 33 23 62q0 54 -52 54q-13 0 -28 -4v48q20 6 42 6q43 0 67 -23t24 -64q0 -25 -7.5 -42.5t-20.5 -36.5h-48z" />
    <glyph glyph-name="uni1EA4" unicode="&#x1ea4;" horiz-adv-x="607" 
d="M602 0h-75l-67 178h-316l-67 -178h-72l266 700h65zM436 243l-134 357l-134 -357h268zM402 830l56 113h73l-79 -113h-50zM168 745l105 128h63l104 -128h-68l-69 85l-68 -85h-67z" />
    <glyph glyph-name="uni1EA5" unicode="&#x1ea5;" horiz-adv-x="497" 
d="M340 486.5q42 -23.5 66 -65.5t24 -96v-325h-48l-17 68h-5q-19 -30 -58.5 -54t-95.5 -24q-50 0 -87.5 20.5t-58 54.5t-20.5 75q0 45 27.5 80.5t77 55.5t113.5 20h107v29q0 56 -33 90t-87 34q-51 0 -80.5 -26t-37.5 -68h-65q5 42 29.5 77.5t64.5 56.5t89 21q53 0 95 -23.5z
M323.5 91.5q41.5 40.5 41.5 102.5v43h-97q-77 0 -120 -25.5t-43 -71.5q0 -40 28 -64.5t80 -24.5q69 0 110.5 40.5zM343 635l61 125h75l-85 -125h-51zM115 550l102 134h60l102 -134h-68l-65 91l-65 -91h-66z" />
    <glyph glyph-name="uni1EA6" unicode="&#x1ea6;" horiz-adv-x="607" 
d="M602 0h-75l-67 178h-316l-67 -178h-72l266 700h65zM436 243l-134 357l-134 -357h268zM424 943l56 -113h-50l-79 113h73zM168 745l105 128h63l104 -128h-68l-69 85l-68 -85h-67z" />
    <glyph glyph-name="uni1EA7" unicode="&#x1ea7;" horiz-adv-x="497" 
d="M340 486.5q42 -23.5 66 -65.5t24 -96v-325h-48l-17 68h-5q-19 -30 -58.5 -54t-95.5 -24q-50 0 -87.5 20.5t-58 54.5t-20.5 75q0 45 27.5 80.5t77 55.5t113.5 20h107v29q0 56 -33 90t-87 34q-51 0 -80.5 -26t-37.5 -68h-65q5 42 29.5 77.5t64.5 56.5t89 21q53 0 95 -23.5z
M323.5 91.5q41.5 40.5 41.5 102.5v43h-97q-77 0 -120 -25.5t-43 -71.5q0 -40 28 -64.5t80 -24.5q69 0 110.5 40.5zM359 760l61 -125h-51l-85 125h75zM115 550l102 134h60l102 -134h-68l-65 91l-65 -91h-66z" />
    <glyph glyph-name="uni1EA8" unicode="&#x1ea8;" horiz-adv-x="607" 
d="M602 0h-75l-67 178h-316l-67 -178h-72l266 700h65zM436 243l-134 357l-134 -357h268zM461 955q23 -20 23 -54q0 -20 -8 -38.5t-21 -32.5h-50q23 31 23 53q0 18 -11 29t-32 11q-16 0 -31 -4v50q24 6 47 6q37 0 60 -20zM168 745l105 128h63l104 -128h-68l-69 85l-68 -85
h-67z" />
    <glyph glyph-name="uni1EA9" unicode="&#x1ea9;" horiz-adv-x="497" 
d="M340 486.5q42 -23.5 66 -65.5t24 -96v-325h-48l-17 68h-5q-19 -30 -58.5 -54t-95.5 -24q-50 0 -87.5 20.5t-58 54.5t-20.5 75q0 45 27.5 80.5t77 55.5t113.5 20h107v29q0 56 -33 90t-87 34q-51 0 -80.5 -26t-37.5 -68h-65q5 42 29.5 77.5t64.5 56.5t89 21q53 0 95 -23.5z
M323.5 91.5q41.5 40.5 41.5 102.5v43h-97q-77 0 -120 -25.5t-43 -71.5q0 -40 28 -64.5t80 -24.5q69 0 110.5 40.5zM395 759.5q23 -21.5 23 -53.5q0 -20 -6.5 -36t-19.5 -35h-48q21 31 21 54q0 19 -12.5 30.5t-31.5 11.5q-13 0 -28 -4v48q20 6 42 6q37 0 60 -21.5zM115 550
l102 134h60l102 -134h-68l-65 91l-65 -91h-66z" />
    <glyph glyph-name="uni1EAA" unicode="&#x1eaa;" horiz-adv-x="607" 
d="M602 0h-75l-67 178h-316l-67 -178h-72l266 700h65zM436 243l-134 357l-134 -357h268zM227.5 938.5q-10.5 -14.5 -10.5 -38.5h-50q0 51 24.5 78.5t58.5 27.5q21 0 36 -9.5t31 -26.5q10 -11 18 -17t17 -6q14 0 24.5 14.5t10.5 38.5h50q0 -51 -25 -78.5t-58 -27.5
q-21 0 -36 9.5t-31 26.5q-10 11 -18 17t-17 6q-14 0 -24.5 -14.5zM335 873l104 -128h-68l-69 85l-68 -85h-67l105 128h63z" />
    <glyph glyph-name="uni1EAB" unicode="&#x1eab;" horiz-adv-x="497" 
d="M340 486.5q42 -23.5 66 -65.5t24 -96v-325h-48l-17 68h-5q-19 -30 -58.5 -54t-95.5 -24q-50 0 -87.5 20.5t-58 54.5t-20.5 75q0 45 27.5 80.5t77 55.5t113.5 20h107v29q0 56 -33 90t-87 34q-51 0 -80.5 -26t-37.5 -68h-65q5 42 29.5 77.5t64.5 56.5t89 21q53 0 95 -23.5z
M323.5 91.5q41.5 40.5 41.5 102.5v43h-97q-77 0 -120 -25.5t-43 -71.5q0 -40 28 -64.5t80 -24.5q69 0 110.5 40.5zM169.5 751q-10.5 -15 -10.5 -39h-50q0 51 24.5 79t58.5 28q21 0 35.5 -9.5t31.5 -27.5q10 -11 18 -17t17 -6q14 0 24.5 15t10.5 39h50q0 -52 -25 -79.5
t-58 -27.5q-21 0 -35.5 9.5t-31.5 27.5q-10 11 -18 17t-17 6q-14 0 -24.5 -15zM115 550l102 134h60l102 -134h-68l-65 91l-65 -91h-66z" />
    <glyph glyph-name="uni1EAC" unicode="&#x1eac;" horiz-adv-x="607" 
d="M602 0h-75l-67 178h-316l-67 -178h-72l266 700h65zM436 243l-134 357l-134 -357h268zM272 -157q-13 13 -13 32q0 20 13 32.5t32 12.5q20 0 32.5 -12.5t12.5 -32.5t-13 -32.5t-32 -12.5t-32 13zM336 883l104 -128h-68l-69 85l-68 -85h-67l105 128h63z" />
    <glyph glyph-name="uni1EAD" unicode="&#x1ead;" horiz-adv-x="497" 
d="M340 486.5q42 -23.5 66 -65.5t24 -96v-325h-48l-17 68h-5q-19 -30 -58.5 -54t-95.5 -24q-50 0 -87.5 20.5t-58 54.5t-20.5 75q0 45 27.5 80.5t77 55.5t113.5 20h107v29q0 56 -33 90t-87 34q-51 0 -80.5 -26t-37.5 -68h-65q5 42 29.5 77.5t64.5 56.5t89 21q53 0 95 -23.5z
M323.5 91.5q41.5 40.5 41.5 102.5v43h-97q-77 0 -120 -25.5t-43 -71.5q0 -40 28 -64.5t80 -24.5q69 0 110.5 40.5zM218 -157q-13 13 -13 32q0 20 13 32.5t32 12.5q20 0 32.5 -12.5t12.5 -32.5t-13 -32.5t-32 -12.5t-32 13zM277 694l102 -134h-68l-65 91l-65 -91h-66l102 134
h60z" />
    <glyph glyph-name="uni1EAE" unicode="&#x1eae;" horiz-adv-x="607" 
d="M602 0h-75l-67 178h-316l-67 -178h-72l266 700h65zM436 243l-134 357l-134 -357h268zM327 869h-50l56 113h73zM209 785q-36 35 -38 84h54q4 -33 24 -51.5t55 -18.5t55 18.5t24 51.5h54q-2 -49 -38 -84t-95 -35t-95 35z" />
    <glyph glyph-name="uni1EAF" unicode="&#x1eaf;" horiz-adv-x="497" 
d="M340 486.5q42 -23.5 66 -65.5t24 -96v-325h-48l-17 68h-5q-19 -30 -58.5 -54t-95.5 -24q-50 0 -87.5 20.5t-58 54.5t-20.5 75q0 45 27.5 80.5t77 55.5t113.5 20h107v29q0 56 -33 90t-87 34q-51 0 -80.5 -26t-37.5 -68h-65q5 42 29.5 77.5t64.5 56.5t89 21q53 0 95 -23.5z
M323.5 91.5q41.5 40.5 41.5 102.5v43h-97q-77 0 -120 -25.5t-43 -71.5q0 -40 28 -64.5t80 -24.5q69 0 110.5 40.5zM270 678h-51l61 125h75zM153.5 591.5q-35.5 35.5 -37.5 86.5h54q4 -35 23.5 -54t53.5 -19t53.5 19t23.5 54h54q-2 -51 -37.5 -86.5t-93.5 -35.5t-93.5 35.5z
" />
    <glyph glyph-name="uni1EB0" unicode="&#x1eb0;" horiz-adv-x="607" 
d="M602 0h-75l-67 178h-316l-67 -178h-72l266 700h65zM436 243l-134 357l-134 -357h268zM331 869h-50l-79 113h73zM209 785q-36 35 -38 84h54q4 -33 24 -51.5t55 -18.5t55 18.5t24 51.5h54q-2 -49 -38 -84t-95 -35t-95 35z" />
    <glyph glyph-name="uni1EB1" unicode="&#x1eb1;" horiz-adv-x="497" 
d="M340 486.5q42 -23.5 66 -65.5t24 -96v-325h-48l-17 68h-5q-19 -30 -58.5 -54t-95.5 -24q-50 0 -87.5 20.5t-58 54.5t-20.5 75q0 45 27.5 80.5t77 55.5t113.5 20h107v29q0 56 -33 90t-87 34q-51 0 -80.5 -26t-37.5 -68h-65q5 42 29.5 77.5t64.5 56.5t89 21q53 0 95 -23.5z
M323.5 91.5q41.5 40.5 41.5 102.5v43h-97q-77 0 -120 -25.5t-43 -71.5q0 -40 28 -64.5t80 -24.5q69 0 110.5 40.5zM275 678h-51l-85 125h75zM153.5 591.5q-35.5 35.5 -37.5 86.5h54q4 -35 23.5 -54t53.5 -19t53.5 19t23.5 54h54q-2 -51 -37.5 -86.5t-93.5 -35.5t-93.5 35.5z
" />
    <glyph glyph-name="uni1EB2" unicode="&#x1eb2;" horiz-adv-x="607" 
d="M602 0h-75l-67 178h-316l-67 -178h-72l266 700h65zM436 243l-134 357l-134 -357h268zM279 869q23 31 23 53q0 18 -11 29t-32 11q-16 0 -31 -4v50q24 6 47 6q37 0 60 -20t23 -54q0 -20 -8 -38.5t-21 -32.5h-50zM209 785q-36 35 -38 84h54q4 -33 24 -51.5t55 -18.5t55 18.5
t24 51.5h54q-2 -49 -38 -84t-95 -35t-95 35z" />
    <glyph glyph-name="uni1EB3" unicode="&#x1eb3;" horiz-adv-x="497" 
d="M340 486.5q42 -23.5 66 -65.5t24 -96v-325h-48l-17 68h-5q-19 -30 -58.5 -54t-95.5 -24q-50 0 -87.5 20.5t-58 54.5t-20.5 75q0 45 27.5 80.5t77 55.5t113.5 20h107v29q0 56 -33 90t-87 34q-51 0 -80.5 -26t-37.5 -68h-65q5 42 29.5 77.5t64.5 56.5t89 21q53 0 95 -23.5z
M323.5 91.5q41.5 40.5 41.5 102.5v43h-97q-77 0 -120 -25.5t-43 -71.5q0 -40 28 -64.5t80 -24.5q69 0 110.5 40.5zM223 678q21 31 21 54t-12.5 35t-31.5 12q-13 0 -28 -4v48q20 6 42 6q37 0 60 -22t23 -58q0 -20 -6.5 -36t-19.5 -35h-48zM153.5 591.5q-35.5 35.5 -37.5 86.5
h54q4 -35 23.5 -54t53.5 -19t53.5 19t23.5 54h54q-2 -51 -37.5 -86.5t-93.5 -35.5t-93.5 35.5z" />
    <glyph glyph-name="uni1EB4" unicode="&#x1eb4;" horiz-adv-x="607" 
d="M602 0h-75l-67 178h-316l-67 -178h-72l266 700h65zM436 243l-134 357l-134 -357h268zM320 899.5q-15 9.5 -31 26.5q-10 11 -18 17t-17 6q-14 0 -24.5 -14.5t-10.5 -38.5h-50q0 51 24.5 78.5t58.5 27.5q21 0 36 -9.5t31 -26.5q10 -11 18 -17t17 -6q14 0 24.5 14.5
t10.5 38.5h50q0 -51 -25 -78.5t-58 -27.5q-21 0 -36 9.5zM209 785q-36 35 -38 84h54q4 -33 24 -51.5t55 -18.5t55 18.5t24 51.5h54q-2 -49 -38 -84t-95 -35t-95 35z" />
    <glyph glyph-name="uni1EB5" unicode="&#x1eb5;" horiz-adv-x="497" 
d="M340 486.5q42 -23.5 66 -65.5t24 -96v-325h-48l-17 68h-5q-19 -30 -58.5 -54t-95.5 -24q-50 0 -87.5 20.5t-58 54.5t-20.5 75q0 45 27.5 80.5t77 55.5t113.5 20h107v29q0 56 -33 90t-87 34q-51 0 -80.5 -26t-37.5 -68h-65q5 42 29.5 77.5t64.5 56.5t89 21q53 0 95 -23.5z
M323.5 91.5q41.5 40.5 41.5 102.5v43h-97q-77 0 -120 -25.5t-43 -71.5q0 -40 28 -64.5t80 -24.5q69 0 110.5 40.5zM266.5 704.5q-14.5 9.5 -31.5 27.5q-10 11 -18 17t-17 6q-14 0 -24.5 -15t-10.5 -39h-50q0 51 24.5 79t58.5 28q21 0 35.5 -9.5t31.5 -27.5q10 -11 18 -17
t17 -6q14 0 24.5 15t10.5 39h50q0 -52 -25 -79.5t-58 -27.5q-21 0 -35.5 9.5zM152.5 591.5q-35.5 35.5 -37.5 86.5h54q4 -35 23.5 -54t53.5 -19t53.5 19t23.5 54h54q-2 -51 -37.5 -86.5t-93.5 -35.5t-93.5 35.5z" />
    <glyph glyph-name="uni1EB6" unicode="&#x1eb6;" horiz-adv-x="607" 
d="M602 0h-75l-67 178h-316l-67 -178h-72l266 700h65zM436 243l-134 357l-134 -357h268zM272 -157q-13 13 -13 32q0 20 13 32.5t32 12.5q20 0 32.5 -12.5t12.5 -32.5t-13 -32.5t-32 -12.5t-32 13zM209 795q-36 35 -38 84h54q4 -33 24 -51.5t55 -18.5t55 18.5t24 51.5h54
q-2 -49 -38 -84t-95 -35t-95 35z" />
    <glyph glyph-name="uni1EB7" unicode="&#x1eb7;" horiz-adv-x="497" 
d="M340 486.5q42 -23.5 66 -65.5t24 -96v-325h-48l-17 68h-5q-19 -30 -58.5 -54t-95.5 -24q-50 0 -87.5 20.5t-58 54.5t-20.5 75q0 45 27.5 80.5t77 55.5t113.5 20h107v29q0 56 -33 90t-87 34q-51 0 -80.5 -26t-37.5 -68h-65q5 42 29.5 77.5t64.5 56.5t89 21q53 0 95 -23.5z
M323.5 91.5q41.5 40.5 41.5 102.5v43h-97q-77 0 -120 -25.5t-43 -71.5q0 -40 28 -64.5t80 -24.5q69 0 110.5 40.5zM218 -157q-13 13 -13 32q0 20 13 32.5t32 12.5q20 0 32.5 -12.5t12.5 -32.5t-13 -32.5t-32 -12.5t-32 13zM153.5 601.5q-35.5 35.5 -37.5 86.5h54
q4 -35 23.5 -54t53.5 -19t53.5 19t23.5 54h54q-2 -51 -37.5 -86.5t-93.5 -35.5t-93.5 35.5z" />
    <glyph glyph-name="uni1EB8" unicode="&#x1eb8;" horiz-adv-x="577" 
d="M159 328v-263h373v-65h-443v700h433v-65h-363v-242h325v-65h-325zM279 -157q-13 13 -13 32q0 20 13 32.5t32 12.5q20 0 32.5 -12.5t12.5 -32.5t-13 -32.5t-32 -12.5t-32 13z" />
    <glyph glyph-name="uni1EB9" unicode="&#x1eb9;" horiz-adv-x="537" 
d="M494 218h-388q8 -77 54.5 -122t115.5 -45q92 0 139 79h65q-23 -61 -79 -100.5t-127 -39.5q-66 0 -119.5 33t-84.5 92t-31 135q0 74 31.5 133.5t85.5 93t118 33.5q63 0 114.5 -32.5t80.5 -88.5t29 -124q0 -31 -4 -47zM195.5 427.5q-36.5 -21.5 -61 -61t-29.5 -89.5h327
q-5 75 -49 123.5t-109 48.5q-42 0 -78.5 -21.5zM241 -157q-13 13 -13 32q0 20 13 32.5t32 12.5q20 0 32.5 -12.5t12.5 -32.5t-13 -32.5t-32 -12.5t-32 13z" />
    <glyph glyph-name="uni1EBA" unicode="&#x1eba;" horiz-adv-x="577" 
d="M159 328v-263h373v-65h-443v700h433v-65h-363v-242h325v-65h-325zM290 752q22 31 22 61q0 21 -13.5 34t-36.5 13q-17 0 -32 -4v50q19 6 47 6q41 0 66 -22t25 -59q0 -45 -28 -79h-50z" />
    <glyph glyph-name="uni1EBB" unicode="&#x1ebb;" horiz-adv-x="537" 
d="M494 218h-388q8 -77 54.5 -122t115.5 -45q92 0 139 79h65q-23 -61 -79 -100.5t-127 -39.5q-66 0 -119.5 33t-84.5 92t-31 135q0 74 31.5 133.5t85.5 93t118 33.5q63 0 114.5 -32.5t80.5 -88.5t29 -124q0 -31 -4 -47zM195.5 427.5q-36.5 -21.5 -61 -61t-29.5 -89.5h327
q-5 75 -49 123.5t-109 48.5q-42 0 -78.5 -21.5zM252 557q23 33 23 62q0 54 -52 54q-13 0 -28 -4v48q20 6 42 6q43 0 67 -23t24 -64q0 -25 -7.5 -42.5t-20.5 -36.5h-48z" />
    <glyph glyph-name="uni1EBC" unicode="&#x1ebc;" horiz-adv-x="577" 
d="M159 328v-263h373v-65h-443v700h433v-65h-363v-242h325v-65h-325zM325 772q-16 10 -34 28q-14 13 -22.5 19t-18.5 6q-17 0 -28 -15t-11 -42h-50q0 53 25.5 81.5t61.5 28.5q23 0 39 -10t34 -28q14 -13 22.5 -19t18.5 -6q17 0 28 15t11 42h50q0 -53 -26 -81.5t-61 -28.5
q-23 0 -39 10z" />
    <glyph glyph-name="uni1EBD" unicode="&#x1ebd;" horiz-adv-x="537" 
d="M494 218h-388q8 -77 54.5 -122t115.5 -45q92 0 139 79h65q-23 -61 -79 -100.5t-127 -39.5q-66 0 -119.5 33t-84.5 92t-31 135q0 74 31.5 133.5t85.5 93t118 33.5q63 0 114.5 -32.5t80.5 -88.5t29 -124q0 -31 -4 -47zM195.5 427.5q-36.5 -21.5 -61 -61t-29.5 -89.5h327
q-5 75 -49 123.5t-109 48.5q-42 0 -78.5 -21.5zM290.5 577q-15.5 11 -33.5 31q-13 14 -21.5 20.5t-18.5 6.5q-16 0 -26.5 -16t-10.5 -47h-50q0 58 24.5 87t60.5 29q23 0 38.5 -11t33.5 -31q13 -14 21.5 -20.5t18.5 -6.5q15 0 26 16.5t11 46.5h50q0 -58 -24.5 -87t-60.5 -29
q-23 0 -38.5 11z" />
    <glyph glyph-name="uni1EBE" unicode="&#x1ebe;" horiz-adv-x="577" 
d="M159 328v-263h373v-65h-443v700h433v-65h-363v-242h325v-65h-325zM404 830l56 113h73l-79 -113h-50zM170 745l105 128h63l104 -128h-68l-69 85l-68 -85h-67z" />
    <glyph glyph-name="uni1EBF" unicode="&#x1ebf;" horiz-adv-x="537" 
d="M494 218h-388q8 -77 54.5 -122t115.5 -45q92 0 139 79h65q-23 -61 -79 -100.5t-127 -39.5q-66 0 -119.5 33t-84.5 92t-31 135q0 74 31.5 133.5t85.5 93t118 33.5q63 0 114.5 -32.5t80.5 -88.5t29 -124q0 -31 -4 -47zM195.5 427.5q-36.5 -21.5 -61 -61t-29.5 -89.5h327
q-5 75 -49 123.5t-109 48.5q-42 0 -78.5 -21.5zM368 635l61 125h75l-85 -125h-51zM140 550l102 134h60l102 -134h-68l-65 91l-65 -91h-66z" />
    <glyph glyph-name="uni1EC0" unicode="&#x1ec0;" horiz-adv-x="577" 
d="M159 328v-263h373v-65h-443v700h433v-65h-363v-242h325v-65h-325zM426 943l56 -113h-50l-79 113h73zM170 745l105 128h63l104 -128h-68l-69 85l-68 -85h-67z" />
    <glyph glyph-name="uni1EC1" unicode="&#x1ec1;" horiz-adv-x="537" 
d="M494 218h-388q8 -77 54.5 -122t115.5 -45q92 0 139 79h65q-23 -61 -79 -100.5t-127 -39.5q-66 0 -119.5 33t-84.5 92t-31 135q0 74 31.5 133.5t85.5 93t118 33.5q63 0 114.5 -32.5t80.5 -88.5t29 -124q0 -31 -4 -47zM195.5 427.5q-36.5 -21.5 -61 -61t-29.5 -89.5h327
q-5 75 -49 123.5t-109 48.5q-42 0 -78.5 -21.5zM384 760l61 -125h-51l-85 125h75zM140 550l102 134h60l102 -134h-68l-65 91l-65 -91h-66z" />
    <glyph glyph-name="uni1EC2" unicode="&#x1ec2;" horiz-adv-x="577" 
d="M159 328v-263h373v-65h-443v700h433v-65h-363v-242h325v-65h-325zM463 955q23 -20 23 -54q0 -20 -8 -38.5t-21 -32.5h-50q23 31 23 53q0 18 -11 29t-32 11q-16 0 -31 -4v50q24 6 47 6q37 0 60 -20zM170 745l105 128h63l104 -128h-68l-69 85l-68 -85h-67z" />
    <glyph glyph-name="uni1EC3" unicode="&#x1ec3;" horiz-adv-x="537" 
d="M494 218h-388q8 -77 54.5 -122t115.5 -45q92 0 139 79h65q-23 -61 -79 -100.5t-127 -39.5q-66 0 -119.5 33t-84.5 92t-31 135q0 74 31.5 133.5t85.5 93t118 33.5q63 0 114.5 -32.5t80.5 -88.5t29 -124q0 -31 -4 -47zM195.5 427.5q-36.5 -21.5 -61 -61t-29.5 -89.5h327
q-5 75 -49 123.5t-109 48.5q-42 0 -78.5 -21.5zM420 759.5q23 -21.5 23 -53.5q0 -20 -6.5 -36t-19.5 -35h-48q21 31 21 54q0 19 -12.5 30.5t-31.5 11.5q-13 0 -28 -4v48q20 6 42 6q37 0 60 -21.5zM140 550l102 134h60l102 -134h-68l-65 91l-65 -91h-66z" />
    <glyph glyph-name="uni1EC4" unicode="&#x1ec4;" horiz-adv-x="577" 
d="M159 328v-263h373v-65h-443v700h433v-65h-363v-242h325v-65h-325zM229.5 938.5q-10.5 -14.5 -10.5 -38.5h-50q0 51 24.5 78.5t58.5 27.5q21 0 36 -9.5t31 -26.5q10 -11 18 -17t17 -6q14 0 24.5 14.5t10.5 38.5h50q0 -51 -25 -78.5t-58 -27.5q-21 0 -36 9.5t-31 26.5
q-10 11 -18 17t-17 6q-14 0 -24.5 -14.5zM337 873l104 -128h-68l-69 85l-68 -85h-67l105 128h63z" />
    <glyph glyph-name="uni1EC5" unicode="&#x1ec5;" horiz-adv-x="537" 
d="M494 218h-388q8 -77 54.5 -122t115.5 -45q92 0 139 79h65q-23 -61 -79 -100.5t-127 -39.5q-66 0 -119.5 33t-84.5 92t-31 135q0 74 31.5 133.5t85.5 93t118 33.5q63 0 114.5 -32.5t80.5 -88.5t29 -124q0 -31 -4 -47zM195.5 427.5q-36.5 -21.5 -61 -61t-29.5 -89.5h327
q-5 75 -49 123.5t-109 48.5q-42 0 -78.5 -21.5zM194.5 751q-10.5 -15 -10.5 -39h-50q0 51 24.5 79t58.5 28q21 0 35.5 -9.5t31.5 -27.5q10 -11 18 -17t17 -6q14 0 24.5 15t10.5 39h50q0 -52 -25 -79.5t-58 -27.5q-21 0 -35.5 9.5t-31.5 27.5q-10 11 -18 17t-17 6
q-14 0 -24.5 -15zM140 550l102 134h60l102 -134h-68l-65 91l-65 -91h-66z" />
    <glyph glyph-name="uni1EC6" unicode="&#x1ec6;" horiz-adv-x="577" 
d="M159 328v-263h373v-65h-443v700h433v-65h-363v-242h325v-65h-325zM279 -157q-13 13 -13 32q0 20 13 32.5t32 12.5q20 0 32.5 -12.5t12.5 -32.5t-13 -32.5t-32 -12.5t-32 13zM338 883l104 -128h-68l-69 85l-68 -85h-67l105 128h63z" />
    <glyph glyph-name="uni1EC7" unicode="&#x1ec7;" horiz-adv-x="537" 
d="M494 218h-388q8 -77 54.5 -122t115.5 -45q92 0 139 79h65q-23 -61 -79 -100.5t-127 -39.5q-66 0 -119.5 33t-84.5 92t-31 135q0 74 31.5 133.5t85.5 93t118 33.5q63 0 114.5 -32.5t80.5 -88.5t29 -124q0 -31 -4 -47zM195.5 427.5q-36.5 -21.5 -61 -61t-29.5 -89.5h327
q-5 75 -49 123.5t-109 48.5q-42 0 -78.5 -21.5zM241 -157q-13 13 -13 32q0 20 13 32.5t32 12.5q20 0 32.5 -12.5t12.5 -32.5t-13 -32.5t-32 -12.5t-32 13zM302 694l102 -134h-68l-65 91l-65 -91h-66l102 134h60z" />
    <glyph glyph-name="uni1EC8" unicode="&#x1ec8;" horiz-adv-x="248" 
d="M159 0h-70v700h70v-700zM108 752q22 31 22 61q0 21 -13.5 34t-36.5 13q-17 0 -32 -4v50q19 6 47 6q41 0 66 -22t25 -59q0 -45 -28 -79h-50z" />
    <glyph glyph-name="uni1EC9" unicode="&#x1ec9;" horiz-adv-x="209" 
d="M137 0h-65v500h65v-500zM85 557q23 33 23 62q0 54 -52 54q-13 0 -28 -4v48q20 6 42 6q43 0 67 -23t24 -64q0 -25 -7.5 -42.5t-20.5 -36.5h-48z" />
    <glyph glyph-name="uni1ECA" unicode="&#x1eca;" horiz-adv-x="248" 
d="M159 0h-70v700h70v-700zM92 -157q-13 13 -13 32q0 20 13 32.5t32 12.5q20 0 32.5 -12.5t12.5 -32.5t-13 -32.5t-32 -12.5t-32 13z" />
    <glyph glyph-name="uni1ECB" unicode="&#x1ecb;" horiz-adv-x="209" 
d="M137 0h-65v500h65v-500zM73 593q-13 13 -13 32q0 20 13 32.5t32 12.5q20 0 32.5 -12.5t12.5 -32.5q0 -19 -13 -32t-32 -13t-32 13zM73 -157q-13 13 -13 32q0 20 13 32.5t32 12.5q20 0 32.5 -12.5t12.5 -32.5t-13 -32.5t-32 -12.5t-32 13z" />
    <glyph glyph-name="uni1ECC" unicode="&#x1ecc;" horiz-adv-x="737" 
d="M207.5 37q-74.5 47 -119 129.5t-44.5 183.5t44.5 183.5t119 129.5t160.5 47t161 -47t119.5 -129.5t44.5 -183.5t-44.5 -183.5t-119.5 -129.5t-161 -47t-160.5 47zM494.5 92.5q58.5 37.5 93.5 105t35 152.5t-35 152.5t-93.5 105t-126.5 37.5q-67 0 -125.5 -37.5
t-93.5 -105t-35 -152.5t35 -152.5t93.5 -105t125.5 -37.5q68 0 126.5 37.5zM336 -157q-13 13 -13 32q0 20 13 32.5t32 12.5q20 0 32.5 -12.5t12.5 -32.5t-13 -32.5t-32 -12.5t-32 13z" />
    <glyph glyph-name="uni1ECD" unicode="&#x1ecd;" horiz-adv-x="548" 
d="M156 23.5q-54 33.5 -85.5 93t-31.5 133.5t31.5 133.5t85.5 93t118 33.5t118 -33.5t85.5 -93t31.5 -133.5t-31.5 -133.5t-85.5 -93t-118 -33.5t-118 33.5zM359 76q39 25 62 70.5t23 103.5t-23 103.5t-62 70.5t-85 25t-85 -25t-62 -70.5t-23 -103.5t23 -103.5t62 -70.5
t85 -25t85 25zM242 -157q-13 13 -13 32q0 20 13 32.5t32 12.5q20 0 32.5 -12.5t12.5 -32.5t-13 -32.5t-32 -12.5t-32 13z" />
    </font>
</defs>
</svg>
