<?xml version="1.0" standalone="no"?>
<!DOCTYPE svg PUBLIC "-//W3C//DTD SVG 1.1//EN" "http://www.w3.org/Graphics/SVG/1.1/DTD/svg11.dtd" >
<svg xmlns="http://www.w3.org/2000/svg" xmlns:xlink="http://www.w3.org/1999/xlink" version="1.1">
<metadata>
Created by FontForge 20201107 at Mon Mar  6 10:17:48 2023
 By 
Copyright (c) 2018-2021 by TypeType. All rights reserved.
</metadata>
<defs>
<font id="TTCommonsProTrialVariable" horiz-adv-x="555" >
  <font-face 
    font-family="TT Commons Pro Trial Variable"
    font-weight="400"
    font-stretch="normal"
    units-per-em="1000"
    panose-1="2 11 1 3 3 1 2 2 2 4"
    ascent="800"
    descent="-200"
    x-height="500"
    cap-height="700"
    bbox="-394 -355 1438 1057"
    underline-thickness="50"
    underline-position="-230"
    unicode-range="U+0020-FB06"
  />
<missing-glyph horiz-adv-x="900" 
d="M100 284h45v-139h33v139h50v31h-128v126l19 -61h23l34 106l33 -106h23l54 170h-32l-34 -110l-35 110h-19l-35 -110l-31 103v157h700v-150h-110v-170h110v-91q-6 13 -19.5 20t-30.5 7q-27 0 -43.5 -14.5t-16.5 -34.5q0 -22 14.5 -32.5t39.5 -17.5q17 -5 25.5 -9.5
t8.5 -13.5q0 -21 -28 -21q-14 0 -21 7t-7 18h-33q0 -24 17 -39.5t44 -15.5q17 0 30.5 6.5t19.5 13.5v-163h-700v284zM328 143q37 0 59.5 24.5t22.5 61.5t-23 62t-59 25t-59 -25t-23 -62t22.5 -61.5t59.5 -24.5zM328 174q-22 0 -36.5 16t-14.5 39q0 25 14 40.5t37 15.5
q24 0 37.5 -15.5t13.5 -40.5q0 -23 -14.5 -39t-36.5 -16zM549 315h-32v-106q0 -28 19.5 -47t48.5 -19t48 19t19 47v106h-32v-106q0 -15 -9.5 -25t-25.5 -10q-17 0 -26.5 10.5t-9.5 24.5v106zM344 380v62h24l35 -62h37l-40 67q36 17 36 50q0 22 -16 37.5t-41 15.5h-68v-170
h33zM379 519q10 0 17 -6.5t7 -16.5q0 -12 -7.5 -17.5t-16.5 -5.5h-35v46h35zM502 380v170h-33v-170h33zM800 224q-15 14 -46 22q-16 5 -23 9t-7 12q0 9 7.5 14.5t18.5 5.5q10 0 18 -7t8 -18h24v-38zM612 380v139h50v31h-132v-31h50v-139h32zM722 452h78v-41h-78v41zM722 519
h78v-36h-78v36z" />
    <glyph glyph-name="f_f.liga" unicode="ff" horiz-adv-x="549" 
d="M355 550q0 74 39 117t99 43q14 0 25 -2.5t19 -5.5v-59q-8 3 -16.5 4.5t-17.5 1.5q-39 0 -61 -24.5t-22 -73.5v-77v-10v-464h-65v550zM100 530q0 74 39 117t99 43q14 0 25 -2.5t19 -5.5v-59q-8 3 -16.5 4.5t-17.5 1.5q-39 0 -61 -24.5t-22 -74.5v-56v-10v-464h-65v530z
M28 439v61h509v-61h-509z" />
    <glyph glyph-name="fi.liga" unicode="fi" horiz-adv-x="487" 
d="M100 514q0 61 25 105t70 67.5t104 23.5q26 0 46.5 -4t41.5 -14v-59q-20 8 -43.5 12t-44.5 4q-41 0 -71 -15t-46.5 -45.5t-16.5 -74.5v-40v-10v-464h-65v514zM355 0v439h-327v61h392v-500h-65z" />
    <glyph glyph-name="fl.liga" unicode="fl" horiz-adv-x="497" 
d="M100 514q0 61 24.5 105t68.5 67.5t101 23.5q34 0 67.5 -6t58.5 -18v-686h-65v653l14 -15q-12 5 -33.5 8t-41.5 3q-58 0 -93.5 -35t-35.5 -100v-39v-10v-465h-65v514zM28 439v61h254v-61h-254z" />
    <glyph glyph-name="f_f_i.liga" unicode="ffi" horiz-adv-x="742" 
d="M610 0v439h-582v61h647v-500h-65zM100 530q0 74 39 117t99 43q14 0 25 -2.5t19 -5.5v-59q-8 3 -16.5 4.5t-17.5 1.5q-39 0 -61 -24.5t-22 -74.5v-56v-10v-464h-65v530zM355 514q0 61 25 105t70 67.5t104 23.5q26 0 46.5 -4t41.5 -14v-59q-20 8 -43.5 12t-44.5 4
q-41 0 -71 -15t-46.5 -45.5t-16.5 -74.5v-40v-10v-464h-65v514z" />
    <glyph glyph-name="f_f_l.liga" unicode="ffl" horiz-adv-x="752" 
d="M355 514q0 61 24.5 105t68.5 67.5t101 23.5q34 0 67.5 -6t58.5 -18v-686h-65v653l14 -15q-12 5 -33.5 8t-41.5 3q-58 0 -93.5 -35t-35.5 -100v-39v-10v-465h-65v514zM100 530q0 74 39 117t99 43q14 0 25 -2.5t19 -5.5v-59q-8 3 -16.5 4.5t-17.5 1.5q-39 0 -61 -24.5
t-22 -74.5v-56v-10v-464h-65v530zM28 439v61h509v-61h-509z" />
    <glyph glyph-name="f_f_j.liga" unicode="ffj" horiz-adv-x="742" 
d="M537 -185q-14 0 -25 2.5t-19 5.5v59q17 -6 34 -6q39 0 61 24.5t22 73.5v465h-582v61h647v-526q0 -74 -38.5 -116.5t-99.5 -42.5zM100 530q0 74 39 117t99 43q14 0 25 -2.5t19 -5.5v-59q-8 3 -16.5 4.5t-17.5 1.5q-39 0 -61 -24.5t-22 -74.5v-56v-10v-464h-65v530z
M355 514q0 61 25 105t70 67.5t104 23.5q26 0 46.5 -4t41.5 -14v-59q-20 8 -43.5 12t-44.5 4q-41 0 -71 -15t-46.5 -45.5t-16.5 -74.5v-40v-10v-464h-65v514z" />
    <glyph glyph-name="f_j.liga" unicode="fj" horiz-adv-x="487" 
d="M282 -185q-14 0 -25 2.5t-19 5.5v59q17 -6 34 -6q39 0 61 24.5t22 73.5v465h-327v61h392v-526q0 -74 -38.5 -116.5t-99.5 -42.5zM100 514q0 61 25 105t70 67.5t104 23.5q26 0 46.5 -4t41.5 -14v-59q-20 8 -43.5 12t-44.5 4q-41 0 -71 -15t-46.5 -45.5t-16.5 -74.5v-40
v-10v-464h-65v514z" />
    <glyph glyph-name=".notdef" horiz-adv-x="900" 
d="M100 284h45v-139h33v139h50v31h-128v126l19 -61h23l34 106l33 -106h23l54 170h-32l-34 -110l-35 110h-19l-35 -110l-31 103v157h700v-150h-110v-170h110v-91q-6 13 -19.5 20t-30.5 7q-27 0 -43.5 -14.5t-16.5 -34.5q0 -22 14.5 -32.5t39.5 -17.5q17 -5 25.5 -9.5
t8.5 -13.5q0 -21 -28 -21q-14 0 -21 7t-7 18h-33q0 -24 17 -39.5t44 -15.5q17 0 30.5 6.5t19.5 13.5v-163h-700v284zM328 143q37 0 59.5 24.5t22.5 61.5t-23 62t-59 25t-59 -25t-23 -62t22.5 -61.5t59.5 -24.5zM328 174q-22 0 -36.5 16t-14.5 39q0 25 14 40.5t37 15.5
q24 0 37.5 -15.5t13.5 -40.5q0 -23 -14.5 -39t-36.5 -16zM549 315h-32v-106q0 -28 19.5 -47t48.5 -19t48 19t19 47v106h-32v-106q0 -15 -9.5 -25t-25.5 -10q-17 0 -26.5 10.5t-9.5 24.5v106zM344 380v62h24l35 -62h37l-40 67q36 17 36 50q0 22 -16 37.5t-41 15.5h-68v-170
h33zM379 519q10 0 17 -6.5t7 -16.5q0 -12 -7.5 -17.5t-16.5 -5.5h-35v46h35zM502 380v170h-33v-170h33zM800 224q-15 14 -46 22q-16 5 -23 9t-7 12q0 9 7.5 14.5t18.5 5.5q10 0 18 -7t8 -18h24v-38zM612 380v139h50v31h-132v-31h50v-139h32zM722 452h78v-41h-78v41zM722 519
h78v-36h-78v36z" />
    <glyph glyph-name=".null" horiz-adv-x="0" 
 />
    <glyph glyph-name="nonmarkingreturn" horiz-adv-x="0" 
 />
    <glyph glyph-name="space" unicode=" " horiz-adv-x="238" 
 />
    <glyph glyph-name="exclam" unicode="!" horiz-adv-x="282" 
d="M115 175l-16 525h84l-16 -525h-52zM141 -10q-22 0 -37 15t-15 37q0 14 7 26t19 19t26 7q22 0 37 -15t15 -37q0 -14 -7 -26t-19 -19t-26 -7z" />
    <glyph glyph-name="quotedbl" unicode="&#x22;" horiz-adv-x="306" 
d="M52 480v220h59v-220h-59zM195 480v220h59v-220h-59z" />
    <glyph glyph-name="numbersign" unicode="#" horiz-adv-x="673" 
d="M346 0l146 700h68l-147 -700h-67zM25 204l16 62h561l-16 -62h-561zM114 0l146 700h68l-147 -700h-67zM72 434l15 62h561l-16 -62h-560z" />
    <glyph glyph-name="dollar" unicode="$" horiz-adv-x="554" 
d="M279 -10q-70 0 -121.5 27t-80.5 75.5t-33 111.5h70q3 -47 24 -80.5t57 -51t85 -17.5q50 0 85 16t52.5 44t17.5 65q0 43 -23 70t-56.5 43t-91.5 36q-66 22 -106.5 42t-68.5 57t-28 97q0 53 25.5 95t73.5 66t113 24q66 0 115 -27t76 -74.5t30 -107.5h-70q-2 43 -21.5 75.5
t-53 50.5t-76.5 18q-44 0 -76.5 -15.5t-49 -42.5t-16.5 -62q0 -40 22 -65.5t54 -40t89 -33.5q67 -21 109 -41.5t71 -60.5t29 -104q0 -56 -26 -99t-77 -67t-123 -24zM242 -105v118h70v-118h-70zM242 686v119h70v-119h-70z" />
    <glyph glyph-name="percent" unicode="%" horiz-adv-x="687" 
d="M98 0l424 700h67l-424 -700h-67zM508 -10q-39 0 -72.5 19t-53.5 53t-20 77t20 77t53.5 53t72.5 19t72.5 -19t53.5 -53t20 -77t-20 -77t-53.5 -53t-72.5 -19zM508 40q24 0 45.5 12t34 34.5t12.5 52.5q0 45 -27 72t-65 27q-24 0 -45.5 -12t-34 -34.5t-12.5 -52.5
q0 -45 27 -72t65 -27zM179 412q-39 0 -72.5 19t-53.5 53t-20 77t20 77t53.5 53t72.5 19t72.5 -19t53.5 -53t20 -77t-20 -77t-53.5 -53t-72.5 -19zM179 462q24 0 45.5 12t34 34.5t12.5 52.5q0 45 -27 72t-65 27q-24 0 -45.5 -12t-34 -34.5t-12.5 -52.5q0 -45 27 -72t65 -27z
" />
    <glyph glyph-name="ampersand" unicode="&#x26;" horiz-adv-x="577" 
d="M170 386q-30 34 -48 62t-26.5 53t-8.5 51q0 45 20 81t55.5 56.5t79.5 20.5q42 0 78 -21t57 -57.5t21 -79.5q0 -26 -10 -53t-29 -53t-45 -50l-54 -49l-43 47l46 42q32 29 48.5 58t16.5 58q0 27 -11 48t-30.5 33t-44.5 12t-44 -12t-30 -33t-11 -48q0 -30 18.5 -61.5
t65.5 -84.5l361 -406h-92zM228 -10q-53 0 -94.5 21t-65 58t-23.5 85q0 39 13.5 73.5t39 65t62.5 60.5l32 25l45 -47l-31 -24q-31 -24 -51 -46.5t-30 -47.5t-10 -55q0 -32 14 -55t39.5 -35.5t59.5 -12.5q46 0 86.5 27.5t80.5 79.5l45 -46q-29 -39 -62.5 -67.5t-71 -43.5
t-78.5 -15zM459 140l-47 44l94 135h75z" />
    <glyph glyph-name="quotesingle" unicode="'" horiz-adv-x="163" 
d="M52 480v220h59v-220h-59z" />
    <glyph glyph-name="parenleft" unicode="(" horiz-adv-x="295" 
d="M217 -214q-49 66 -100.5 188t-51.5 276q0 108 28.5 204t62.5 160t61 100l48 -32q-22 -34 -51.5 -95t-55 -151t-25.5 -186t25 -186t55.5 -152.5t51.5 -93.5z" />
    <glyph glyph-name="parenright" unicode=")" horiz-adv-x="295" 
d="M30 -182q21 31 51.5 93.5t55.5 152.5t25 186t-25.5 186t-55 151t-51.5 95l48 32q49 -66 100.5 -188t51.5 -276q0 -108 -28.5 -204t-62.5 -160t-61 -100z" />
    <glyph glyph-name="asterisk" unicode="*" horiz-adv-x="359" 
d="M112 391l-47 34l90 116l5 -16l-130 33l19 55l134 -55l-25 -10l-7 152h57l-7 -152l-24 10l133 55l19 -55l-130 -33l5 16l90 -116l-47 -34l-80 135h25z" />
    <glyph glyph-name="plus" unicode="+" horiz-adv-x="570" 
d="M253 141v189h-179v61h179v189h65v-189h179v-61h-179v-189h-65z" />
    <glyph glyph-name="comma" unicode="," horiz-adv-x="182" 
d="M44 -113q16 21 29 50.5t13 67.5l21 -12q-6 -3 -16 -3q-22 0 -37 15t-15 37t15 37t37 15t37 -16t15 -44q0 -35 -14 -68t-32.5 -58.5t-35.5 -42.5z" />
    <glyph glyph-name="hyphen" unicode="-" horiz-adv-x="390" 
d="M39 234v63h312v-63h-312z" />
    <glyph glyph-name="period" unicode="." horiz-adv-x="182" 
d="M91 -10q-22 0 -37 15t-15 37q0 14 7 26t19 19t26 7q22 0 37 -15t15 -37q0 -14 -7 -26t-19 -19t-26 -7z" />
    <glyph glyph-name="slash" unicode="/" horiz-adv-x="350" 
d="M0 -200l288 900h62l-288 -900h-62z" />
    <glyph glyph-name="zero" unicode="0" horiz-adv-x="598" 
d="M299 -10q-70 0 -128 41t-92.5 122.5t-34.5 196.5t34.5 196.5t92.5 122.5t128 41t128 -41t92.5 -122.5t34.5 -196.5t-34.5 -196.5t-92.5 -122.5t-128 -41zM299 55q51 0 93 31.5t67 98t25 165.5t-25 165.5t-67 98t-93 31.5t-93 -31.5t-67 -98t-25 -165.5t25 -165.5t67 -98
t93 -31.5z" />
    <glyph glyph-name="one" unicode="1" horiz-adv-x="330" 
d="M171 0v653l34 -18l-148 -106l-33 53l166 118h51v-700h-70z" />
    <glyph glyph-name="two" unicode="2" horiz-adv-x="529" 
d="M40 0v58l271 278q31 31 51 56t33.5 55.5t13.5 65.5q0 39 -18 68.5t-52 46.5t-80 17q-69 0 -111 -40.5t-45 -103.5h-70q2 58 31 105.5t79.5 75.5t115.5 28q64 0 114.5 -26.5t78 -71.5t27.5 -99q0 -41 -16 -79t-41.5 -71.5t-61.5 -69.5l-254 -259l-13 31h386v-65h-439z" />
    <glyph glyph-name="three" unicode="3" horiz-adv-x="532" 
d="M262 -10q-66 0 -116 26t-80 69t-38 93h70q5 -31 26 -59t56.5 -46t81.5 -18q47 0 82 17t54.5 47t19.5 68q0 39 -19.5 70t-56 49t-84.5 18h-38v63h33q45 0 78.5 16t51.5 45t18 65q0 38 -17.5 68t-50 47t-76.5 17q-39 0 -71 -17t-50.5 -45.5t-21.5 -59.5h-70q4 49 32.5 92
t75.5 69t105 26q62 0 111 -26.5t76 -71.5t27 -99q0 -45 -22 -78t-50.5 -51.5t-59.5 -31.5v16q37 -12 70 -32.5t56 -57.5t23 -91q0 -52 -29 -97.5t-80.5 -72.5t-116.5 -27z" />
    <glyph glyph-name="four" unicode="4" horiz-adv-x="534" 
d="M347 0v184v10v439h19l-273 -429l-9 17h411v-65h-472v59l308 485h86v-700h-70z" />
    <glyph glyph-name="five" unicode="5" horiz-adv-x="551" 
d="M273 -10q-62 0 -110.5 26.5t-78 69.5t-36.5 92h70q4 -29 24.5 -57.5t54.5 -47t76 -18.5q46 0 84 21.5t59.5 60.5t21.5 88q0 50 -21.5 89.5t-59.5 61t-84 21.5q-59 0 -93.5 -30t-51.5 -66h-64l44 399h350v-65h-334l48 43l-33 -290h-12q8 15 30.5 32.5t55.5 29.5t70 12
q63 0 114 -30t81 -84t30 -123q0 -68 -30.5 -121.5t-84 -83.5t-120.5 -30z" />
    <glyph glyph-name="six" unicode="6" horiz-adv-x="549" 
d="M276 -10q-64 0 -117.5 31t-85 85t-31.5 120q0 39 9.5 72t22 57.5t28.5 47.5l200 297h76l-183 -268l1 16q10 7 32 13t48 6q64 0 117.5 -31.5t85 -86.5t31.5 -123q0 -66 -31.5 -120t-85 -85t-117.5 -31zM276 55q46 0 83.5 21.5t59 61.5t21.5 91t-21.5 90.5t-59 61
t-83.5 21.5t-83.5 -21.5t-59 -61t-21.5 -90.5t21.5 -91t59 -61.5t83.5 -21.5z" />
    <glyph glyph-name="seven" unicode="7" horiz-adv-x="489" 
d="M104 0l277 653l12 -18h-368v65h429v-50l-275 -650h-75z" />
    <glyph glyph-name="eight" unicode="8" horiz-adv-x="556" 
d="M278 -10q-70 0 -123.5 28t-82 75.5t-28.5 104.5q0 54 24 93t56 61t58 30v-19q-24 12 -48.5 32t-43 52.5t-18.5 76.5q0 51 26 93.5t73 67.5t107 25t107 -25t73 -67.5t26 -93.5q0 -44 -18.5 -76.5t-43 -52.5t-48.5 -32v19q26 -8 58 -30t56 -61t24 -93q0 -57 -28.5 -104.5
t-82 -75.5t-123.5 -28zM278 55q50 0 87.5 19t57 51.5t19.5 72.5q0 39 -20 71.5t-57 51t-87 18.5t-87 -18.5t-57 -51t-20 -71.5q0 -40 19.5 -72.5t57 -51.5t87.5 -19zM278 404q41 0 71.5 15.5t47.5 43t17 61.5t-17 62t-47.5 43.5t-71.5 15.5t-71.5 -15.5t-47.5 -43.5t-17 -62
t17 -61.5t47.5 -43t71.5 -15.5z" />
    <glyph glyph-name="nine" unicode="9" horiz-adv-x="549" 
d="M171 0l183 268l-1 -16q-10 -7 -32 -13t-48 -6q-64 0 -117.5 31.5t-85 86.5t-31.5 123q0 66 31.5 120t85 85t117.5 31t117.5 -31t85 -85t31.5 -120q0 -39 -9.5 -72t-22 -57.5t-28.5 -47.5l-200 -297h-76zM273 298q46 0 83.5 21.5t59 61t21.5 90.5t-21.5 91t-59 61.5
t-83.5 21.5t-83.5 -21.5t-59 -61.5t-21.5 -91t21.5 -90.5t59 -61t83.5 -21.5z" />
    <glyph glyph-name="colon" unicode=":" horiz-adv-x="182" 
d="M91 -10q-22 0 -37 15t-15 37q0 14 7 26t19 19t26 7q22 0 37 -15t15 -37q0 -14 -7 -26t-19 -19t-26 -7zM91 396q-22 0 -37 15t-15 37q0 14 7 26t19 19t26 7q22 0 37 -15t15 -37q0 -14 -7 -26t-19 -19t-26 -7z" />
    <glyph glyph-name="semicolon" unicode=";" horiz-adv-x="182" 
d="M44 -113q16 21 29 50.5t13 67.5l21 -12q-6 -3 -16 -3q-22 0 -37 15t-15 37t15 37t37 15t37 -16t15 -44q0 -35 -14 -68t-32.5 -58.5t-35.5 -42.5zM91 396q-22 0 -37 15t-15 37q0 14 7 26t19 19t26 7q22 0 37 -15t15 -37q0 -14 -7 -26t-19 -19t-26 -7z" />
    <glyph glyph-name="less" unicode="&#x3c;" horiz-adv-x="570" 
d="M470 139l-384 200v43l384 199v-67l-344 -173v39l344 -174v-67z" />
    <glyph glyph-name="equal" unicode="=" horiz-adv-x="570" 
d="M74 433v61h423v-61h-423zM74 226v61h423v-61h-423z" />
    <glyph glyph-name="greater" unicode="&#x3e;" horiz-adv-x="570" 
d="M100 139v67l344 173v-39l-344 174v67l384 -200v-43z" />
    <glyph glyph-name="question" unicode="?" horiz-adv-x="473" 
d="M192 189q0 50 13 86t31.5 59t48.5 52q25 23 39.5 40.5t24 41.5t9.5 56q0 35 -15 62.5t-42.5 43t-63.5 15.5q-59 0 -95.5 -41.5t-36.5 -108.5v-13h-70v13q0 61 26.5 110t72.5 77t103 28q54 0 97.5 -25t68.5 -67.5t25 -93.5q0 -41 -11.5 -71t-27.5 -50t-44 -48
q-27 -25 -44 -45.5t-28 -50t-11 -70.5v-14h-70v14zM228 -10q-22 0 -37 15t-15 37q0 14 7 26t19 19t26 7q22 0 37 -15.5t15 -36.5q0 -14 -7 -26t-19 -19t-26 -7z" />
    <glyph glyph-name="at" unicode="@" horiz-adv-x="821" 
d="M415 -120q-102 0 -187 48t-134.5 132.5t-49.5 189.5q0 104 49.5 188.5t134 133t186.5 48.5q101 0 186.5 -48t135 -130.5t49.5 -180.5q0 -63 -20 -108t-54 -68.5t-75 -23.5q-33 0 -56.5 14t-36 30t-17.5 27h-5q-6 -11 -22 -27t-44 -30t-64 -14q-43 0 -80.5 23.5
t-60.5 66.5t-23 98t23 98t60.5 66.5t80.5 23.5q48 0 77 -22t42 -44h5l18 61h37v-222q0 -48 18 -70.5t48 -22.5q25 0 45 15t32 47.5t12 81.5q0 83 -42 153t-113.5 110.5t-155.5 40.5t-155 -41t-113 -113t-42 -161t41.5 -161t113 -113t156.5 -41q57 0 98 14t65 32l28 -48
q-17 -12 -44.5 -24t-65.5 -20.5t-81 -8.5zM399 116q31 0 56.5 16.5t40 47t14.5 69.5q0 40 -14.5 70t-40 46.5t-56.5 16.5t-56.5 -16.5t-40.5 -47t-15 -69.5q0 -59 32.5 -96t79.5 -37z" />
    <glyph glyph-name="A" unicode="A" horiz-adv-x="607" 
d="M5 0l266 700h65l266 -700h-75l-75 200l-9 24l-153 408h24l-153 -408l-9 -24l-75 -200h-72zM119 178l26 65h318l26 -65h-370z" />
    <glyph glyph-name="B" unicode="B" horiz-adv-x="614" 
d="M89 0v700h249q60 0 106.5 -24t72 -65.5t25.5 -91.5q0 -43 -18 -74t-43.5 -48.5t-51.5 -24.5v7q27 -6 59.5 -26t57 -58.5t24.5 -92.5q0 -58 -28 -104t-78 -72t-115 -26h-260zM349 65q44 0 78.5 18t53.5 49t19 70t-19 70t-53.5 49t-78.5 18h-206v63h195q41 0 71.5 14.5
t46.5 41t16 61.5q0 52 -36 84t-98 32h-179v-570h190z" />
    <glyph glyph-name="C" unicode="C" horiz-adv-x="704" 
d="M368 -10q-86 0 -160.5 47t-119 129.5t-44.5 183.5t44.5 183.5t119 129.5t160.5 47q70 0 130.5 -32t102.5 -87.5t59 -124.5h-70q-17 51 -47.5 91.5t-75 64t-99.5 23.5q-67 0 -125.5 -37.5t-93.5 -105t-35 -152.5t35 -152.5t93.5 -105t125.5 -37.5q84 0 142.5 50t84.5 129
h70q-17 -69 -59.5 -124.5t-104 -87.5t-133.5 -32z" />
    <glyph glyph-name="D" unicode="D" horiz-adv-x="654" 
d="M89 0v700h178q95 0 173.5 -45t124 -125t45.5 -180t-45.5 -180t-124 -125t-173.5 -45h-178zM267 65q74 0 136.5 37t99.5 102t37 146t-37 146t-99.5 102t-136.5 37h-108v-570h108z" />
    <glyph glyph-name="E" unicode="E" horiz-adv-x="577" 
d="M89 0v700h433v-65h-363v-570h373v-65h-443zM133 328v65h351v-65h-351z" />
    <glyph glyph-name="F" unicode="F" horiz-adv-x="554" 
d="M89 0v700h425v-65h-355v-635h-70zM143 318v65h325v-65h-325z" />
    <glyph glyph-name="G" unicode="G" horiz-adv-x="743" 
d="M368 -10q-86 0 -160.5 47t-119 129.5t-44.5 183.5t44.5 183.5t119 129.5t160.5 47q69 0 130.5 -29.5t104 -81t57.5 -113.5h-70q-26 70 -83 114.5t-139 44.5q-67 0 -125.5 -37.5t-93.5 -105t-35 -152.5t35 -152.5t93.5 -105t125.5 -37.5q65 0 118.5 30.5t84 84.5t30.5 122
l14 -13h-224v63h280v-342h-49l-22 156h30q-16 -40 -52.5 -78t-90.5 -63t-119 -25z" />
    <glyph glyph-name="H" unicode="H" horiz-adv-x="680" 
d="M521 0v700h70v-700h-70zM89 0v700h70v-700h-70zM143 325v65h394v-65h-394z" />
    <glyph glyph-name="I" unicode="I" horiz-adv-x="248" 
d="M89 0v700h70v-700h-70z" />
    <glyph glyph-name="J" unicode="J" horiz-adv-x="525" 
d="M230 -10q-62 0 -110.5 27.5t-75.5 73t-27 98.5h70q0 -34 18.5 -65t51 -50t73.5 -19q42 0 74 18.5t49.5 51.5t17.5 76v499h70v-499q0 -62 -26 -110t-74 -74.5t-111 -26.5z" />
    <glyph glyph-name="K" unicode="K" horiz-adv-x="550" 
d="M468 0l-309 355l299 345h84l-314 -358v34l330 -376h-90zM89 0v700h70v-700h-70z" />
    <glyph glyph-name="L" unicode="L" horiz-adv-x="513" 
d="M89 0v700h70v-635h344v-65h-414z" />
    <glyph glyph-name="M" unicode="M" horiz-adv-x="830" 
d="M89 0v700h65l276 -628h-30l277 628h64v-700h-70v565h18l-251 -565h-47l-250 565h18v-565h-70z" />
    <glyph glyph-name="N" unicode="N" horiz-adv-x="690" 
d="M89 0v700h66l387 -588h-11v588h70v-700h-66l-387 588h11v-588h-70z" />
    <glyph glyph-name="O" unicode="O" horiz-adv-x="737" 
d="M368 -10q-86 0 -160.5 47t-119 129.5t-44.5 183.5t44.5 183.5t119 129.5t160.5 47t161 -47t119.5 -129.5t44.5 -183.5t-44.5 -183.5t-119.5 -129.5t-161 -47zM368 55q68 0 126.5 37.5t93.5 105t35 152.5t-35 152.5t-93.5 105t-126.5 37.5q-67 0 -125.5 -37.5t-93.5 -105
t-35 -152.5t35 -152.5t93.5 -105t125.5 -37.5z" />
    <glyph glyph-name="P" unicode="P" horiz-adv-x="581" 
d="M89 0v700h222q62 0 113.5 -29t81.5 -78.5t30 -108.5q0 -60 -30 -109.5t-81.5 -78.5t-113.5 -29h-168v65h168q44 0 79.5 19.5t55.5 54.5t20 78t-20 77.5t-55.5 54t-79.5 19.5h-152v-330v-10v-295h-70z" />
    <glyph glyph-name="Q" unicode="Q" horiz-adv-x="737" 
d="M625 -15l-224 220l43 45l224 -220zM368 -10q-86 0 -160.5 47t-119 129.5t-44.5 183.5t44.5 183.5t119 129.5t160.5 47t161 -47t119.5 -129.5t44.5 -183.5t-44.5 -183.5t-119.5 -129.5t-161 -47zM368 55q68 0 126.5 37.5t93.5 105t35 152.5t-35 152.5t-93.5 105
t-126.5 37.5q-67 0 -125.5 -37.5t-93.5 -105t-35 -152.5t35 -152.5t93.5 -105t125.5 -37.5z" />
    <glyph glyph-name="R" unicode="R" horiz-adv-x="607" 
d="M89 0v700h244q62 0 111.5 -27.5t78 -74.5t28.5 -103q0 -57 -29.5 -102.5t-81 -71.5t-115.5 -26h-182v65h190q43 0 77 18t52.5 48.5t18.5 68.5q0 40 -18.5 72t-52.5 50t-77 18h-174v-302v-10v-323h-70zM481 0l-179 315h78l182 -315h-81z" />
    <glyph glyph-name="S" unicode="S" horiz-adv-x="554" 
d="M279 -10q-70 0 -121.5 27t-80.5 75.5t-33 111.5h70q3 -47 24 -80.5t57 -51t85 -17.5q50 0 85 16t52.5 44t17.5 65q0 43 -23 70t-56.5 43t-91.5 36q-66 22 -106.5 42t-68.5 57t-28 97q0 53 25.5 95t73.5 66t113 24q66 0 115 -27t76 -74.5t30 -107.5h-70q-2 43 -21.5 75.5
t-53 50.5t-76.5 18q-44 0 -76.5 -15.5t-49 -42.5t-16.5 -62q0 -40 22 -65.5t54 -40t89 -33.5q67 -21 109 -41.5t71 -60.5t29 -104q0 -56 -26 -99t-77 -67t-123 -24z" />
    <glyph glyph-name="T" unicode="T" horiz-adv-x="536" 
d="M233 0v635h-216v65h502v-65h-216v-635h-70z" />
    <glyph glyph-name="U" unicode="U" horiz-adv-x="668" 
d="M334 -10q-74 0 -131 33t-88 92.5t-31 135.5v449h70v-449q0 -60 22.5 -104t63 -68t94.5 -24q81 0 130.5 53t49.5 143v449h70v-449q0 -76 -31.5 -135.5t-88 -92.5t-130.5 -33z" />
    <glyph glyph-name="V" unicode="V" horiz-adv-x="610" 
d="M267 0l-255 700h75l228 -634h-16l228 634h71l-256 -700h-75z" />
    <glyph glyph-name="W" unicode="W" horiz-adv-x="864" 
d="M222 0l-210 700h73l175 -599h-23l170 599h50l173 -599h-23l175 599h70l-210 -700h-51l-171 587h22l-169 -587h-51z" />
    <glyph glyph-name="X" unicode="X" horiz-adv-x="571" 
d="M15 0l230 355l-219 345h80l192 -305h-22l191 305h78l-220 -345l231 -355h-82l-201 315h22l-203 -315h-77z" />
    <glyph glyph-name="Y" unicode="Y" horiz-adv-x="534" 
d="M232 0v274l-230 426h76l199 -372h-17l199 372h73l-230 -426v-274h-70z" />
    <glyph glyph-name="Z" unicode="Z" horiz-adv-x="543" 
d="M39 0v43l374 609l10 -17h-373v65h441v-43l-374 -609l-9 17h396v-65h-465z" />
    <glyph glyph-name="bracketleft" unicode="[" horiz-adv-x="306" 
d="M89 -200v900h192v-61h-127v-778h127v-61h-192z" />
    <glyph glyph-name="backslash" unicode="\" horiz-adv-x="350" 
d="M288 -200l-288 900h62l288 -900h-62z" />
    <glyph glyph-name="bracketright" unicode="]" horiz-adv-x="306" 
d="M25 -200v61h127v778h-127v61h192v-900h-192z" />
    <glyph glyph-name="asciicircum" unicode="^" horiz-adv-x="403" 
d="M35 385l148 315h37l148 -315h-62l-115 249h19l-115 -249h-60z" />
    <glyph glyph-name="underscore" unicode="_" horiz-adv-x="297" 
d="M-20 -180v61h337v-61h-337z" />
    <glyph glyph-name="grave" unicode="`" horiz-adv-x="202" 
d="M121 560l-91 134h75l67 -134h-51z" />
    <glyph glyph-name="a" unicode="a" horiz-adv-x="497" 
d="M206 -10q-50 0 -87.5 20.5t-58 54.5t-20.5 75q0 45 27.5 80.5t77 55.5t113.5 20h123v-59h-113q-77 0 -120 -25.5t-43 -71.5q0 -40 28 -64.5t80 -24.5q46 0 80.5 18.5t53 51t18.5 73.5v131q0 37 -15 65t-42.5 43.5t-62.5 15.5q-51 0 -80.5 -26t-37.5 -68h-65
q5 42 29.5 77.5t64.5 56.5t89 21q53 0 95 -23.5t66 -65.5t24 -96v-325h-48l-17 68h-5q-19 -30 -58.5 -54t-95.5 -24z" />
    <glyph glyph-name="b" unicode="b" horiz-adv-x="576" 
d="M307 -10q-38 0 -71.5 14t-56 32t-32.5 32h-5l-17 -68h-48v700h65v-268h5q9 14 32 32t56.5 32t71.5 14q63 0 115.5 -33t83.5 -92.5t31 -134.5t-31 -134.5t-83.5 -92.5t-115.5 -33zM307 51q45 0 83 25t60 70.5t22 103.5t-22 103.5t-60 70.5t-83 25t-83 -25t-60 -70.5
t-22 -103.5t22 -103.5t60 -70.5t83 -25z" />
    <glyph glyph-name="c" unicode="c" horiz-adv-x="526" 
d="M274 -10q-64 0 -118 33.5t-85.5 93t-31.5 133.5t31.5 133.5t85.5 93t118 33.5q56 0 102 -25.5t76 -68.5t40 -93h-65q-11 38 -32 66t-51.5 44t-69.5 16q-46 0 -85 -25t-62 -70.5t-23 -103.5t23 -103.5t62 -70.5t85 -25q39 0 69.5 15.5t51.5 44t32 66.5h65
q-10 -50 -40 -92.5t-76.5 -68.5t-101.5 -26z" />
    <glyph glyph-name="d" unicode="d" horiz-adv-x="576" 
d="M269 -10q-63 0 -115.5 33t-83.5 92.5t-31 134.5t31 134.5t83.5 92.5t115.5 33q38 0 71.5 -14t56.5 -32t32 -32h5v268h65v-700h-48l-17 68h-5q-10 -14 -32.5 -32t-56 -32t-71.5 -14zM269 51q45 0 83 25t60 70.5t22 103.5t-22 103.5t-60 70.5t-83 25t-83 -25t-60 -70.5
t-22 -103.5t22 -103.5t60 -70.5t83 -25z" />
    <glyph glyph-name="e" unicode="e" horiz-adv-x="537" 
d="M274 -10q-66 0 -119.5 33t-84.5 92t-31 135q0 74 31.5 133.5t85.5 93t118 33.5q63 0 114.5 -32.5t80.5 -88.5t29 -124q0 -14 -1 -25.5t-3 -21.5h-405v59h364l-25 -52q3 10 4 18t1 17q0 54 -20.5 97t-57 67.5t-81.5 24.5t-84.5 -25.5t-62.5 -71t-23 -102.5q0 -60 22 -105
t61 -69.5t89 -24.5q47 0 81.5 20t57.5 59h65q-15 -40 -45.5 -71.5t-72 -50t-88.5 -18.5z" />
    <glyph glyph-name="f" unicode="f" horiz-adv-x="294" 
d="M100 550q0 74 39 117t99 43q14 0 25 -2.5t19 -5.5v-59q-8 3 -16.5 4.5t-17.5 1.5q-39 0 -61 -24.5t-22 -73.5v-77v-10v-464h-65v550zM28 439v61h254v-61h-254z" />
    <glyph glyph-name="g" unicode="g" horiz-adv-x="559" 
d="M273 -190q-53 0 -97.5 18.5t-74 52.5t-40.5 80h65q14 -42 52.5 -66t94.5 -24q67 0 108 40t41 106v79h-5q-9 -14 -31 -32.5t-54 -32.5t-69 -14q-61 0 -112.5 32t-81.5 88.5t-30 125.5q0 70 30 126.5t81.5 88.5t112.5 32q37 0 69 -13.5t54 -32t31 -32.5h5l17 68h48v-483
q0 -61 -27 -108t-75.5 -73t-111.5 -26zM263 78q42 0 78.5 24t58.5 66.5t22 94.5q0 53 -22 95.5t-58.5 66.5t-78.5 24q-43 0 -79.5 -24t-58 -66.5t-21.5 -95.5q0 -52 21.5 -94.5t58 -66.5t79.5 -24z" />
    <glyph glyph-name="h" unicode="h" horiz-adv-x="560" 
d="M77 0v700h65v-268h5q12 19 33 36.5t50 29.5t64 12q56 0 101.5 -27t71.5 -77t26 -116v-290h-65v290q0 49 -18 85t-49.5 55t-72.5 19q-43 0 -76 -19t-51.5 -55t-18.5 -85v-290h-65z" />
    <glyph glyph-name="i" unicode="i" horiz-adv-x="209" 
d="M72 0v500h65v-500h-65zM105 580q-19 0 -32 13t-13 32q0 13 6 23.5t16.5 16t22.5 5.5q20 0 32.5 -12.5t12.5 -32.5q0 -13 -6 -23t-16 -16t-23 -6z" />
    <glyph glyph-name="j" unicode="j" horiz-adv-x="209" 
d="M-1 -185q-14 0 -25 2.5t-19 5.5v59q16 -6 34 -6q39 0 61 24.5t22 73.5v526h65v-526q0 -74 -38.5 -116.5t-99.5 -42.5zM105 580q-19 0 -32 13t-13 32q0 13 6 23.5t16.5 16t22.5 5.5q20 0 32.5 -12.5t12.5 -32.5q0 -13 -6 -23t-16 -16t-23 -6z" />
    <glyph glyph-name="k" unicode="k" horiz-adv-x="455" 
d="M377 0l-235 255l218 245h81l-233 -257v30l255 -273h-86zM77 0v700h65v-700h-65z" />
    <glyph glyph-name="l" unicode="l" horiz-adv-x="219" 
d="M77 0v700h65v-700h-65z" />
    <glyph glyph-name="m" unicode="m" horiz-adv-x="792" 
d="M72 0v500h48l17 -68h5q18 30 48.5 54t74.5 24q42 0 73.5 -18.5t49.5 -43t25 -45.5h-7q10 22 28.5 46t50.5 42.5t75 18.5q45 0 83 -25t60 -71.5t22 -107.5v-306h-65v306q0 45 -14 77.5t-39.5 49t-58.5 16.5q-32 0 -59 -18t-42.5 -50.5t-15.5 -74.5v-306h-65v306
q0 45 -14.5 77.5t-39.5 49t-58 16.5t-59.5 -18t-42 -50.5t-15.5 -74.5v-306h-65z" />
    <glyph glyph-name="n" unicode="n" 
d="M72 0v500h48l17 -68h5q20 31 58.5 54.5t88.5 23.5q56 0 101.5 -27t71.5 -77t26 -116v-290h-65v290q0 49 -18 85t-49.5 55t-72.5 19q-43 0 -76 -19t-51.5 -55t-18.5 -85v-290h-65z" />
    <glyph glyph-name="o" unicode="o" horiz-adv-x="548" 
d="M274 -10q-64 0 -118 33.5t-85.5 93t-31.5 133.5t31.5 133.5t85.5 93t118 33.5t118 -33.5t85.5 -93t31.5 -133.5t-31.5 -133.5t-85.5 -93t-118 -33.5zM274 51q46 0 85 25t62 70.5t23 103.5t-23 103.5t-62 70.5t-85 25t-85 -25t-62 -70.5t-23 -103.5t23 -103.5t62 -70.5
t85 -25z" />
    <glyph glyph-name="p" unicode="p" horiz-adv-x="571" 
d="M72 -180v680h48l17 -68h5q10 14 32.5 32t56 32t71.5 14q63 0 115.5 -33t83.5 -92.5t31 -134.5t-31 -134.5t-83.5 -92.5t-115.5 -33q-38 0 -71.5 14t-56.5 32t-32 32h-5v-248h-65zM302 51q45 0 83 25t60 70.5t22 103.5t-22 103.5t-60 70.5t-83 25t-83 -25t-60 -70.5
t-22 -103.5t22 -103.5t60 -70.5t83 -25z" />
    <glyph glyph-name="q" unicode="q" horiz-adv-x="571" 
d="M434 -180v248h-5q-9 -14 -32 -32t-56.5 -32t-71.5 -14q-63 0 -115.5 33t-83.5 92.5t-31 134.5t31 134.5t83.5 92.5t115.5 33q38 0 71.5 -14t56 -32t32.5 -32h5l17 68h48v-680h-65zM269 51q45 0 83 25t60 70.5t22 103.5t-22 103.5t-60 70.5t-83 25t-83 -25t-60 -70.5
t-22 -103.5t22 -103.5t60 -70.5t83 -25z" />
    <glyph glyph-name="r" unicode="r" horiz-adv-x="321" 
d="M72 0v500h48l17 -68h5q19 29 56 53.5t79 24.5q9 0 18.5 -1t17.5 -3v-65q-16 4 -34 4q-41 0 -73.5 -19t-50.5 -55t-18 -85v-286h-65z" />
    <glyph glyph-name="s" unicode="s" horiz-adv-x="435" 
d="M223 -10q-51 0 -92 21.5t-65 57.5t-27 76h65q5 -42 36 -68t83 -26q51 0 78.5 23t27.5 58q0 26 -16 43t-39 27.5t-65 23.5q-51 16 -82 30.5t-53 42t-22 71.5q0 39 20.5 71t57.5 50.5t86 18.5q48 0 86 -20t60 -54.5t25 -75.5h-65q-5 42 -32 65.5t-74 23.5t-73 -21.5
t-26 -54.5q0 -25 15.5 -41.5t39 -27t63.5 -23.5q51 -17 82.5 -32.5t54 -43.5t22.5 -73q0 -40 -20.5 -72.5t-59 -51t-91.5 -18.5z" />
    <glyph glyph-name="t" unicode="t" horiz-adv-x="320" 
d="M242 -10q-39 0 -70.5 19t-49.5 55t-18 86v289h-89v61h39q30 0 45.5 15t15.5 45v73h54v-133h117v-61h-117v-290q0 -49 22 -73.5t61 -24.5q18 0 34 6v-59q-8 -3 -19 -5.5t-25 -2.5z" />
    <glyph glyph-name="u" unicode="u" 
d="M266 -10q-56 0 -101.5 27t-71.5 77t-26 116v290h65v-290q0 -49 18 -85t49.5 -55t72.5 -19q43 0 76 19t51.5 55t18.5 85v290h65v-500h-48l-17 68h-5q-20 -31 -58.5 -54.5t-88.5 -23.5z" />
    <glyph glyph-name="v" unicode="v" horiz-adv-x="478" 
d="M211 0l-204 500h70l171 -432h-15l170 432h68l-202 -500h-58z" />
    <glyph glyph-name="w" unicode="w" horiz-adv-x="678" 
d="M174 0l-167 500h70l128 -405h-14l126 405h45l126 -405h-14l130 405h67l-167 -500h-47l-126 404h14l-124 -404h-47z" />
    <glyph glyph-name="x" unicode="x" horiz-adv-x="454" 
d="M11 0l175 255l-164 245h75l143 -218h-24l143 218h73l-164 -245l175 -255h-76l-154 228h25l-154 -228h-73z" />
    <glyph glyph-name="y" unicode="y" horiz-adv-x="474" 
d="M111 -185q-11 0 -21 2.5t-18 5.5v59q8 -3 15.5 -4.5t15.5 -1.5q24 0 42.5 15t33.5 52l36 89v-42l-208 510h70l174 -434h-22l170 434h68l-221 -550q-22 -54 -43.5 -83.5t-43 -40.5t-48.5 -11z" />
    <glyph glyph-name="z" unicode="z" horiz-adv-x="416" 
d="M33 0v55l273 396l6 -12h-274v61h337v-55l-273 -397l-6 13h287v-61h-350z" />
    <glyph glyph-name="braceleft" unicode="{" horiz-adv-x="333" 
d="M265 -200q-66 0 -104.5 37.5t-38.5 104.5v208q0 38 -18 54.5t-59 16.5v58q28 0 44.5 7.5t24.5 23t8 40.5v208q0 67 38.5 104.5t104.5 37.5h43v-61h-43q-36 0 -57 -21t-21 -60v-208q0 -36 -12.5 -58t-30 -32.5t-35.5 -13.5v8q18 -3 35.5 -13.5t30 -32.5t12.5 -58v-208
q0 -39 21 -60t57 -21h42v-61h-42z" />
    <glyph glyph-name="bar" unicode="|" horiz-adv-x="326" 
d="M133 -180v880h60v-880h-60z" />
    <glyph glyph-name="braceright" unicode="}" horiz-adv-x="333" 
d="M25 -200v61h43q36 0 57 21t21 60v208q0 36 12.5 58t30 32.5t35.5 13.5v-8q-18 3 -35.5 13.5t-30 32.5t-12.5 58v208q0 39 -21 60t-57 21h-42v61h42q66 0 104.5 -37.5t38.5 -104.5v-208q0 -38 18 -54.5t59 -16.5v-58q-28 0 -44.5 -7.5t-24.5 -23t-8 -40.5v-208
q0 -67 -38.5 -104.5t-104.5 -37.5h-43z" />
    <glyph glyph-name="asciitilde" unicode="~" horiz-adv-x="570" 
d="M383 286q-31 0 -56 12.5t-57 36.5q-28 20 -46 29.5t-37 9.5q-27 0 -44 -21t-17 -62h-58q0 68 35 105t84 37q31 0 56.5 -12.5t56.5 -36.5q28 -20 46 -29.5t37 -9.5q27 0 44 21t17 62h58q0 -68 -35 -105t-84 -37z" />
    <glyph glyph-name="uni00A0" unicode="&#xa0;" horiz-adv-x="238" 
 />
    <glyph glyph-name="exclamdown" unicode="&#xa1;" horiz-adv-x="282" 
d="M99 -180l16 495h52l16 -495h-84zM141 396q-22 0 -37 15t-15 37q0 14 7 26t19 19t26 7q22 0 37 -15t15 -37q0 -14 -7 -26t-19 -19t-26 -7z" />
    <glyph glyph-name="cent" unicode="&#xa2;" horiz-adv-x="526" 
d="M274 -10q-64 0 -118 33.5t-85.5 93t-31.5 133.5t31.5 133.5t85.5 93t118 33.5q56 0 102 -25.5t76 -68.5t40 -93h-65q-11 38 -32 66t-51.5 44t-69.5 16q-46 0 -85 -25t-62 -70.5t-23 -103.5t23 -103.5t62 -70.5t85 -25q39 0 69.5 15.5t51.5 44t32 66.5h65
q-10 -50 -40 -92.5t-76.5 -68.5t-101.5 -26zM242 -105v120h65v-120h-65zM242 485v120h65v-120h-65z" />
    <glyph glyph-name="sterling" unicode="&#xa3;" horiz-adv-x="567" 
d="M44 65q32 3 52 24.5t20 59.5v352q0 58 27.5 105.5t75.5 75.5t105 28q56 0 101.5 -26.5t72 -72.5t29.5 -101h-70q-3 40 -20 70.5t-46 47.5t-67 17q-39 0 -70.5 -18.5t-49.5 -51.5t-18 -74v-352q0 -39 -19 -63t-45 -34v13h397v-65h-475v65zM44 294v65h337v-65h-337z" />
    <glyph glyph-name="currency" unicode="&#xa4;" horiz-adv-x="480" 
d="M240 184q-43 0 -79.5 21t-57.5 58.5t-21 85.5t21 85.5t57.5 58.5t79.5 21t79.5 -21t57.5 -58.5t21 -85.5t-21 -85.5t-57.5 -58.5t-79.5 -21zM86 160l-41 39l82 82l41 -39zM127 417l-82 82l41 39l82 -82zM240 239q28 0 50.5 14t35.5 39t13 57q0 31 -13 56t-35.5 39.5
t-50.5 14.5t-50.5 -14t-35.5 -39t-13 -57t13 -57t35.5 -39t50.5 -14zM394 160l-82 82l41 39l82 -82zM353 417l-41 39l82 82l41 -39z" />
    <glyph glyph-name="yen" unicode="&#xa5;" horiz-adv-x="554" 
d="M242 0v274l-230 426h76l199 -372h-17l199 372h73l-230 -426v-274h-70zM87 121v65h380v-65h-380zM87 266v65h380v-65h-380z" />
    <glyph glyph-name="brokenbar" unicode="&#xa6;" horiz-adv-x="326" 
d="M133 355v345h60v-345h-60zM133 -180v345h60v-345h-60z" />
    <glyph glyph-name="section" unicode="&#xa7;" horiz-adv-x="494" 
d="M238 153q55 15 98 44.5t43 79.5q0 29 -17 49.5t-42.5 34.5t-67.5 32q-53 23 -85 42t-55 51t-23 79q0 40 20 73t56.5 52.5t82.5 19.5q51 0 89.5 -21.5t59 -56.5t23.5 -76h-65q-4 28 -17 49t-36 32.5t-55 11.5q-27 0 -48 -10.5t-33 -30t-12 -43.5q0 -29 17 -50t42.5 -35
t68.5 -32q53 -23 85 -42t54.5 -51t22.5 -78q0 -62 -42.5 -101t-99.5 -62zM246 -133q-51 0 -89.5 21.5t-59 56.5t-23.5 76h65q4 -28 17 -49t36 -32.5t55 -11.5q27 0 48 10.5t33 30t12 43.5q0 29 -17 50t-42.5 35t-68.5 32q-53 23 -85 42t-54.5 51t-22.5 78q0 62 42.5 101
t99.5 62l64 -39q-55 -15 -98 -44.5t-43 -79.5q0 -29 17 -49.5t42.5 -34.5t67.5 -32q53 -23 85 -42t55 -51t23 -79q0 -40 -20 -73t-56.5 -52.5t-82.5 -19.5z" />
    <glyph glyph-name="dieresis" unicode="&#xa8;" horiz-adv-x="306" 
d="M233 582q-18 0 -30.5 12.5t-12.5 30.5q0 19 12.5 31t30.5 12t30.5 -12.5t12.5 -30.5t-13 -30.5t-30 -12.5zM73 582q-17 0 -30 12.5t-13 30.5t12.5 30.5t30.5 12.5t30.5 -12t12.5 -31q0 -18 -12.5 -30.5t-30.5 -12.5z" />
    <glyph glyph-name="copyright" unicode="&#xa9;" horiz-adv-x="788" 
d="M394 -10q-96 0 -176 47t-127 129.5t-47 183.5t47 183.5t127 129.5t176 47t176 -47t127 -129.5t47 -183.5t-47 -183.5t-127 -129.5t-176 -47zM394 45q81 0 147.5 39t104.5 108.5t38 157.5t-38 157.5t-104.5 108.5t-147.5 39t-147.5 -39t-104.5 -108.5t-38 -157.5
t38 -157.5t104.5 -108.5t147.5 -39zM394 167q-43 0 -81.5 23.5t-61.5 65.5t-23 94t23 94t61.5 65.5t81.5 23.5q41 0 75 -17.5t56 -46.5t29 -63h-56q-13 36 -38 55.5t-66 19.5q-28 0 -53.5 -16.5t-41 -46.5t-15.5 -68t15.5 -68t41 -46.5t53.5 -16.5q41 0 66 19.5t38 55.5h56
q-7 -34 -29 -63t-56 -46.5t-75 -17.5z" />
    <glyph glyph-name="ordfeminine" unicode="&#xaa;" horiz-adv-x="302" 
d="M125 400q-41 0 -70.5 24.5t-29.5 62.5q0 41 34 70t96 29h71v-46h-67q-42 0 -61.5 -14t-19.5 -37q0 -20 15 -31.5t41 -11.5q34 0 55.5 20.5t21.5 58.5v69q0 34 -16.5 52t-44.5 18q-25 0 -41 -14t-19 -34h-53q7 39 36 66.5t77 27.5q34 0 59.5 -14.5t40 -40.5t14.5 -61v-188
h-42l-12 35h-5q-13 -17 -31.5 -29t-48.5 -12z" />
    <glyph glyph-name="guillemotleft" unicode="&#xab;" horiz-adv-x="437" 
d="M331 87l-119 178l119 178h66l-119 -178l119 -178h-66zM159 87l-119 178l119 178h66l-119 -178l119 -178h-66z" />
    <glyph glyph-name="logicalnot" unicode="&#xac;" horiz-adv-x="570" 
d="M436 260v100h-363v61h424v-161h-61z" />
    <glyph glyph-name="uni00AD" unicode="&#xad;" horiz-adv-x="390" 
d="M39 234v63h312v-63h-312z" />
    <glyph glyph-name="registered" unicode="&#xae;" horiz-adv-x="402" 
d="M201 375q-45 0 -83.5 22t-61.5 60t-23 85t23 85.5t61.5 60.5t83.5 22t83.5 -22t61.5 -60.5t23 -85.5t-23 -85t-61.5 -60t-83.5 -22zM201 422q49 0 83.5 33.5t34.5 86.5t-34.5 87t-83.5 34t-83.5 -34t-34.5 -87t34.5 -86.5t83.5 -33.5zM137 460v170h76q28 0 45 -16t17 -41
q0 -26 -17 -42t-45 -16h-38v40h32q12 0 17.5 4t5.5 14q0 8 -6 12.5t-17 4.5h-25v-55v-5v-70h-45zM228 460l-46 70h50l48 -70h-52z" />
    <glyph glyph-name="macron" unicode="&#xaf;" horiz-adv-x="308" 
d="M30 600v53h248v-53h-248z" />
    <glyph glyph-name="degree" unicode="&#xb0;" horiz-adv-x="356" 
d="M178 416q-39 0 -72 18.5t-53 52t-20 76.5t20 76.5t53 52t72 18.5t72 -18.5t53 -52t20 -76.5t-20 -76.5t-53 -52t-72 -18.5zM178 470q35 0 60.5 25t25.5 68t-25.5 68t-60.5 25t-60.5 -25t-25.5 -68t25.5 -68t60.5 -25z" />
    <glyph glyph-name="plusminus" unicode="&#xb1;" horiz-adv-x="570" 
d="M253 127v206h-179v61h179v189h65v-189h179v-61h-179v-206h-65zM74 80v61h423v-61h-423z" />
    <glyph glyph-name="uni00B2" unicode="&#xb2;" horiz-adv-x="300" 
d="M36 460v44l131 137q19 20 30 37t11 34q0 22 -15.5 35.5t-40.5 13.5q-28 0 -45.5 -16.5t-17.5 -43.5h-59q0 49 34.5 81.5t87.5 32.5q34 0 60 -13.5t40.5 -36.5t14.5 -51q0 -26 -13 -49t-34 -45l-125 -131l-6 25h178v-54h-231z" />
    <glyph glyph-name="uni00B3" unicode="&#xb3;" horiz-adv-x="310" 
d="M156 455q-54 0 -89 32.5t-37 81.5h59q2 -25 19.5 -42.5t47.5 -17.5q28 0 45 14t17 39q0 24 -17 38.5t-47 14.5h-32v49h32q23 0 37.5 13t14.5 35t-14.5 35.5t-37.5 13.5q-26 0 -42.5 -15t-16.5 -39h-59q0 29 15 53.5t42 39.5t61 15q32 0 57 -13t39.5 -35.5t14.5 -49.5
q0 -22 -11 -39t-27.5 -27.5t-33.5 -13.5v15q15 -1 35 -12t34.5 -31.5t14.5 -49.5t-14 -53t-41.5 -37.5t-65.5 -13.5z" />
    <glyph glyph-name="acute" unicode="&#xb4;" horiz-adv-x="201" 
d="M30 560l66 134h75l-90 -134h-51z" />
    <glyph glyph-name="uni00B5" unicode="&#xb5;" 
d="M72 -180v680h65v-290q0 -49 18 -85t49.5 -55t72.5 -19q43 0 76 19t51.5 55t18.5 85v290h65v-500h-48l-17 68h-5q-20 -30 -57.5 -54t-84.5 -24q-44 0 -77 15.5t-57 41.5h-5v-227h-65z" />
    <glyph glyph-name="paragraph" unicode="&#xb6;" horiz-adv-x="542" 
d="M207 -100v491l9 -20q-52 0 -92 21t-62.5 58.5t-22.5 85.5t22.5 85t62.5 58t92 21h237v-800h-60v745h-126v-745h-60z" />
    <glyph glyph-name="periodcentered" unicode="&#xb7;" horiz-adv-x="238" 
d="M119 213q-22 0 -37 15t-15 37q0 14 7 26t19 19t26 7q22 0 37 -15t15 -37q0 -14 -7 -26t-19 -19t-26 -7z" />
    <glyph glyph-name="cedilla" unicode="&#xb8;" horiz-adv-x="224" 
d="M83 -200q-15 0 -29 2.5t-24 5.5v41q9 -3 21.5 -4.5t23.5 -1.5q39 0 55 10t16 28q0 17 -15 27.5t-48 10.5q-18 0 -38 -4l41 100h45l-36 -77l-21 19h20q48 0 74 -21t26 -55q0 -38 -27.5 -59.5t-83.5 -21.5z" />
    <glyph glyph-name="uni00B9" unicode="&#xb9;" horiz-adv-x="232" 
d="M108 460v300l20 -10l-73 -50l-30 45l97 65h45v-350h-59z" />
    <glyph glyph-name="ordmasculine" unicode="&#xba;" horiz-adv-x="362" 
d="M181 400q-39 0 -73 20.5t-54.5 56t-20.5 78.5t20.5 78.5t54.5 56t73 20.5t73 -20.5t54.5 -56t20.5 -78.5t-20.5 -78.5t-54.5 -56t-73 -20.5zM181 454q24 0 44.5 12.5t32.5 35.5t12 53q0 45 -26 73t-63 28q-24 0 -44.5 -12.5t-32.5 -35.5t-12 -53q0 -45 26 -73t63 -28z
" />
    <glyph glyph-name="guillemotright" unicode="&#xbb;" horiz-adv-x="437" 
d="M212 87l119 178l-119 178h66l119 -178l-119 -178h-66zM40 87l119 178l-119 178h66l119 -178l-119 -178h-66z" />
    <glyph glyph-name="onequarter.dlig" unicode="&#xbc;" horiz-adv-x="616" 
d="M108 350v300l20 -10l-73 -50l-30 45l97 65h45v-350h-59zM49 0l425 700h67l-425 -700h-67zM484 0v88v15v187h15l-120 -187l-3 19h207v-54h-259v48l151 234h68v-350h-59z" />
    <glyph glyph-name="onehalf.dlig" unicode="&#xbd;" horiz-adv-x="658" 
d="M108 350v300l20 -10l-73 -50l-30 45l97 65h45v-350h-59zM49 0l425 700h67l-425 -700h-67zM394 0v44l131 137q19 20 30 37t11 34q0 22 -15.5 35.5t-40.5 13.5q-28 0 -45.5 -16.5t-17.5 -43.5h-59q0 49 34.5 81.5t87.5 32.5q34 0 60 -13.5t40.5 -36.5t14.5 -51
q0 -26 -13 -49t-34 -45l-125 -131l-6 25h178v-54h-231z" />
    <glyph glyph-name="threequarters.dlig" unicode="&#xbe;" horiz-adv-x="694" 
d="M156 345q-54 0 -89 32.5t-37 81.5h59q2 -25 19.5 -42.5t47.5 -17.5q28 0 45 14t17 39q0 24 -17 38.5t-47 14.5h-32v49h32q23 0 37.5 13t14.5 35t-14.5 35.5t-37.5 13.5q-26 0 -42.5 -15t-16.5 -39h-59q0 29 15 53.5t42 39.5t61 15q32 0 57 -13t39.5 -35.5t14.5 -49.5
q0 -22 -11 -39t-27.5 -27.5t-33.5 -13.5v15q15 -1 35 -12t34.5 -31.5t14.5 -49.5t-14 -53t-41.5 -37.5t-65.5 -13.5zM127 0l425 700h67l-425 -700h-67zM562 0v88v15v187h15l-120 -187l-3 19h207v-54h-259v48l151 234h68v-350h-59z" />
    <glyph glyph-name="questiondown" unicode="&#xbf;" horiz-adv-x="473" 
d="M236 -185q-54 0 -97.5 24.5t-68.5 65t-25 86.5q0 38 11.5 66t28 47.5t44.5 45.5t44 44t27 45t11 62v14h70v-14q0 -45 -13 -78t-31.5 -54.5t-48.5 -49.5q-25 -23 -39.5 -39t-24 -38t-9.5 -51q0 -30 15 -55.5t43 -40.5t63 -15q59 0 95.5 41.5t36.5 108.5v13h70v-13
q0 -61 -26.5 -110t-72.5 -77t-103 -28zM245 396q-22 0 -37 15t-15 37q0 14 7 26t19 19t26 7q22 0 37 -15t15 -37q0 -14 -7 -26t-19 -19t-26 -7z" />
    <glyph glyph-name="Agrave" unicode="&#xc0;" horiz-adv-x="607" 
d="M5 0l266 700h65l266 -700h-75l-75 200l-9 24l-153 408h24l-153 -408l-9 -24l-75 -200h-72zM119 178l26 65h318l26 -65h-370zM288 755l-95 128h78l71 -128h-54z" />
    <glyph glyph-name="Aacute" unicode="&#xc1;" horiz-adv-x="607" 
d="M5 0l266 700h65l266 -700h-75l-75 200l-9 24l-153 408h24l-153 -408l-9 -24l-75 -200h-72zM119 178l26 65h318l26 -65h-370zM266 755l70 128h78l-94 -128h-54z" />
    <glyph glyph-name="Acircumflex" unicode="&#xc2;" horiz-adv-x="607" 
d="M5 0l266 700h65l266 -700h-75l-75 200l-9 24l-153 408h24l-153 -408l-9 -24l-75 -200h-72zM119 178l26 65h318l26 -65h-370zM168 755l105 128h63l104 -128h-68l-77 95h16l-76 -95h-67z" />
    <glyph glyph-name="Atilde" unicode="&#xc3;" horiz-adv-x="607" 
d="M5 0l266 700h65l266 -700h-75l-75 200l-9 24l-153 408h24l-153 -408l-9 -24l-75 -200h-72zM119 178l26 65h318l26 -65h-370zM362 762q-23 0 -39 10t-34 28q-14 13 -22.5 19t-18.5 6q-17 0 -28 -15t-11 -42h-50q0 53 25.5 81.5t61.5 28.5q23 0 39 -10t34 -28
q14 -13 22.5 -19t18.5 -6q17 0 28 15t11 42h50q0 -53 -26 -81.5t-61 -28.5z" />
    <glyph glyph-name="Adieresis" unicode="&#xc4;" horiz-adv-x="607" 
d="M5 0l266 700h65l266 -700h-75l-75 200l-9 24l-153 408h24l-153 -408l-9 -24l-75 -200h-72zM119 178l26 65h318l26 -65h-370zM389 776q-17 0 -30 12.5t-13 30.5t13 30.5t30 12.5t30 -12.5t13 -30.5t-13 -30.5t-30 -12.5zM219 776q-17 0 -30 12.5t-13 30.5t13 30.5t30 12.5
q18 0 30.5 -12.5t12.5 -30.5t-12.5 -30.5t-30.5 -12.5z" />
    <glyph glyph-name="Aring" unicode="&#xc5;" horiz-adv-x="607" 
d="M5 0l266 700h65l266 -700h-75l-75 200l-9 24l-153 408h24l-153 -408l-9 -24l-75 -200h-72zM119 178l26 65h318l26 -65h-370zM304 755q-40 0 -67 26.5t-27 64.5q0 25 12.5 46t34 33.5t47.5 12.5q39 0 66 -27t27 -65q0 -25 -12 -46t-33.5 -33t-47.5 -12zM304 798
q21 0 34 13t13 35t-13.5 35.5t-33.5 13.5q-21 0 -34.5 -13.5t-13.5 -35.5t13.5 -35t34.5 -13z" />
    <glyph glyph-name="AE" unicode="&#xc6;" horiz-adv-x="880" 
d="M-28 0l404 700h449v-65h-333v-570h343v-65h-413v635h-10l-363 -635h-77zM138 178l36 65h262v-65h-298zM476 328v65h311v-65h-311z" />
    <glyph glyph-name="Ccedilla" unicode="&#xc7;" horiz-adv-x="704" 
d="M368 -10q-86 0 -160.5 47t-119 129.5t-44.5 183.5t44.5 183.5t119 129.5t160.5 47q70 0 130.5 -32t102.5 -87.5t59 -124.5h-70q-17 51 -47.5 91.5t-75 64t-99.5 23.5q-67 0 -125.5 -37.5t-93.5 -105t-35 -152.5t35 -152.5t93.5 -105t125.5 -37.5q84 0 142.5 50t84.5 129
h70q-17 -69 -59.5 -124.5t-104 -87.5t-133.5 -32zM348 -200q-15 0 -29 2.5t-24 5.5v41q9 -3 21.5 -4.5t23.5 -1.5q39 0 55 10t16 28q0 17 -15 27.5t-48 10.5q-18 0 -38 -4l41 100h45l-36 -77l-21 19h20q48 0 74 -21t26 -55q0 -38 -27.5 -59.5t-83.5 -21.5z" />
    <glyph glyph-name="Egrave" unicode="&#xc8;" horiz-adv-x="577" 
d="M89 0v700h433v-65h-363v-570h373v-65h-443zM133 328v65h351v-65h-351zM290 755l-95 128h78l71 -128h-54z" />
    <glyph glyph-name="Eacute" unicode="&#xc9;" horiz-adv-x="577" 
d="M89 0v700h433v-65h-363v-570h373v-65h-443zM133 328v65h351v-65h-351zM268 755l70 128h78l-94 -128h-54z" />
    <glyph glyph-name="Ecircumflex" unicode="&#xca;" horiz-adv-x="577" 
d="M89 0v700h433v-65h-363v-570h373v-65h-443zM133 328v65h351v-65h-351zM170 755l105 128h63l104 -128h-68l-77 95h16l-76 -95h-67z" />
    <glyph glyph-name="Edieresis" unicode="&#xcb;" horiz-adv-x="577" 
d="M89 0v700h433v-65h-363v-570h373v-65h-443zM133 328v65h351v-65h-351zM391 776q-17 0 -30 12.5t-13 30.5t13 30.5t30 12.5t30 -12.5t13 -30.5t-13 -30.5t-30 -12.5zM221 776q-17 0 -30 12.5t-13 30.5t13 30.5t30 12.5q18 0 30.5 -12.5t12.5 -30.5t-12.5 -30.5
t-30.5 -12.5z" />
    <glyph glyph-name="Igrave" unicode="&#xcc;" horiz-adv-x="248" 
d="M89 0v700h70v-700h-70zM108 755l-95 128h78l71 -128h-54z" />
    <glyph glyph-name="Iacute" unicode="&#xcd;" horiz-adv-x="248" 
d="M89 0v700h70v-700h-70zM86 755l70 128h78l-94 -128h-54z" />
    <glyph glyph-name="Icircumflex" unicode="&#xce;" horiz-adv-x="248" 
d="M89 0v700h70v-700h-70zM-12 755l105 128h63l104 -128h-68l-77 95h16l-76 -95h-67z" />
    <glyph glyph-name="Idieresis" unicode="&#xcf;" horiz-adv-x="248" 
d="M89 0v700h70v-700h-70zM191 776q-17 0 -30 12.5t-13 30.5t13 30.5t30 12.5q18 0 30.5 -12.5t12.5 -30.5t-12.5 -30.5t-30.5 -12.5zM57 776q-17 0 -30 12.5t-13 30.5t13 30.5t30 12.5q18 0 30.5 -12.5t12.5 -30.5t-12.5 -30.5t-30.5 -12.5z" />
    <glyph glyph-name="Eth" unicode="&#xd0;" horiz-adv-x="680" 
d="M20 319v63h320v-63h-320zM115 0v700h178q95 0 173.5 -45t124 -125t45.5 -180t-45.5 -180t-124 -125t-173.5 -45h-178zM185 65h108q74 0 136.5 37t99.5 102t37 146t-37 146t-99.5 102t-136.5 37h-108v-570z" />
    <glyph glyph-name="Ntilde" unicode="&#xd1;" horiz-adv-x="690" 
d="M89 0v700h66l387 -588h-11v588h70v-700h-66l-387 588h11v-588h-70zM408 762q-23 0 -39 10t-34 28q-14 13 -22.5 19t-18.5 6q-17 0 -28 -15t-11 -42h-50q0 53 25.5 81.5t61.5 28.5q23 0 39 -10t34 -28q14 -13 22.5 -19t18.5 -6q17 0 28 15t11 42h50q0 -53 -26 -81.5
t-61 -28.5z" />
    <glyph glyph-name="Ograve" unicode="&#xd2;" horiz-adv-x="737" 
d="M368 -10q-86 0 -160.5 47t-119 129.5t-44.5 183.5t44.5 183.5t119 129.5t160.5 47t161 -47t119.5 -129.5t44.5 -183.5t-44.5 -183.5t-119.5 -129.5t-161 -47zM368 55q68 0 126.5 37.5t93.5 105t35 152.5t-35 152.5t-93.5 105t-126.5 37.5q-67 0 -125.5 -37.5t-93.5 -105
t-35 -152.5t35 -152.5t93.5 -105t125.5 -37.5zM352 755l-95 128h78l71 -128h-54z" />
    <glyph glyph-name="Oacute" unicode="&#xd3;" horiz-adv-x="737" 
d="M368 -10q-86 0 -160.5 47t-119 129.5t-44.5 183.5t44.5 183.5t119 129.5t160.5 47t161 -47t119.5 -129.5t44.5 -183.5t-44.5 -183.5t-119.5 -129.5t-161 -47zM368 55q68 0 126.5 37.5t93.5 105t35 152.5t-35 152.5t-93.5 105t-126.5 37.5q-67 0 -125.5 -37.5t-93.5 -105
t-35 -152.5t35 -152.5t93.5 -105t125.5 -37.5zM330 755l70 128h78l-94 -128h-54z" />
    <glyph glyph-name="Ocircumflex" unicode="&#xd4;" horiz-adv-x="737" 
d="M368 -10q-86 0 -160.5 47t-119 129.5t-44.5 183.5t44.5 183.5t119 129.5t160.5 47t161 -47t119.5 -129.5t44.5 -183.5t-44.5 -183.5t-119.5 -129.5t-161 -47zM368 55q68 0 126.5 37.5t93.5 105t35 152.5t-35 152.5t-93.5 105t-126.5 37.5q-67 0 -125.5 -37.5t-93.5 -105
t-35 -152.5t35 -152.5t93.5 -105t125.5 -37.5zM232 755l105 128h63l104 -128h-68l-77 95h16l-76 -95h-67z" />
    <glyph glyph-name="Otilde" unicode="&#xd5;" horiz-adv-x="737" 
d="M368 -10q-86 0 -160.5 47t-119 129.5t-44.5 183.5t44.5 183.5t119 129.5t160.5 47t161 -47t119.5 -129.5t44.5 -183.5t-44.5 -183.5t-119.5 -129.5t-161 -47zM368 55q68 0 126.5 37.5t93.5 105t35 152.5t-35 152.5t-93.5 105t-126.5 37.5q-67 0 -125.5 -37.5t-93.5 -105
t-35 -152.5t35 -152.5t93.5 -105t125.5 -37.5zM426 762q-23 0 -39 10t-34 28q-14 13 -22.5 19t-18.5 6q-17 0 -28 -15t-11 -42h-50q0 53 25.5 81.5t61.5 28.5q23 0 39 -10t34 -28q14 -13 22.5 -19t18.5 -6q17 0 28 15t11 42h50q0 -53 -26 -81.5t-61 -28.5z" />
    <glyph glyph-name="Odieresis" unicode="&#xd6;" horiz-adv-x="737" 
d="M368 -10q-86 0 -160.5 47t-119 129.5t-44.5 183.5t44.5 183.5t119 129.5t160.5 47t161 -47t119.5 -129.5t44.5 -183.5t-44.5 -183.5t-119.5 -129.5t-161 -47zM368 55q68 0 126.5 37.5t93.5 105t35 152.5t-35 152.5t-93.5 105t-126.5 37.5q-67 0 -125.5 -37.5t-93.5 -105
t-35 -152.5t35 -152.5t93.5 -105t125.5 -37.5zM453 776q-17 0 -30 12.5t-13 30.5t13 30.5t30 12.5t30 -12.5t13 -30.5t-13 -30.5t-30 -12.5zM283 776q-17 0 -30 12.5t-13 30.5t13 30.5t30 12.5q18 0 30.5 -12.5t12.5 -30.5t-12.5 -30.5t-30.5 -12.5z" />
    <glyph glyph-name="multiply" unicode="&#xd7;" horiz-adv-x="570" 
d="M147 180l-42 42l139 138l-139 138l42 42l138 -138l138 138l42 -42l-139 -138l139 -138l-42 -42l-138 138z" />
    <glyph glyph-name="Oslash" unicode="&#xd8;" horiz-adv-x="737" 
d="M86 -5l-42 42l101 110l12 13l381 422l12 13l101 110l42 -42l-101 -110l-12 -13l-381 -422l-12 -13zM368 -10q-86 0 -160.5 47t-119 129.5t-44.5 183.5t44.5 183.5t119 129.5t160.5 47t161 -47t119.5 -129.5t44.5 -183.5t-44.5 -183.5t-119.5 -129.5t-161 -47zM368 55
q68 0 126.5 37.5t93.5 105t35 152.5t-35 152.5t-93.5 105t-126.5 37.5q-67 0 -125.5 -37.5t-93.5 -105t-35 -152.5t35 -152.5t93.5 -105t125.5 -37.5z" />
    <glyph glyph-name="Ugrave" unicode="&#xd9;" horiz-adv-x="668" 
d="M334 -10q-74 0 -131 33t-88 92.5t-31 135.5v449h70v-449q0 -60 22.5 -104t63 -68t94.5 -24q81 0 130.5 53t49.5 143v449h70v-449q0 -76 -31.5 -135.5t-88 -92.5t-130.5 -33zM318 755l-95 128h78l71 -128h-54z" />
    <glyph glyph-name="Uacute" unicode="&#xda;" horiz-adv-x="668" 
d="M334 -10q-74 0 -131 33t-88 92.5t-31 135.5v449h70v-449q0 -60 22.5 -104t63 -68t94.5 -24q81 0 130.5 53t49.5 143v449h70v-449q0 -76 -31.5 -135.5t-88 -92.5t-130.5 -33zM296 755l70 128h78l-94 -128h-54z" />
    <glyph glyph-name="Ucircumflex" unicode="&#xdb;" horiz-adv-x="668" 
d="M334 -10q-74 0 -131 33t-88 92.5t-31 135.5v449h70v-449q0 -60 22.5 -104t63 -68t94.5 -24q81 0 130.5 53t49.5 143v449h70v-449q0 -76 -31.5 -135.5t-88 -92.5t-130.5 -33zM198 755l105 128h63l104 -128h-68l-77 95h16l-76 -95h-67z" />
    <glyph glyph-name="Udieresis" unicode="&#xdc;" horiz-adv-x="668" 
d="M334 -10q-74 0 -131 33t-88 92.5t-31 135.5v449h70v-449q0 -60 22.5 -104t63 -68t94.5 -24q81 0 130.5 53t49.5 143v449h70v-449q0 -76 -31.5 -135.5t-88 -92.5t-130.5 -33zM419 776q-17 0 -30 12.5t-13 30.5t13 30.5t30 12.5t30 -12.5t13 -30.5t-13 -30.5t-30 -12.5z
M249 776q-17 0 -30 12.5t-13 30.5t13 30.5t30 12.5q18 0 30.5 -12.5t12.5 -30.5t-12.5 -30.5t-30.5 -12.5z" />
    <glyph glyph-name="Yacute" unicode="&#xdd;" horiz-adv-x="534" 
d="M232 0v274l-230 426h76l199 -372h-17l199 372h73l-230 -426v-274h-70zM231 755l70 128h78l-94 -128h-54z" />
    <glyph glyph-name="Thorn" unicode="&#xde;" horiz-adv-x="621" 
d="M143 154v65h217q44 0 80 19t56 52.5t20 74.5t-20 74.5t-56 52.5t-80 19h-217v65h217q62 0 114 -28.5t82 -77t30 -105.5t-30 -105.5t-82 -77t-114 -28.5h-217zM89 0v700h70v-700h-70z" />
    <glyph glyph-name="germandbls" unicode="&#xdf;" horiz-adv-x="559" 
d="M77 502q0 59 26.5 106.5t72 74.5t99.5 27q56 0 100.5 -25.5t69.5 -69.5t25 -99q0 -41 -15.5 -73.5t-37.5 -53t-40 -28.5v11q27 -5 60.5 -26t58 -61t24.5 -96q0 -54 -25 -97t-68.5 -67.5t-95.5 -24.5h-77v61h77q35 0 63.5 16t44.5 45.5t16 66.5q0 58 -35.5 95.5
t-88.5 37.5h-72v61h33q29 0 55 17t42 47t16 69q0 40 -16 70t-45.5 46.5t-68.5 16.5t-69 -17.5t-47 -51t-17 -78.5v-502h-65v502z" />
    <glyph glyph-name="agrave" unicode="&#xe0;" horiz-adv-x="497" 
d="M206 -10q-50 0 -87.5 20.5t-58 54.5t-20.5 75q0 45 27.5 80.5t77 55.5t113.5 20h123v-59h-113q-77 0 -120 -25.5t-43 -71.5q0 -40 28 -64.5t80 -24.5q46 0 80.5 18.5t53 51t18.5 73.5v131q0 37 -15 65t-42.5 43.5t-62.5 15.5q-51 0 -80.5 -26t-37.5 -68h-65
q5 42 29.5 77.5t64.5 56.5t89 21q53 0 95 -23.5t66 -65.5t24 -96v-325h-48l-17 68h-5q-19 -30 -58.5 -54t-95.5 -24zM232 560l-91 134h75l67 -134h-51z" />
    <glyph glyph-name="aacute" unicode="&#xe1;" horiz-adv-x="497" 
d="M206 -10q-50 0 -87.5 20.5t-58 54.5t-20.5 75q0 45 27.5 80.5t77 55.5t113.5 20h123v-59h-113q-77 0 -120 -25.5t-43 -71.5q0 -40 28 -64.5t80 -24.5q46 0 80.5 18.5t53 51t18.5 73.5v131q0 37 -15 65t-42.5 43.5t-62.5 15.5q-51 0 -80.5 -26t-37.5 -68h-65
q5 42 29.5 77.5t64.5 56.5t89 21q53 0 95 -23.5t66 -65.5t24 -96v-325h-48l-17 68h-5q-19 -30 -58.5 -54t-95.5 -24zM211 560l66 134h75l-90 -134h-51z" />
    <glyph glyph-name="acircumflex" unicode="&#xe2;" horiz-adv-x="497" 
d="M206 -10q-50 0 -87.5 20.5t-58 54.5t-20.5 75q0 45 27.5 80.5t77 55.5t113.5 20h123v-59h-113q-77 0 -120 -25.5t-43 -71.5q0 -40 28 -64.5t80 -24.5q46 0 80.5 18.5t53 51t18.5 73.5v131q0 37 -15 65t-42.5 43.5t-62.5 15.5q-51 0 -80.5 -26t-37.5 -68h-65
q5 42 29.5 77.5t64.5 56.5t89 21q53 0 95 -23.5t66 -65.5t24 -96v-325h-48l-17 68h-5q-19 -30 -58.5 -54t-95.5 -24zM115 560l102 134h60l102 -134h-68l-75 106h21l-76 -106h-66z" />
    <glyph glyph-name="atilde" unicode="&#xe3;" horiz-adv-x="497" 
d="M206 -10q-50 0 -87.5 20.5t-58 54.5t-20.5 75q0 45 27.5 80.5t77 55.5t113.5 20h123v-59h-113q-77 0 -120 -25.5t-43 -71.5q0 -40 28 -64.5t80 -24.5q46 0 80.5 18.5t53 51t18.5 73.5v131q0 37 -15 65t-42.5 43.5t-62.5 15.5q-51 0 -80.5 -26t-37.5 -68h-65
q5 42 29.5 77.5t64.5 56.5t89 21q53 0 95 -23.5t66 -65.5t24 -96v-325h-48l-17 68h-5q-19 -30 -58.5 -54t-95.5 -24zM304 566q-23 0 -38.5 11t-33.5 31q-13 14 -21.5 20.5t-18.5 6.5q-16 0 -26.5 -16t-10.5 -47h-50q0 58 24.5 87t60.5 29q23 0 38.5 -11t33.5 -31
q13 -14 21.5 -20.5t18.5 -6.5q15 0 26 16.5t11 46.5h50q0 -58 -24.5 -87t-60.5 -29z" />
    <glyph glyph-name="adieresis" unicode="&#xe4;" horiz-adv-x="497" 
d="M206 -10q-50 0 -87.5 20.5t-58 54.5t-20.5 75q0 45 27.5 80.5t77 55.5t113.5 20h123v-59h-113q-77 0 -120 -25.5t-43 -71.5q0 -40 28 -64.5t80 -24.5q46 0 80.5 18.5t53 51t18.5 73.5v131q0 37 -15 65t-42.5 43.5t-62.5 15.5q-51 0 -80.5 -26t-37.5 -68h-65
q5 42 29.5 77.5t64.5 56.5t89 21q53 0 95 -23.5t66 -65.5t24 -96v-325h-48l-17 68h-5q-19 -30 -58.5 -54t-95.5 -24zM327 582q-18 0 -30.5 12.5t-12.5 30.5q0 19 12.5 31t30.5 12t30.5 -12.5t12.5 -30.5t-13 -30.5t-30 -12.5zM167 582q-17 0 -30 12.5t-13 30.5t12.5 30.5
t30.5 12.5t30.5 -12t12.5 -31q0 -18 -12.5 -30.5t-30.5 -12.5z" />
    <glyph glyph-name="aring" unicode="&#xe5;" horiz-adv-x="497" 
d="M206 -10q-50 0 -87.5 20.5t-58 54.5t-20.5 75q0 45 27.5 80.5t77 55.5t113.5 20h123v-59h-113q-77 0 -120 -25.5t-43 -71.5q0 -40 28 -64.5t80 -24.5q46 0 80.5 18.5t53 51t18.5 73.5v131q0 37 -15 65t-42.5 43.5t-62.5 15.5q-51 0 -80.5 -26t-37.5 -68h-65
q5 42 29.5 77.5t64.5 56.5t89 21q53 0 95 -23.5t66 -65.5t24 -96v-325h-48l-17 68h-5q-19 -30 -58.5 -54t-95.5 -24zM247 550q-26 0 -47 12t-33 32.5t-12 45.5t12 45.5t33 32.5t47 12t47 -12t33 -32.5t12 -45.5t-12 -45.5t-33 -32.5t-47 -12zM247 591q22 0 35.5 13.5
t13.5 35.5t-13.5 35.5t-35.5 13.5t-35.5 -13.5t-13.5 -35.5t13.5 -35.5t35.5 -13.5z" />
    <glyph glyph-name="ae" unicode="&#xe6;" horiz-adv-x="834" 
d="M207 -10q-51 0 -89 19.5t-58 52t-20 71.5q0 46 27 80t76.5 52.5t115.5 18.5h123v-59h-114q-81 0 -122 -23t-41 -69q0 -37 27.5 -59.5t80.5 -22.5q46 0 81 18.5t54 51t19 73.5v133q0 36 -15.5 63.5t-42.5 43t-61 15.5q-53 0 -82.5 -25.5t-38.5 -68.5h-65q6 42 30.5 77.5
t65 56.5t90.5 21q45 0 81 -18t57.5 -46t27.5 -57h-13q13 32 38 59.5t63 44.5t85 17q61 0 108.5 -30.5t73.5 -85.5t26 -126q0 -15 -1.5 -25.5t-3.5 -17.5h-372v59h350l-44 -45q6 16 6 38q0 45 -16.5 84.5t-49 63.5t-77.5 24q-43 0 -79 -25t-57 -70.5t-21 -103.5
q0 -60 20.5 -105t57 -69.5t81.5 -24.5q42 0 72 19t51 60h65q-16 -43 -43 -74.5t-63.5 -48.5t-81.5 -17q-47 0 -86.5 17.5t-68 47t-43.5 66.5h15q-19 -59 -67.5 -95t-131.5 -36z" />
    <glyph glyph-name="ccedilla" unicode="&#xe7;" horiz-adv-x="526" 
d="M274 -10q-64 0 -118 33.5t-85.5 93t-31.5 133.5t31.5 133.5t85.5 93t118 33.5q56 0 102 -25.5t76 -68.5t40 -93h-65q-11 38 -32 66t-51.5 44t-69.5 16q-46 0 -85 -25t-62 -70.5t-23 -103.5t23 -103.5t62 -70.5t85 -25q39 0 69.5 15.5t51.5 44t32 66.5h65
q-10 -50 -40 -92.5t-76.5 -68.5t-101.5 -26zM251 -200q-15 0 -29 2.5t-24 5.5v41q9 -3 21.5 -4.5t23.5 -1.5q39 0 55 10t16 28q0 17 -15 27.5t-48 10.5q-18 0 -38 -4l41 100h45l-36 -77l-21 19h20q48 0 74 -21t26 -55q0 -38 -27.5 -59.5t-83.5 -21.5z" />
    <glyph glyph-name="egrave" unicode="&#xe8;" horiz-adv-x="537" 
d="M274 -10q-66 0 -119.5 33t-84.5 92t-31 135q0 74 31.5 133.5t85.5 93t118 33.5q63 0 114.5 -32.5t80.5 -88.5t29 -124q0 -14 -1 -25.5t-3 -21.5h-405v59h364l-25 -52q3 10 4 18t1 17q0 54 -20.5 97t-57 67.5t-81.5 24.5t-84.5 -25.5t-62.5 -71t-23 -102.5q0 -60 22 -105
t61 -69.5t89 -24.5q47 0 81.5 20t57.5 59h65q-15 -40 -45.5 -71.5t-72 -50t-88.5 -18.5zM257 560l-91 134h75l67 -134h-51z" />
    <glyph glyph-name="eacute" unicode="&#xe9;" horiz-adv-x="537" 
d="M274 -10q-66 0 -119.5 33t-84.5 92t-31 135q0 74 31.5 133.5t85.5 93t118 33.5q63 0 114.5 -32.5t80.5 -88.5t29 -124q0 -14 -1 -25.5t-3 -21.5h-405v59h364l-25 -52q3 10 4 18t1 17q0 54 -20.5 97t-57 67.5t-81.5 24.5t-84.5 -25.5t-62.5 -71t-23 -102.5q0 -60 22 -105
t61 -69.5t89 -24.5q47 0 81.5 20t57.5 59h65q-15 -40 -45.5 -71.5t-72 -50t-88.5 -18.5zM236 560l66 134h75l-90 -134h-51z" />
    <glyph glyph-name="ecircumflex" unicode="&#xea;" horiz-adv-x="537" 
d="M274 -10q-66 0 -119.5 33t-84.5 92t-31 135q0 74 31.5 133.5t85.5 93t118 33.5q63 0 114.5 -32.5t80.5 -88.5t29 -124q0 -14 -1 -25.5t-3 -21.5h-405v59h364l-25 -52q3 10 4 18t1 17q0 54 -20.5 97t-57 67.5t-81.5 24.5t-84.5 -25.5t-62.5 -71t-23 -102.5q0 -60 22 -105
t61 -69.5t89 -24.5q47 0 81.5 20t57.5 59h65q-15 -40 -45.5 -71.5t-72 -50t-88.5 -18.5zM140 560l102 134h60l102 -134h-68l-75 106h21l-76 -106h-66z" />
    <glyph glyph-name="edieresis" unicode="&#xeb;" horiz-adv-x="537" 
d="M274 -10q-66 0 -119.5 33t-84.5 92t-31 135q0 74 31.5 133.5t85.5 93t118 33.5q63 0 114.5 -32.5t80.5 -88.5t29 -124q0 -14 -1 -25.5t-3 -21.5h-405v59h364l-25 -52q3 10 4 18t1 17q0 54 -20.5 97t-57 67.5t-81.5 24.5t-84.5 -25.5t-62.5 -71t-23 -102.5q0 -60 22 -105
t61 -69.5t89 -24.5q47 0 81.5 20t57.5 59h65q-15 -40 -45.5 -71.5t-72 -50t-88.5 -18.5zM352 582q-18 0 -30.5 12.5t-12.5 30.5q0 19 12.5 31t30.5 12t30.5 -12.5t12.5 -30.5t-13 -30.5t-30 -12.5zM192 582q-17 0 -30 12.5t-13 30.5t12.5 30.5t30.5 12.5t30.5 -12t12.5 -31
q0 -18 -12.5 -30.5t-30.5 -12.5z" />
    <glyph glyph-name="igrave" unicode="&#xec;" horiz-adv-x="209" 
d="M72 0v500h65v-500h-65zM90 560l-91 134h75l67 -134h-51z" />
    <glyph glyph-name="iacute" unicode="&#xed;" horiz-adv-x="209" 
d="M72 0v500h65v-500h-65zM69 560l66 134h75l-90 -134h-51z" />
    <glyph glyph-name="icircumflex" unicode="&#xee;" horiz-adv-x="209" 
d="M72 0v500h65v-500h-65zM-27 560l102 134h60l102 -134h-68l-75 106h21l-76 -106h-66z" />
    <glyph glyph-name="idieresis" unicode="&#xef;" horiz-adv-x="209" 
d="M72 0v500h65v-500h-65zM167 582q-17 0 -30 12.5t-13 30.5t12.5 30.5t30.5 12.5t30.5 -12t12.5 -31q0 -18 -12.5 -30.5t-30.5 -12.5zM43 582q-17 0 -30 12.5t-13 30.5t12.5 30.5t30.5 12.5t30.5 -12t12.5 -31q0 -18 -12.5 -30.5t-30.5 -12.5z" />
    <glyph glyph-name="eth" unicode="&#xf0;" horiz-adv-x="560" 
d="M275 -10q-64 0 -118 32t-86 88.5t-32 126.5q0 69 31.5 126t84.5 89.5t114 32.5q41 0 73.5 -13.5t53 -31t29.5 -32.5h5q-30 99 -103 168.5t-183 101.5l21 57q102 -32 180 -96t122 -158.5t44 -210.5q0 -87 -31 -150.5t-85 -96.5t-120 -33zM275 51q45 0 84.5 23.5t63 66
t23.5 96.5q0 53 -23.5 96t-63 67t-84.5 24q-46 0 -85 -24t-62.5 -66.5t-23.5 -96.5t23.5 -96.5t62.5 -66t85 -23.5zM220 526l-35 46l230 163l35 -46z" />
    <glyph glyph-name="ntilde" unicode="&#xf1;" 
d="M72 0v500h48l17 -68h5q20 31 58.5 54.5t88.5 23.5q56 0 101.5 -27t71.5 -77t26 -116v-290h-65v290q0 49 -18 85t-49.5 55t-72.5 19q-43 0 -76 -19t-51.5 -55t-18.5 -85v-290h-65zM342 566q-23 0 -38.5 11t-33.5 31q-13 14 -21.5 20.5t-18.5 6.5q-16 0 -26.5 -16
t-10.5 -47h-50q0 58 24.5 87t60.5 29q23 0 38.5 -11t33.5 -31q13 -14 21.5 -20.5t18.5 -6.5q15 0 26 16.5t11 46.5h50q0 -58 -24.5 -87t-60.5 -29z" />
    <glyph glyph-name="ograve" unicode="&#xf2;" horiz-adv-x="548" 
d="M274 -10q-64 0 -118 33.5t-85.5 93t-31.5 133.5t31.5 133.5t85.5 93t118 33.5t118 -33.5t85.5 -93t31.5 -133.5t-31.5 -133.5t-85.5 -93t-118 -33.5zM274 51q46 0 85 25t62 70.5t23 103.5t-23 103.5t-62 70.5t-85 25t-85 -25t-62 -70.5t-23 -103.5t23 -103.5t62 -70.5
t85 -25zM259 560l-91 134h75l67 -134h-51z" />
    <glyph glyph-name="oacute" unicode="&#xf3;" horiz-adv-x="548" 
d="M274 -10q-64 0 -118 33.5t-85.5 93t-31.5 133.5t31.5 133.5t85.5 93t118 33.5t118 -33.5t85.5 -93t31.5 -133.5t-31.5 -133.5t-85.5 -93t-118 -33.5zM274 51q46 0 85 25t62 70.5t23 103.5t-23 103.5t-62 70.5t-85 25t-85 -25t-62 -70.5t-23 -103.5t23 -103.5t62 -70.5
t85 -25zM238 560l66 134h75l-90 -134h-51z" />
    <glyph glyph-name="ocircumflex" unicode="&#xf4;" horiz-adv-x="548" 
d="M274 -10q-64 0 -118 33.5t-85.5 93t-31.5 133.5t31.5 133.5t85.5 93t118 33.5t118 -33.5t85.5 -93t31.5 -133.5t-31.5 -133.5t-85.5 -93t-118 -33.5zM274 51q46 0 85 25t62 70.5t23 103.5t-23 103.5t-62 70.5t-85 25t-85 -25t-62 -70.5t-23 -103.5t23 -103.5t62 -70.5
t85 -25zM142 560l102 134h60l102 -134h-68l-75 106h21l-76 -106h-66z" />
    <glyph glyph-name="otilde" unicode="&#xf5;" horiz-adv-x="548" 
d="M274 -10q-64 0 -118 33.5t-85.5 93t-31.5 133.5t31.5 133.5t85.5 93t118 33.5t118 -33.5t85.5 -93t31.5 -133.5t-31.5 -133.5t-85.5 -93t-118 -33.5zM274 51q46 0 85 25t62 70.5t23 103.5t-23 103.5t-62 70.5t-85 25t-85 -25t-62 -70.5t-23 -103.5t23 -103.5t62 -70.5
t85 -25zM331 566q-23 0 -38.5 11t-33.5 31q-13 14 -21.5 20.5t-18.5 6.5q-16 0 -26.5 -16t-10.5 -47h-50q0 58 24.5 87t60.5 29q23 0 38.5 -11t33.5 -31q13 -14 21.5 -20.5t18.5 -6.5q15 0 26 16.5t11 46.5h50q0 -58 -24.5 -87t-60.5 -29z" />
    <glyph glyph-name="odieresis" unicode="&#xf6;" horiz-adv-x="548" 
d="M274 -10q-64 0 -118 33.5t-85.5 93t-31.5 133.5t31.5 133.5t85.5 93t118 33.5t118 -33.5t85.5 -93t31.5 -133.5t-31.5 -133.5t-85.5 -93t-118 -33.5zM274 51q46 0 85 25t62 70.5t23 103.5t-23 103.5t-62 70.5t-85 25t-85 -25t-62 -70.5t-23 -103.5t23 -103.5t62 -70.5
t85 -25zM354 582q-18 0 -30.5 12.5t-12.5 30.5q0 19 12.5 31t30.5 12t30.5 -12.5t12.5 -30.5t-13 -30.5t-30 -12.5zM194 582q-17 0 -30 12.5t-13 30.5t12.5 30.5t30.5 12.5t30.5 -12t12.5 -31q0 -18 -12.5 -30.5t-30.5 -12.5z" />
    <glyph glyph-name="divide" unicode="&#xf7;" horiz-adv-x="570" 
d="M78 330v61h414v-61h-414zM285 136q-22 0 -37 15t-15 37t15 37t37 15t37 -15t15 -37t-15 -37t-37 -15zM285 481q-22 0 -37 15t-15 37t15 37t37 15t37 -15t15 -37t-15 -37t-37 -15z" />
    <glyph glyph-name="oslash" unicode="&#xf8;" horiz-adv-x="548" 
d="M77 -5l-38 38l57 62l11 12l296 325l11 12l57 61l38 -38l-57 -62l-11 -12l-296 -324l-11 -12zM274 -10q-64 0 -118 33.5t-85.5 93t-31.5 133.5t31.5 133.5t85.5 93t118 33.5t118 -33.5t85.5 -93t31.5 -133.5t-31.5 -133.5t-85.5 -93t-118 -33.5zM274 51q46 0 85 25
t62 70.5t23 103.5t-23 103.5t-62 70.5t-85 25t-85 -25t-62 -70.5t-23 -103.5t23 -103.5t62 -70.5t85 -25z" />
    <glyph glyph-name="ugrave" unicode="&#xf9;" 
d="M266 -10q-56 0 -101.5 27t-71.5 77t-26 116v290h65v-290q0 -49 18 -85t49.5 -55t72.5 -19q43 0 76 19t51.5 55t18.5 85v290h65v-500h-48l-17 68h-5q-20 -31 -58.5 -54.5t-88.5 -23.5zM260 560l-91 134h75l67 -134h-51z" />
    <glyph glyph-name="uacute" unicode="&#xfa;" 
d="M266 -10q-56 0 -101.5 27t-71.5 77t-26 116v290h65v-290q0 -49 18 -85t49.5 -55t72.5 -19q43 0 76 19t51.5 55t18.5 85v290h65v-500h-48l-17 68h-5q-20 -31 -58.5 -54.5t-88.5 -23.5zM239 560l66 134h75l-90 -134h-51z" />
    <glyph glyph-name="ucircumflex" unicode="&#xfb;" 
d="M266 -10q-56 0 -101.5 27t-71.5 77t-26 116v290h65v-290q0 -49 18 -85t49.5 -55t72.5 -19q43 0 76 19t51.5 55t18.5 85v290h65v-500h-48l-17 68h-5q-20 -31 -58.5 -54.5t-88.5 -23.5zM143 560l102 134h60l102 -134h-68l-75 106h21l-76 -106h-66z" />
    <glyph glyph-name="udieresis" unicode="&#xfc;" 
d="M266 -10q-56 0 -101.5 27t-71.5 77t-26 116v290h65v-290q0 -49 18 -85t49.5 -55t72.5 -19q43 0 76 19t51.5 55t18.5 85v290h65v-500h-48l-17 68h-5q-20 -31 -58.5 -54.5t-88.5 -23.5zM355 582q-18 0 -30.5 12.5t-12.5 30.5q0 19 12.5 31t30.5 12t30.5 -12.5t12.5 -30.5
t-13 -30.5t-30 -12.5zM195 582q-17 0 -30 12.5t-13 30.5t12.5 30.5t30.5 12.5t30.5 -12t12.5 -31q0 -18 -12.5 -30.5t-30.5 -12.5z" />
    <glyph glyph-name="yacute" unicode="&#xfd;" horiz-adv-x="474" 
d="M111 -185q-11 0 -21 2.5t-18 5.5v59q8 -3 15.5 -4.5t15.5 -1.5q24 0 42.5 15t33.5 52l36 89v-42l-208 510h70l174 -434h-22l170 434h68l-221 -550q-22 -54 -43.5 -83.5t-43 -40.5t-48.5 -11zM202 560l66 134h75l-90 -134h-51z" />
    <glyph glyph-name="thorn" unicode="&#xfe;" horiz-adv-x="576" 
d="M77 -180v880h65v-268h5q10 14 32.5 32t56 32t71.5 14q63 0 115.5 -33t83.5 -92.5t31 -134.5t-31 -134.5t-83.5 -92.5t-115.5 -33q-38 0 -71.5 14t-56.5 32t-32 32h-5v-248h-65zM307 51q45 0 83 25t60 70.5t22 103.5t-22 103.5t-60 70.5t-83 25t-83 -25t-60 -70.5
t-22 -103.5t22 -103.5t60 -70.5t83 -25z" />
    <glyph glyph-name="ydieresis" unicode="&#xff;" horiz-adv-x="474" 
d="M111 -185q-11 0 -21 2.5t-18 5.5v59q8 -3 15.5 -4.5t15.5 -1.5q24 0 42.5 15t33.5 52l36 89v-42l-208 510h70l174 -434h-22l170 434h68l-221 -550q-22 -54 -43.5 -83.5t-43 -40.5t-48.5 -11zM318 582q-18 0 -30.5 12.5t-12.5 30.5q0 19 12.5 31t30.5 12t30.5 -12.5
t12.5 -30.5t-13 -30.5t-30 -12.5zM158 582q-17 0 -30 12.5t-13 30.5t12.5 30.5t30.5 12.5t30.5 -12t12.5 -31q0 -18 -12.5 -30.5t-30.5 -12.5z" />
    <glyph glyph-name="Amacron" unicode="&#x100;" horiz-adv-x="607" 
d="M5 0l266 700h65l266 -700h-75l-75 200l-9 24l-153 408h24l-153 -408l-9 -24l-75 -200h-72zM119 178l26 65h318l26 -65h-370zM177 792v55h254v-55h-254z" />
    <glyph glyph-name="amacron" unicode="&#x101;" horiz-adv-x="497" 
d="M206 -10q-50 0 -87.5 20.5t-58 54.5t-20.5 75q0 45 27.5 80.5t77 55.5t113.5 20h123v-59h-113q-77 0 -120 -25.5t-43 -71.5q0 -40 28 -64.5t80 -24.5q46 0 80.5 18.5t53 51t18.5 73.5v131q0 37 -15 65t-42.5 43.5t-62.5 15.5q-51 0 -80.5 -26t-37.5 -68h-65
q5 42 29.5 77.5t64.5 56.5t89 21q53 0 95 -23.5t66 -65.5t24 -96v-325h-48l-17 68h-5q-19 -30 -58.5 -54t-95.5 -24zM123 600v53h248v-53h-248z" />
    <glyph glyph-name="Abreve" unicode="&#x102;" horiz-adv-x="607" 
d="M5 0l266 700h65l266 -700h-75l-75 200l-9 24l-153 408h24l-153 -408l-9 -24l-75 -200h-72zM119 178l26 65h318l26 -65h-370zM304 760q-40 0 -69.5 16.5t-45.5 43.5t-18 59h54q4 -33 24 -51.5t55 -18.5t55 18.5t24 51.5h54q-2 -32 -18 -59t-45.5 -43.5t-69.5 -16.5z" />
    <glyph glyph-name="abreve" unicode="&#x103;" horiz-adv-x="497" 
d="M206 -10q-50 0 -87.5 20.5t-58 54.5t-20.5 75q0 45 27.5 80.5t77 55.5t113.5 20h123v-59h-113q-77 0 -120 -25.5t-43 -71.5q0 -40 28 -64.5t80 -24.5q46 0 80.5 18.5t53 51t18.5 73.5v131q0 37 -15 65t-42.5 43.5t-62.5 15.5q-51 0 -80.5 -26t-37.5 -68h-65
q5 42 29.5 77.5t64.5 56.5t89 21q53 0 95 -23.5t66 -65.5t24 -96v-325h-48l-17 68h-5q-19 -30 -58.5 -54t-95.5 -24zM247 566q-39 0 -68 16.5t-45 44.5t-18 61h54q4 -35 23.5 -54t53.5 -19t53.5 19t23.5 54h54q-2 -33 -18 -61t-45 -44.5t-68 -16.5z" />
    <glyph glyph-name="Aogonek" unicode="&#x104;" horiz-adv-x="607" 
d="M5 0l266 700h65l266 -700h-75l-75 200l-9 24l-153 408h24l-153 -408l-9 -24l-75 -200h-72zM119 178l26 65h318l26 -65h-370zM563 -200q-42 0 -68 23t-26 62t26 72.5t63 51.5l-5 -20v24l49 -13q-41 -24 -63 -51.5t-22 -55.5q0 -23 14.5 -36.5t39.5 -13.5q16 0 31 5v-43
q-15 -5 -39 -5z" />
    <glyph glyph-name="aogonek" unicode="&#x105;" horiz-adv-x="497" 
d="M206 -10q-50 0 -87.5 20.5t-58 54.5t-20.5 75q0 45 27.5 80.5t77 55.5t113.5 20h123v-59h-113q-77 0 -120 -25.5t-43 -71.5q0 -40 28 -64.5t80 -24.5q46 0 80.5 18.5t53 51t18.5 73.5v131q0 37 -15 65t-42.5 43.5t-62.5 15.5q-51 0 -80.5 -26t-37.5 -68h-65
q5 42 29.5 77.5t64.5 56.5t89 21q53 0 95 -23.5t66 -65.5t24 -96v-325h-48l-17 68h-5q-19 -30 -58.5 -54t-95.5 -24zM391 -200q-42 0 -68 23t-26 62t26 72.5t63 51.5l-5 -20v24l49 -13q-41 -24 -63 -51.5t-22 -55.5q0 -23 14.5 -36.5t39.5 -13.5q16 0 31 5v-43
q-15 -5 -39 -5z" />
    <glyph glyph-name="Cacute" unicode="&#x106;" horiz-adv-x="704" 
d="M368 -10q-86 0 -160.5 47t-119 129.5t-44.5 183.5t44.5 183.5t119 129.5t160.5 47q70 0 130.5 -32t102.5 -87.5t59 -124.5h-70q-17 51 -47.5 91.5t-75 64t-99.5 23.5q-67 0 -125.5 -37.5t-93.5 -105t-35 -152.5t35 -152.5t93.5 -105t125.5 -37.5q84 0 142.5 50t84.5 129
h70q-17 -69 -59.5 -124.5t-104 -87.5t-133.5 -32zM328 755l70 128h78l-94 -128h-54z" />
    <glyph glyph-name="cacute" unicode="&#x107;" horiz-adv-x="526" 
d="M274 -10q-64 0 -118 33.5t-85.5 93t-31.5 133.5t31.5 133.5t85.5 93t118 33.5q56 0 102 -25.5t76 -68.5t40 -93h-65q-11 38 -32 66t-51.5 44t-69.5 16q-46 0 -85 -25t-62 -70.5t-23 -103.5t23 -103.5t62 -70.5t85 -25q39 0 69.5 15.5t51.5 44t32 66.5h65
q-10 -50 -40 -92.5t-76.5 -68.5t-101.5 -26zM238 560l66 134h75l-90 -134h-51z" />
    <glyph glyph-name="Ccircumflex" unicode="&#x108;" horiz-adv-x="704" 
d="M368 -10q-86 0 -160.5 47t-119 129.5t-44.5 183.5t44.5 183.5t119 129.5t160.5 47q70 0 130.5 -32t102.5 -87.5t59 -124.5h-70q-17 51 -47.5 91.5t-75 64t-99.5 23.5q-67 0 -125.5 -37.5t-93.5 -105t-35 -152.5t35 -152.5t93.5 -105t125.5 -37.5q84 0 142.5 50t84.5 129
h70q-17 -69 -59.5 -124.5t-104 -87.5t-133.5 -32zM230 755l105 128h63l104 -128h-68l-77 95h16l-76 -95h-67z" />
    <glyph glyph-name="ccircumflex" unicode="&#x109;" horiz-adv-x="526" 
d="M274 -10q-64 0 -118 33.5t-85.5 93t-31.5 133.5t31.5 133.5t85.5 93t118 33.5q56 0 102 -25.5t76 -68.5t40 -93h-65q-11 38 -32 66t-51.5 44t-69.5 16q-46 0 -85 -25t-62 -70.5t-23 -103.5t23 -103.5t62 -70.5t85 -25q39 0 69.5 15.5t51.5 44t32 66.5h65
q-10 -50 -40 -92.5t-76.5 -68.5t-101.5 -26zM142 560l102 134h60l102 -134h-68l-75 106h21l-76 -106h-66z" />
    <glyph glyph-name="Cdotaccent" unicode="&#x10a;" horiz-adv-x="704" 
d="M368 -10q-86 0 -160.5 47t-119 129.5t-44.5 183.5t44.5 183.5t119 129.5t160.5 47q70 0 130.5 -32t102.5 -87.5t59 -124.5h-70q-17 51 -47.5 91.5t-75 64t-99.5 23.5q-67 0 -125.5 -37.5t-93.5 -105t-35 -152.5t35 -152.5t93.5 -105t125.5 -37.5q84 0 142.5 50t84.5 129
h70q-17 -69 -59.5 -124.5t-104 -87.5t-133.5 -32zM366 774q-19 0 -32 13t-13 32q0 13 6 23.5t16.5 16t22.5 5.5q20 0 32.5 -12.5t12.5 -32.5q0 -13 -6 -23t-16 -16t-23 -6z" />
    <glyph glyph-name="cdotaccent" unicode="&#x10b;" horiz-adv-x="526" 
d="M274 -10q-64 0 -118 33.5t-85.5 93t-31.5 133.5t31.5 133.5t85.5 93t118 33.5q56 0 102 -25.5t76 -68.5t40 -93h-65q-11 38 -32 66t-51.5 44t-69.5 16q-46 0 -85 -25t-62 -70.5t-23 -103.5t23 -103.5t62 -70.5t85 -25q39 0 69.5 15.5t51.5 44t32 66.5h65
q-10 -50 -40 -92.5t-76.5 -68.5t-101.5 -26zM274 580q-19 0 -32 13t-13 32q0 13 6 23.5t16.5 16t22.5 5.5q20 0 32.5 -12.5t12.5 -32.5q0 -13 -6 -23t-16 -16t-23 -6z" />
    <glyph glyph-name="Ccaron" unicode="&#x10c;" horiz-adv-x="704" 
d="M368 -10q-86 0 -160.5 47t-119 129.5t-44.5 183.5t44.5 183.5t119 129.5t160.5 47q70 0 130.5 -32t102.5 -87.5t59 -124.5h-70q-17 51 -47.5 91.5t-75 64t-99.5 23.5q-67 0 -125.5 -37.5t-93.5 -105t-35 -152.5t35 -152.5t93.5 -105t125.5 -37.5q84 0 142.5 50t84.5 129
h70q-17 -69 -59.5 -124.5t-104 -87.5t-133.5 -32zM335 755l-105 128h67l76 -95h-16l77 95h68l-104 -128h-63z" />
    <glyph glyph-name="ccaron" unicode="&#x10d;" horiz-adv-x="526" 
d="M274 -10q-64 0 -118 33.5t-85.5 93t-31.5 133.5t31.5 133.5t85.5 93t118 33.5q56 0 102 -25.5t76 -68.5t40 -93h-65q-11 38 -32 66t-51.5 44t-69.5 16q-46 0 -85 -25t-62 -70.5t-23 -103.5t23 -103.5t62 -70.5t85 -25q39 0 69.5 15.5t51.5 44t32 66.5h65
q-10 -50 -40 -92.5t-76.5 -68.5t-101.5 -26zM244 560l-102 134h66l76 -106h-21l75 106h68l-102 -134h-60z" />
    <glyph glyph-name="Dcaron" unicode="&#x10e;" horiz-adv-x="654" 
d="M89 0v700h178q95 0 173.5 -45t124 -125t45.5 -180t-45.5 -180t-124 -125t-173.5 -45h-178zM267 65q74 0 136.5 37t99.5 102t37 146t-37 146t-99.5 102t-136.5 37h-108v-570h108zM294 755l-105 128h67l76 -95h-16l77 95h68l-104 -128h-63z" />
    <glyph glyph-name="dcaron" unicode="&#x10f;" horiz-adv-x="576" 
d="M269 -10q-63 0 -115.5 33t-83.5 92.5t-31 134.5t31 134.5t83.5 92.5t115.5 33q38 0 71.5 -14t56.5 -32t32 -32h5v268h65v-700h-48l-17 68h-5q-10 -14 -32.5 -32t-56 -32t-71.5 -14zM269 51q45 0 83 25t60 70.5t22 103.5t-22 103.5t-60 70.5t-83 25t-83 -25t-60 -70.5
t-22 -103.5t22 -103.5t60 -70.5t83 -25zM539 560l32 140h69l-61 -140h-40z" />
    <glyph glyph-name="Dcroat" unicode="&#x110;" horiz-adv-x="680" 
d="M20 319v63h320v-63h-320zM115 0v700h178q95 0 173.5 -45t124 -125t45.5 -180t-45.5 -180t-124 -125t-173.5 -45h-178zM185 65h108q74 0 136.5 37t99.5 102t37 146t-37 146t-99.5 102t-136.5 37h-108v-570z" />
    <glyph glyph-name="dcroat" unicode="&#x111;" horiz-adv-x="589" 
d="M269 -10q-65 0 -117.5 32.5t-82.5 90t-30 129.5t30 130t82.5 90.5t117.5 32.5q58 0 100.5 -26.5t59.5 -51.5h5v283h65v-700h-48l-17 68h-5q-10 -14 -31.5 -32t-55 -32t-73.5 -14zM269 51q47 0 84.5 24.5t59 68t21.5 98.5t-21.5 99t-59 68.5t-84.5 24.5t-84.5 -24.5
t-59 -68.5t-21.5 -99t21.5 -98.5t59 -68t84.5 -24.5zM259 558v59h320v-59h-320z" />
    <glyph glyph-name="Emacron" unicode="&#x112;" horiz-adv-x="577" 
d="M89 0v700h433v-65h-363v-570h373v-65h-443zM133 328v65h351v-65h-351zM179 792v55h254v-55h-254z" />
    <glyph glyph-name="emacron" unicode="&#x113;" horiz-adv-x="537" 
d="M274 -10q-66 0 -119.5 33t-84.5 92t-31 135q0 74 31.5 133.5t85.5 93t118 33.5q63 0 114.5 -32.5t80.5 -88.5t29 -124q0 -14 -1 -25.5t-3 -21.5h-405v59h364l-25 -52q3 10 4 18t1 17q0 54 -20.5 97t-57 67.5t-81.5 24.5t-84.5 -25.5t-62.5 -71t-23 -102.5q0 -60 22 -105
t61 -69.5t89 -24.5q47 0 81.5 20t57.5 59h65q-15 -40 -45.5 -71.5t-72 -50t-88.5 -18.5zM148 600v53h248v-53h-248z" />
    <glyph glyph-name="Ebreve" unicode="&#x114;" horiz-adv-x="577" 
d="M89 0v700h433v-65h-363v-570h373v-65h-443zM133 328v65h351v-65h-351zM306 760q-40 0 -69.5 16.5t-45.5 43.5t-18 59h54q4 -33 24 -51.5t55 -18.5t55 18.5t24 51.5h54q-2 -32 -18 -59t-45.5 -43.5t-69.5 -16.5z" />
    <glyph glyph-name="ebreve" unicode="&#x115;" horiz-adv-x="537" 
d="M274 -10q-66 0 -119.5 33t-84.5 92t-31 135q0 74 31.5 133.5t85.5 93t118 33.5q63 0 114.5 -32.5t80.5 -88.5t29 -124q0 -14 -1 -25.5t-3 -21.5h-405v59h364l-25 -52q3 10 4 18t1 17q0 54 -20.5 97t-57 67.5t-81.5 24.5t-84.5 -25.5t-62.5 -71t-23 -102.5q0 -60 22 -105
t61 -69.5t89 -24.5q47 0 81.5 20t57.5 59h65q-15 -40 -45.5 -71.5t-72 -50t-88.5 -18.5zM272 566q-39 0 -68 16.5t-45 44.5t-18 61h54q4 -35 23.5 -54t53.5 -19t53.5 19t23.5 54h54q-2 -33 -18 -61t-45 -44.5t-68 -16.5z" />
    <glyph glyph-name="Edotaccent" unicode="&#x116;" horiz-adv-x="577" 
d="M89 0v700h433v-65h-363v-570h373v-65h-443zM133 328v65h351v-65h-351zM306 774q-19 0 -32 13t-13 32q0 13 6 23.5t16.5 16t22.5 5.5q20 0 32.5 -12.5t12.5 -32.5q0 -13 -6 -23t-16 -16t-23 -6z" />
    <glyph glyph-name="edotaccent" unicode="&#x117;" horiz-adv-x="537" 
d="M274 -10q-66 0 -119.5 33t-84.5 92t-31 135q0 74 31.5 133.5t85.5 93t118 33.5q63 0 114.5 -32.5t80.5 -88.5t29 -124q0 -14 -1 -25.5t-3 -21.5h-405v59h364l-25 -52q3 10 4 18t1 17q0 54 -20.5 97t-57 67.5t-81.5 24.5t-84.5 -25.5t-62.5 -71t-23 -102.5q0 -60 22 -105
t61 -69.5t89 -24.5q47 0 81.5 20t57.5 59h65q-15 -40 -45.5 -71.5t-72 -50t-88.5 -18.5zM272 580q-19 0 -32 13t-13 32q0 13 6 23.5t16.5 16t22.5 5.5q20 0 32.5 -12.5t12.5 -32.5q0 -13 -6 -23t-16 -16t-23 -6z" />
    <glyph glyph-name="Eogonek" unicode="&#x118;" horiz-adv-x="577" 
d="M89 0v700h433v-65h-363v-570h373v-65h-443zM133 328v65h351v-65h-351zM493 -200q-42 0 -68 23t-26 62t26 72.5t63 51.5l-5 -20v24l49 -13q-41 -24 -63 -51.5t-22 -55.5q0 -23 14.5 -36.5t39.5 -13.5q16 0 31 5v-43q-15 -5 -39 -5z" />
    <glyph glyph-name="eogonek" unicode="&#x119;" horiz-adv-x="537" 
d="M364 -200q-42 0 -68 23t-26 62q0 45 24.5 80.5t64.5 63.5l6 -20q-21 -10 -44 -14.5t-47 -4.5q-66 0 -119.5 33t-84.5 92t-31 135q0 74 31.5 133.5t85.5 93t118 33.5q63 0 114.5 -32.5t80.5 -88.5t29 -124q0 -14 -1 -25.5t-3 -21.5h-405v59h364l-25 -52q3 10 4 18t1 17
q0 54 -20.5 97t-57 67.5t-81.5 24.5t-84.5 -25.5t-62.5 -71t-23 -102.5q0 -60 22 -105t61 -69.5t89 -24.5q47 0 81.5 20t57.5 59h65q-9 -25 -26.5 -49t-45.5 -50q-42 -38 -66 -71.5t-24 -66.5q0 -23 14.5 -36.5t39.5 -13.5q16 0 31 5v-42q-18 -6 -39 -6z" />
    <glyph glyph-name="Ecaron" unicode="&#x11a;" horiz-adv-x="577" 
d="M89 0v700h433v-65h-363v-570h373v-65h-443zM133 328v65h351v-65h-351zM275 755l-105 128h67l76 -95h-16l77 95h68l-104 -128h-63z" />
    <glyph glyph-name="ecaron" unicode="&#x11b;" horiz-adv-x="537" 
d="M274 -10q-66 0 -119.5 33t-84.5 92t-31 135q0 74 31.5 133.5t85.5 93t118 33.5q63 0 114.5 -32.5t80.5 -88.5t29 -124q0 -14 -1 -25.5t-3 -21.5h-405v59h364l-25 -52q3 10 4 18t1 17q0 54 -20.5 97t-57 67.5t-81.5 24.5t-84.5 -25.5t-62.5 -71t-23 -102.5q0 -60 22 -105
t61 -69.5t89 -24.5q47 0 81.5 20t57.5 59h65q-15 -40 -45.5 -71.5t-72 -50t-88.5 -18.5zM242 560l-102 134h66l76 -106h-21l75 106h68l-102 -134h-60z" />
    <glyph glyph-name="Gcircumflex" unicode="&#x11c;" horiz-adv-x="743" 
d="M368 -10q-86 0 -160.5 47t-119 129.5t-44.5 183.5t44.5 183.5t119 129.5t160.5 47q69 0 130.5 -29.5t104 -81t57.5 -113.5h-70q-26 70 -83 114.5t-139 44.5q-67 0 -125.5 -37.5t-93.5 -105t-35 -152.5t35 -152.5t93.5 -105t125.5 -37.5q65 0 118.5 30.5t84 84.5t30.5 122
l14 -13h-224v63h280v-342h-49l-22 156h30q-16 -40 -52.5 -78t-90.5 -63t-119 -25zM231 755l105 128h63l104 -128h-68l-77 95h16l-76 -95h-67z" />
    <glyph glyph-name="gcircumflex" unicode="&#x11d;" horiz-adv-x="559" 
d="M273 -190q-53 0 -97.5 18.5t-74 52.5t-40.5 80h65q14 -42 52.5 -66t94.5 -24q67 0 108 40t41 106v79h-5q-9 -14 -31 -32.5t-54 -32.5t-69 -14q-61 0 -112.5 32t-81.5 88.5t-30 125.5q0 70 30 126.5t81.5 88.5t112.5 32q37 0 69 -13.5t54 -32t31 -32.5h5l17 68h48v-483
q0 -61 -27 -108t-75.5 -73t-111.5 -26zM263 78q42 0 78.5 24t58.5 66.5t22 94.5q0 53 -22 95.5t-58.5 66.5t-78.5 24q-43 0 -79.5 -24t-58 -66.5t-21.5 -95.5q0 -52 21.5 -94.5t58 -66.5t79.5 -24zM146 560l102 134h60l102 -134h-68l-75 106h21l-76 -106h-66z" />
    <glyph glyph-name="Gbreve" unicode="&#x11e;" horiz-adv-x="743" 
d="M368 -10q-86 0 -160.5 47t-119 129.5t-44.5 183.5t44.5 183.5t119 129.5t160.5 47q69 0 130.5 -29.5t104 -81t57.5 -113.5h-70q-26 70 -83 114.5t-139 44.5q-67 0 -125.5 -37.5t-93.5 -105t-35 -152.5t35 -152.5t93.5 -105t125.5 -37.5q65 0 118.5 30.5t84 84.5t30.5 122
l14 -13h-224v63h280v-342h-49l-22 156h30q-16 -40 -52.5 -78t-90.5 -63t-119 -25zM367 760q-40 0 -69.5 16.5t-45.5 43.5t-18 59h54q4 -33 24 -51.5t55 -18.5t55 18.5t24 51.5h54q-2 -32 -18 -59t-45.5 -43.5t-69.5 -16.5z" />
    <glyph glyph-name="gbreve" unicode="&#x11f;" horiz-adv-x="559" 
d="M273 -190q-53 0 -97.5 18.5t-74 52.5t-40.5 80h65q14 -42 52.5 -66t94.5 -24q67 0 108 40t41 106v79h-5q-9 -14 -31 -32.5t-54 -32.5t-69 -14q-61 0 -112.5 32t-81.5 88.5t-30 125.5q0 70 30 126.5t81.5 88.5t112.5 32q37 0 69 -13.5t54 -32t31 -32.5h5l17 68h48v-483
q0 -61 -27 -108t-75.5 -73t-111.5 -26zM263 78q42 0 78.5 24t58.5 66.5t22 94.5q0 53 -22 95.5t-58.5 66.5t-78.5 24q-43 0 -79.5 -24t-58 -66.5t-21.5 -95.5q0 -52 21.5 -94.5t58 -66.5t79.5 -24zM278 566q-39 0 -68 16.5t-45 44.5t-18 61h54q4 -35 23.5 -54t53.5 -19
t53.5 19t23.5 54h54q-2 -33 -18 -61t-45 -44.5t-68 -16.5z" />
    <glyph glyph-name="Gdotaccent" unicode="&#x120;" horiz-adv-x="743" 
d="M368 -10q-86 0 -160.5 47t-119 129.5t-44.5 183.5t44.5 183.5t119 129.5t160.5 47q69 0 130.5 -29.5t104 -81t57.5 -113.5h-70q-26 70 -83 114.5t-139 44.5q-67 0 -125.5 -37.5t-93.5 -105t-35 -152.5t35 -152.5t93.5 -105t125.5 -37.5q65 0 118.5 30.5t84 84.5t30.5 122
l14 -13h-224v63h280v-342h-49l-22 156h30q-16 -40 -52.5 -78t-90.5 -63t-119 -25zM367 774q-19 0 -32 13t-13 32q0 13 6 23.5t16.5 16t22.5 5.5q20 0 32.5 -12.5t12.5 -32.5q0 -13 -6 -23t-16 -16t-23 -6z" />
    <glyph glyph-name="gdotaccent" unicode="&#x121;" horiz-adv-x="559" 
d="M273 -190q-53 0 -97.5 18.5t-74 52.5t-40.5 80h65q14 -42 52.5 -66t94.5 -24q67 0 108 40t41 106v79h-5q-9 -14 -31 -32.5t-54 -32.5t-69 -14q-61 0 -112.5 32t-81.5 88.5t-30 125.5q0 70 30 126.5t81.5 88.5t112.5 32q37 0 69 -13.5t54 -32t31 -32.5h5l17 68h48v-483
q0 -61 -27 -108t-75.5 -73t-111.5 -26zM263 78q42 0 78.5 24t58.5 66.5t22 94.5q0 53 -22 95.5t-58.5 66.5t-78.5 24q-43 0 -79.5 -24t-58 -66.5t-21.5 -95.5q0 -52 21.5 -94.5t58 -66.5t79.5 -24zM278 580q-19 0 -32 13t-13 32q0 13 6 23.5t16.5 16t22.5 5.5
q20 0 32.5 -12.5t12.5 -32.5q0 -13 -6 -23t-16 -16t-23 -6z" />
    <glyph glyph-name="uni0122" unicode="&#x122;" horiz-adv-x="743" 
d="M368 -10q-86 0 -160.5 47t-119 129.5t-44.5 183.5t44.5 183.5t119 129.5t160.5 47q69 0 130.5 -29.5t104 -81t57.5 -113.5h-70q-26 70 -83 114.5t-139 44.5q-67 0 -125.5 -37.5t-93.5 -105t-35 -152.5t35 -152.5t93.5 -105t125.5 -37.5q65 0 118.5 30.5t84 84.5t30.5 122
l14 -13h-224v63h280v-342h-49l-22 156h30q-16 -40 -52.5 -78t-90.5 -63t-119 -25zM335 -252q12 12 22.5 35t10.5 54l16 -8q-8 -3 -15 -3q-19 0 -34 13t-15 34t14.5 34t32.5 13q23 0 37 -16t14 -44t-11.5 -54t-27 -45.5t-29.5 -30.5z" />
    <glyph glyph-name="uni0123" unicode="&#x123;" horiz-adv-x="559" 
d="M273 -190q-53 0 -97.5 18.5t-74 52.5t-40.5 80h65q14 -42 52.5 -66t94.5 -24q67 0 108 40t41 106v79h-5q-9 -14 -31 -32.5t-54 -32.5t-69 -14q-61 0 -112.5 32t-81.5 88.5t-30 125.5q0 70 30 126.5t81.5 88.5t112.5 32q37 0 69 -13.5t54 -32t31 -32.5h5l17 68h48v-483
q0 -61 -27 -108t-75.5 -73t-111.5 -26zM263 78q42 0 78.5 24t58.5 66.5t22 94.5q0 53 -22 95.5t-58.5 66.5t-78.5 24q-43 0 -79.5 -24t-58 -66.5t-21.5 -95.5q0 -52 21.5 -94.5t58 -66.5t79.5 -24zM280 560q-23 0 -37 16t-14 44q0 29 12 54t28.5 43.5t32.5 29.5l14 -18
q-15 -12 -26 -33t-11 -52l-16 7q8 3 15 3q19 0 34 -13t15 -34t-14.5 -34t-32.5 -13z" />
    <glyph glyph-name="Hcircumflex" unicode="&#x124;" horiz-adv-x="680" 
d="M521 0v700h70v-700h-70zM89 0v700h70v-700h-70zM143 325v65h394v-65h-394zM204 755l105 128h63l104 -128h-68l-77 95h16l-76 -95h-67z" />
    <glyph glyph-name="hcircumflex" unicode="&#x125;" horiz-adv-x="560" 
d="M77 0v700h65v-268h5q12 19 33 36.5t50 29.5t64 12q56 0 101.5 -27t71.5 -77t26 -116v-290h-65v290q0 49 -18 85t-49.5 55t-72.5 19q-43 0 -76 -19t-51.5 -55t-18.5 -85v-290h-65zM150 755l105 128h63l104 -128h-68l-77 95h16l-76 -95h-67z" />
    <glyph glyph-name="Hbar" unicode="&#x126;" horiz-adv-x="732" 
d="M20 517v63h104h10h463h10h105v-63h-105h-10h-463h-10h-104zM547 0v700h70v-700h-70zM115 0v700h70v-700h-70zM169 325v65h394v-65h-394z" />
    <glyph glyph-name="hbar" unicode="&#x127;" horiz-adv-x="573" 
d="M90 0v700h65v-283h5q12 19 33 36.5t50 29.5t64 12q56 0 101.5 -27t71.5 -77t26 -116v-275h-65v275q0 49 -18 85t-49.5 55t-72.5 19q-43 0 -76 -19t-51.5 -55t-18.5 -85v-275h-65zM10 558v59h320v-59h-320z" />
    <glyph glyph-name="Itilde" unicode="&#x128;" horiz-adv-x="248" 
d="M89 0v700h70v-700h-70zM182 762q-23 0 -39 10t-34 28q-14 13 -22.5 19t-18.5 6q-17 0 -28 -15t-11 -42h-50q0 53 25.5 81.5t61.5 28.5q23 0 39 -10t34 -28q14 -13 22.5 -19t18.5 -6q17 0 28 15t11 42h50q0 -53 -26 -81.5t-61 -28.5z" />
    <glyph glyph-name="itilde" unicode="&#x129;" horiz-adv-x="209" 
d="M72 0v500h65v-500h-65zM162 566q-23 0 -38.5 11t-33.5 31q-13 14 -21.5 20.5t-18.5 6.5q-16 0 -26.5 -16t-10.5 -47h-50q0 58 24.5 87t60.5 29q23 0 38.5 -11t33.5 -31q13 -14 21.5 -20.5t18.5 -6.5q15 0 26 16.5t11 46.5h50q0 -58 -24.5 -87t-60.5 -29z" />
    <glyph glyph-name="Imacron" unicode="&#x12a;" horiz-adv-x="248" 
d="M89 0v700h70v-700h-70zM-3 792v55h254v-55h-254z" />
    <glyph glyph-name="imacron" unicode="&#x12b;" horiz-adv-x="209" 
d="M72 0v500h65v-500h-65zM-19 600v53h248v-53h-248z" />
    <glyph glyph-name="Ibreve" unicode="&#x12c;" horiz-adv-x="248" 
d="M89 0v700h70v-700h-70zM124 760q-40 0 -69.5 16.5t-45.5 43.5t-18 59h54q4 -33 24 -51.5t55 -18.5t55 18.5t24 51.5h54q-2 -32 -18 -59t-45.5 -43.5t-69.5 -16.5z" />
    <glyph glyph-name="ibreve" unicode="&#x12d;" horiz-adv-x="209" 
d="M72 0v500h65v-500h-65zM105 566q-39 0 -68 16.5t-45 44.5t-18 61h54q4 -35 23.5 -54t53.5 -19t53.5 19t23.5 54h54q-2 -33 -18 -61t-45 -44.5t-68 -16.5z" />
    <glyph glyph-name="Iogonek" unicode="&#x12e;" horiz-adv-x="248" 
d="M89 0v700h70v-700h-70zM128 -200q-37 0 -62 23t-25 63t24 73.5t55 47.5l-1 -15v21l40 -13q-33 -24 -51.5 -51.5t-18.5 -56.5q0 -24 12 -36.5t33 -12.5q13 0 25 4v-42q-17 -5 -31 -5z" />
    <glyph glyph-name="iogonek" unicode="&#x12f;" horiz-adv-x="209" 
d="M72 0v500h65v-500h-65zM105 580q-19 0 -32 13t-13 32q0 13 6 23.5t16.5 16t22.5 5.5q20 0 32.5 -12.5t12.5 -32.5q0 -13 -6 -23t-16 -16t-23 -6zM99 -200q-37 0 -62 23t-25 63t24 73.5t55 47.5l-1 -15v21l40 -13q-33 -24 -51.5 -51.5t-18.5 -56.5q0 -24 12 -36.5
t33 -12.5q13 0 25 4v-42q-17 -5 -31 -5z" />
    <glyph glyph-name="Idotaccent" unicode="&#x130;" horiz-adv-x="248" 
d="M89 0v700h70v-700h-70zM124 774q-19 0 -32 13t-13 32q0 13 6 23.5t16.5 16t22.5 5.5q20 0 32.5 -12.5t12.5 -32.5q0 -13 -6 -23t-16 -16t-23 -6z" />
    <glyph glyph-name="dotlessi" unicode="&#x131;" horiz-adv-x="209" 
d="M72 0v500h65v-500h-65z" />
    <glyph glyph-name="IJ" unicode="&#x132;" horiz-adv-x="773" 
d="M89 0v700h70v-700h-70zM478 -10q-62 0 -110.5 27.5t-75.5 73t-27 98.5h70q0 -34 18.5 -65t51 -50t73.5 -19q42 0 74 18.5t49.5 51.5t17.5 76v499h70v-499q0 -62 -26 -110t-74 -74.5t-111 -26.5z" />
    <glyph glyph-name="ij" unicode="&#x133;" horiz-adv-x="418" 
d="M72 0v500h65v-500h-65zM105 580q-19 0 -32 13t-13 32q0 13 6 23.5t16.5 16t22.5 5.5q20 0 32.5 -12.5t12.5 -32.5q0 -13 -6 -23t-16 -16t-23 -6zM208 -185q-14 0 -25 2.5t-19 5.5v59q16 -6 34 -6q39 0 61 24.5t22 73.5v526h65v-526q0 -74 -38.5 -116.5t-99.5 -42.5z
M314 580q-19 0 -32 13t-13 32q0 13 6 23.5t16.5 16t22.5 5.5q20 0 32.5 -12.5t12.5 -32.5q0 -13 -6 -23t-16 -16t-23 -6z" />
    <glyph glyph-name="Jcircumflex" unicode="&#x134;" horiz-adv-x="525" 
d="M230 -10q-62 0 -110.5 27.5t-75.5 73t-27 98.5h70q0 -34 18.5 -65t51 -50t73.5 -19q42 0 74 18.5t49.5 51.5t17.5 76v499h70v-499q0 -62 -26 -110t-74 -74.5t-111 -26.5zM270 755l105 128h63l104 -128h-68l-77 95h16l-76 -95h-67z" />
    <glyph glyph-name="jcircumflex" unicode="&#x135;" horiz-adv-x="209" 
d="M-1 -185q-14 0 -25 2.5t-19 5.5v59q16 -6 34 -6q39 0 61 24.5t22 73.5v526h65v-526q0 -74 -38.5 -116.5t-99.5 -42.5zM-27 560l102 134h60l102 -134h-68l-75 106h21l-76 -106h-66z" />
    <glyph glyph-name="uni0136" unicode="&#x136;" horiz-adv-x="550" 
d="M468 0l-309 355l299 345h84l-314 -358v34l330 -376h-90zM89 0v700h70v-700h-70zM276 -252q12 12 22.5 35t10.5 54l16 -8q-8 -3 -15 -3q-19 0 -34 13t-15 34t14.5 34t32.5 13q23 0 37 -16t14 -44t-11.5 -54t-27 -45.5t-29.5 -30.5z" />
    <glyph glyph-name="uni0137" unicode="&#x137;" horiz-adv-x="455" 
d="M377 0l-235 255l218 245h81l-233 -257v30l255 -273h-86zM77 0v700h65v-700h-65zM224 -252q12 12 22.5 35t10.5 54l16 -8q-8 -3 -15 -3q-19 0 -34 13t-15 34t14.5 34t32.5 13q23 0 37 -16t14 -44t-11.5 -54t-27 -45.5t-29.5 -30.5z" />
    <glyph glyph-name="Lacute" unicode="&#x139;" horiz-adv-x="513" 
d="M89 0v700h70v-635h344v-65h-414zM86 755l70 128h78l-94 -128h-54z" />
    <glyph glyph-name="lacute" unicode="&#x13a;" horiz-adv-x="219" 
d="M77 0v700h65v-700h-65zM72 755l70 128h78l-94 -128h-54z" />
    <glyph glyph-name="uni013B" unicode="&#x13b;" horiz-adv-x="513" 
d="M89 0v700h70v-635h344v-65h-414zM261 -252q12 12 22.5 35t10.5 54l16 -8q-8 -3 -15 -3q-19 0 -34 13t-15 34t14.5 34t32.5 13q23 0 37 -16t14 -44t-11.5 -54t-27 -45.5t-29.5 -30.5z" />
    <glyph glyph-name="uni013C" unicode="&#x13c;" horiz-adv-x="219" 
d="M77 0v700h65v-700h-65zM75 -252q12 12 22.5 35t10.5 54l16 -8q-8 -3 -15 -3q-19 0 -34 13t-15 34t14.5 34t32.5 13q23 0 37 -16t14 -44t-11.5 -54t-27 -45.5t-29.5 -30.5z" />
    <glyph glyph-name="Lcaron" unicode="&#x13d;" horiz-adv-x="513" 
d="M89 0v700h70v-635h344v-65h-414zM199 560l32 140h69l-61 -140h-40z" />
    <glyph glyph-name="lcaron" unicode="&#x13e;" horiz-adv-x="219" 
d="M77 0v700h65v-700h-65zM183 560l32 140h69l-61 -140h-40z" />
    <glyph glyph-name="Ldot" unicode="&#x13f;" horiz-adv-x="513" 
d="M89 0v700h70v-635h344v-65h-414zM381 313q-22 0 -37 15t-15 37q0 14 7 26t19 19t26 7q22 0 37 -15t15 -37q0 -14 -7 -26t-19 -19t-26 -7z" />
    <glyph glyph-name="ldot" unicode="&#x140;" horiz-adv-x="329" 
d="M77 0v700h65v-700h-65zM274 298q-22 0 -37 15t-15 37q0 14 7 26t19 19t26 7q22 0 37 -15t15 -37q0 -14 -7 -26t-19 -19t-26 -7z" />
    <glyph glyph-name="Lslash" unicode="&#x141;" horiz-adv-x="539" 
d="M20 214v72l330 201v-72zM115 0v700h70v-635h344v-65h-414z" />
    <glyph glyph-name="lslash" unicode="&#x142;" horiz-adv-x="257" 
d="M10 237v69l237 158v-69zM96 0v700h65v-700h-65z" />
    <glyph glyph-name="Nacute" unicode="&#x143;" horiz-adv-x="690" 
d="M89 0v700h66l387 -588h-11v588h70v-700h-66l-387 588h11v-588h-70zM312 755l70 128h78l-94 -128h-54z" />
    <glyph glyph-name="nacute" unicode="&#x144;" 
d="M72 0v500h48l17 -68h5q20 31 58.5 54.5t88.5 23.5q56 0 101.5 -27t71.5 -77t26 -116v-290h-65v290q0 49 -18 85t-49.5 55t-72.5 19q-43 0 -76 -19t-51.5 -55t-18.5 -85v-290h-65zM249 560l66 134h75l-90 -134h-51z" />
    <glyph glyph-name="uni0145" unicode="&#x145;" horiz-adv-x="690" 
d="M89 0v700h66l387 -588h-11v588h70v-700h-66l-387 588h11v-588h-70zM315 -252q12 12 22.5 35t10.5 54l16 -8q-8 -3 -15 -3q-19 0 -34 13t-15 34t14.5 34t32.5 13q23 0 37 -16t14 -44t-11.5 -54t-27 -45.5t-29.5 -30.5z" />
    <glyph glyph-name="uni0146" unicode="&#x146;" 
d="M72 0v500h48l17 -68h5q20 31 58.5 54.5t88.5 23.5q56 0 101.5 -27t71.5 -77t26 -116v-290h-65v290q0 49 -18 85t-49.5 55t-72.5 19q-43 0 -76 -19t-51.5 -55t-18.5 -85v-290h-65zM247 -252q12 12 22.5 35t10.5 54l16 -8q-8 -3 -15 -3q-19 0 -34 13t-15 34t14.5 34
t32.5 13q23 0 37 -16t14 -44t-11.5 -54t-27 -45.5t-29.5 -30.5z" />
    <glyph glyph-name="Ncaron" unicode="&#x147;" horiz-adv-x="690" 
d="M89 0v700h66l387 -588h-11v588h70v-700h-66l-387 588h11v-588h-70zM319 755l-105 128h67l76 -95h-16l77 95h68l-104 -128h-63z" />
    <glyph glyph-name="ncaron" unicode="&#x148;" 
d="M72 0v500h48l17 -68h5q20 31 58.5 54.5t88.5 23.5q56 0 101.5 -27t71.5 -77t26 -116v-290h-65v290q0 49 -18 85t-49.5 55t-72.5 19q-43 0 -76 -19t-51.5 -55t-18.5 -85v-290h-65zM255 560l-102 134h66l76 -106h-21l75 106h68l-102 -134h-60z" />
    <glyph glyph-name="napostrophe" unicode="&#x149;" horiz-adv-x="576" 
d="M93 0v500h48l17 -68h5q20 31 58.5 54.5t88.5 23.5q56 0 101.5 -27t71.5 -77t26 -116v-290h-65v290q0 49 -18 85t-49.5 55t-72.5 19q-43 0 -76 -19t-51.5 -55t-18.5 -85v-290h-65zM-5 523q14 18 25 44t11 60l18 -8q-7 -3 -15 -3q-19 0 -34 13t-15 34t14.5 34t32.5 13
q23 0 37 -16t14 -44q0 -31 -12 -59t-28.5 -49.5t-32.5 -36.5z" />
    <glyph glyph-name="Eng" unicode="&#x14a;" horiz-adv-x="690" 
d="M451 -195q-16 0 -30.5 2.5t-22.5 5.5v63q10 -3 20.5 -4.5t19.5 -1.5q46 0 69.5 24.5t23.5 75.5v50h25l-21 -20l-387 588h11v-588h-70v700h66l387 -588h-11v588h70v-730q0 -78 -40.5 -121.5t-109.5 -43.5z" />
    <glyph glyph-name="eng" unicode="&#x14b;" 
d="M356 -185q-18 0 -31 2.5t-19 5.5v58q10 -5 33 -5q40 0 62 24.5t22 73.5v316q0 49 -18 85t-49.5 55t-72.5 19q-43 0 -76 -19t-51.5 -55t-18.5 -85v-290h-65v500h48l17 -68h5q20 31 58.5 54.5t88.5 23.5q56 0 101.5 -27t71.5 -77t26 -116v-316q0 -73 -37.5 -116t-94.5 -43z
" />
    <glyph glyph-name="Omacron" unicode="&#x14c;" horiz-adv-x="737" 
d="M368 -10q-86 0 -160.5 47t-119 129.5t-44.5 183.5t44.5 183.5t119 129.5t160.5 47t161 -47t119.5 -129.5t44.5 -183.5t-44.5 -183.5t-119.5 -129.5t-161 -47zM368 55q68 0 126.5 37.5t93.5 105t35 152.5t-35 152.5t-93.5 105t-126.5 37.5q-67 0 -125.5 -37.5t-93.5 -105
t-35 -152.5t35 -152.5t93.5 -105t125.5 -37.5zM241 792v55h254v-55h-254z" />
    <glyph glyph-name="omacron" unicode="&#x14d;" horiz-adv-x="548" 
d="M274 -10q-64 0 -118 33.5t-85.5 93t-31.5 133.5t31.5 133.5t85.5 93t118 33.5t118 -33.5t85.5 -93t31.5 -133.5t-31.5 -133.5t-85.5 -93t-118 -33.5zM274 51q46 0 85 25t62 70.5t23 103.5t-23 103.5t-62 70.5t-85 25t-85 -25t-62 -70.5t-23 -103.5t23 -103.5t62 -70.5
t85 -25zM150 600v53h248v-53h-248z" />
    <glyph glyph-name="Obreve" unicode="&#x14e;" horiz-adv-x="737" 
d="M368 -10q-86 0 -160.5 47t-119 129.5t-44.5 183.5t44.5 183.5t119 129.5t160.5 47t161 -47t119.5 -129.5t44.5 -183.5t-44.5 -183.5t-119.5 -129.5t-161 -47zM368 55q68 0 126.5 37.5t93.5 105t35 152.5t-35 152.5t-93.5 105t-126.5 37.5q-67 0 -125.5 -37.5t-93.5 -105
t-35 -152.5t35 -152.5t93.5 -105t125.5 -37.5zM368 760q-40 0 -69.5 16.5t-45.5 43.5t-18 59h54q4 -33 24 -51.5t55 -18.5t55 18.5t24 51.5h54q-2 -32 -18 -59t-45.5 -43.5t-69.5 -16.5z" />
    <glyph glyph-name="obreve" unicode="&#x14f;" horiz-adv-x="548" 
d="M274 -10q-64 0 -118 33.5t-85.5 93t-31.5 133.5t31.5 133.5t85.5 93t118 33.5t118 -33.5t85.5 -93t31.5 -133.5t-31.5 -133.5t-85.5 -93t-118 -33.5zM274 51q46 0 85 25t62 70.5t23 103.5t-23 103.5t-62 70.5t-85 25t-85 -25t-62 -70.5t-23 -103.5t23 -103.5t62 -70.5
t85 -25zM274 566q-39 0 -68 16.5t-45 44.5t-18 61h54q4 -35 23.5 -54t53.5 -19t53.5 19t23.5 54h54q-2 -33 -18 -61t-45 -44.5t-68 -16.5z" />
    <glyph glyph-name="Ohungarumlaut" unicode="&#x150;" horiz-adv-x="737" 
d="M368 -10q-86 0 -160.5 47t-119 129.5t-44.5 183.5t44.5 183.5t119 129.5t160.5 47t161 -47t119.5 -129.5t44.5 -183.5t-44.5 -183.5t-119.5 -129.5t-161 -47zM368 55q68 0 126.5 37.5t93.5 105t35 152.5t-35 152.5t-93.5 105t-126.5 37.5q-67 0 -125.5 -37.5t-93.5 -105
t-35 -152.5t35 -152.5t93.5 -105t125.5 -37.5zM408 755l80 128h78l-104 -128h-54zM275 755l80 128h78l-104 -128h-54z" />
    <glyph glyph-name="ohungarumlaut" unicode="&#x151;" horiz-adv-x="548" 
d="M274 -10q-64 0 -118 33.5t-85.5 93t-31.5 133.5t31.5 133.5t85.5 93t118 33.5t118 -33.5t85.5 -93t31.5 -133.5t-31.5 -133.5t-85.5 -93t-118 -33.5zM274 51q46 0 85 25t62 70.5t23 103.5t-23 103.5t-62 70.5t-85 25t-85 -25t-62 -70.5t-23 -103.5t23 -103.5t62 -70.5
t85 -25zM314 560l76 134h75l-100 -134h-51zM183 560l76 134h75l-100 -134h-51z" />
    <glyph glyph-name="OE" unicode="&#x152;" horiz-adv-x="922" 
d="M387 0q-95 0 -173.5 45t-124 125t-45.5 180t45.5 180t124 125t173.5 45h480v-65h-333v-570h343v-65h-490zM387 65h77v570h-77q-74 0 -137 -37t-99.5 -102t-36.5 -146t36.5 -146t99.5 -102t137 -37zM519 328v65h310v-65h-310z" />
    <glyph glyph-name="oe" unicode="&#x153;" horiz-adv-x="904" 
d="M264 -10q-61 0 -112.5 33t-82 92t-30.5 135t30.5 135t82 92t112.5 33q45 0 84.5 -17t69 -46.5t46.5 -68.5h-13q16 38 45.5 68t69 47t84.5 17q63 0 112 -31.5t76 -88t27 -129.5q0 -11 -2 -22.5t-4 -20.5h-382v59h343l-20 -37v13v14q0 48 -17 89.5t-51 67t-82 25.5
q-43 0 -80 -24.5t-59 -70t-22 -104.5q0 -60 21.5 -105t59 -69.5t85.5 -24.5q42 0 73.5 19.5t52.5 59.5h66q-16 -41 -43.5 -72.5t-65 -49.5t-83.5 -18q-48 0 -89 17.5t-70.5 48t-44.5 69.5h13q-16 -40 -46 -70.5t-69.5 -47.5t-84.5 -17zM264 51q42 0 79 24.5t59 70t22 104.5
t-22 104.5t-59 70t-79 24.5t-79 -24.5t-59 -70t-22 -104.5t22 -104.5t59 -70t79 -24.5z" />
    <glyph glyph-name="Racute" unicode="&#x154;" horiz-adv-x="607" 
d="M89 0v700h244q62 0 111.5 -27.5t78 -74.5t28.5 -103q0 -57 -29.5 -102.5t-81 -71.5t-115.5 -26h-182v65h190q43 0 77 18t52.5 48.5t18.5 68.5q0 40 -18.5 72t-52.5 50t-77 18h-174v-302v-10v-323h-70zM481 0l-179 315h78l182 -315h-81zM272 755l70 128h78l-94 -128h-54z
" />
    <glyph glyph-name="racute" unicode="&#x155;" horiz-adv-x="321" 
d="M72 0v500h48l17 -68h5q19 29 56 53.5t79 24.5q9 0 18.5 -1t17.5 -3v-65q-16 4 -34 4q-41 0 -73.5 -19t-50.5 -55t-18 -85v-286h-65zM154 560l66 134h75l-90 -134h-51z" />
    <glyph glyph-name="uni0156" unicode="&#x156;" horiz-adv-x="607" 
d="M89 0v700h244q62 0 111.5 -27.5t78 -74.5t28.5 -103q0 -57 -29.5 -102.5t-81 -71.5t-115.5 -26h-182v65h190q43 0 77 18t52.5 48.5t18.5 68.5q0 40 -18.5 72t-52.5 50t-77 18h-174v-302v-10v-323h-70zM481 0l-179 315h78l182 -315h-81zM282 -252q12 12 22.5 35t10.5 54
l16 -8q-8 -3 -15 -3q-19 0 -34 13t-15 34t14.5 34t32.5 13q23 0 37 -16t14 -44t-11.5 -54t-27 -45.5t-29.5 -30.5z" />
    <glyph glyph-name="uni0157" unicode="&#x157;" horiz-adv-x="321" 
d="M72 0v500h48l17 -68h5q19 29 56 53.5t79 24.5q9 0 18.5 -1t17.5 -3v-65q-16 4 -34 4q-41 0 -73.5 -19t-50.5 -55t-18 -85v-286h-65zM70 -252q12 12 22.5 35t10.5 54l16 -8q-8 -3 -15 -3q-19 0 -34 13t-15 34t14.5 34t32.5 13q23 0 37 -16t14 -44t-11.5 -54t-27 -45.5
t-29.5 -30.5z" />
    <glyph glyph-name="Rcaron" unicode="&#x158;" horiz-adv-x="607" 
d="M89 0v700h244q62 0 111.5 -27.5t78 -74.5t28.5 -103q0 -57 -29.5 -102.5t-81 -71.5t-115.5 -26h-182v65h190q43 0 77 18t52.5 48.5t18.5 68.5q0 40 -18.5 72t-52.5 50t-77 18h-174v-302v-10v-323h-70zM481 0l-179 315h78l182 -315h-81zM279 755l-105 128h67l76 -95h-16
l77 95h68l-104 -128h-63z" />
    <glyph glyph-name="rcaron" unicode="&#x159;" horiz-adv-x="321" 
d="M72 0v500h48l17 -68h5q19 29 56 53.5t79 24.5q9 0 18.5 -1t17.5 -3v-65q-16 4 -34 4q-41 0 -73.5 -19t-50.5 -55t-18 -85v-286h-65zM160 560l-102 134h66l76 -106h-21l75 106h68l-102 -134h-60z" />
    <glyph glyph-name="Sacute" unicode="&#x15a;" horiz-adv-x="554" 
d="M279 -10q-70 0 -121.5 27t-80.5 75.5t-33 111.5h70q3 -47 24 -80.5t57 -51t85 -17.5q50 0 85 16t52.5 44t17.5 65q0 43 -23 70t-56.5 43t-91.5 36q-66 22 -106.5 42t-68.5 57t-28 97q0 53 25.5 95t73.5 66t113 24q66 0 115 -27t76 -74.5t30 -107.5h-70q-2 43 -21.5 75.5
t-53 50.5t-76.5 18q-44 0 -76.5 -15.5t-49 -42.5t-16.5 -62q0 -40 22 -65.5t54 -40t89 -33.5q67 -21 109 -41.5t71 -60.5t29 -104q0 -56 -26 -99t-77 -67t-123 -24zM238 755l70 128h78l-94 -128h-54z" />
    <glyph glyph-name="sacute" unicode="&#x15b;" horiz-adv-x="435" 
d="M223 -10q-51 0 -92 21.5t-65 57.5t-27 76h65q5 -42 36 -68t83 -26q51 0 78.5 23t27.5 58q0 26 -16 43t-39 27.5t-65 23.5q-51 16 -82 30.5t-53 42t-22 71.5q0 39 20.5 71t57.5 50.5t86 18.5q48 0 86 -20t60 -54.5t25 -75.5h-65q-5 42 -32 65.5t-74 23.5t-73 -21.5
t-26 -54.5q0 -25 15.5 -41.5t39 -27t63.5 -23.5q51 -17 82.5 -32.5t54 -43.5t22.5 -73q0 -40 -20.5 -72.5t-59 -51t-91.5 -18.5zM180 560l66 134h75l-90 -134h-51z" />
    <glyph glyph-name="Scircumflex" unicode="&#x15c;" horiz-adv-x="554" 
d="M279 -10q-70 0 -121.5 27t-80.5 75.5t-33 111.5h70q3 -47 24 -80.5t57 -51t85 -17.5q50 0 85 16t52.5 44t17.5 65q0 43 -23 70t-56.5 43t-91.5 36q-66 22 -106.5 42t-68.5 57t-28 97q0 53 25.5 95t73.5 66t113 24q66 0 115 -27t76 -74.5t30 -107.5h-70q-2 43 -21.5 75.5
t-53 50.5t-76.5 18q-44 0 -76.5 -15.5t-49 -42.5t-16.5 -62q0 -40 22 -65.5t54 -40t89 -33.5q67 -21 109 -41.5t71 -60.5t29 -104q0 -56 -26 -99t-77 -67t-123 -24zM140 755l105 128h63l104 -128h-68l-77 95h16l-76 -95h-67z" />
    <glyph glyph-name="scircumflex" unicode="&#x15d;" horiz-adv-x="435" 
d="M223 -10q-51 0 -92 21.5t-65 57.5t-27 76h65q5 -42 36 -68t83 -26q51 0 78.5 23t27.5 58q0 26 -16 43t-39 27.5t-65 23.5q-51 16 -82 30.5t-53 42t-22 71.5q0 39 20.5 71t57.5 50.5t86 18.5q48 0 86 -20t60 -54.5t25 -75.5h-65q-5 42 -32 65.5t-74 23.5t-73 -21.5
t-26 -54.5q0 -25 15.5 -41.5t39 -27t63.5 -23.5q51 -17 82.5 -32.5t54 -43.5t22.5 -73q0 -40 -20.5 -72.5t-59 -51t-91.5 -18.5zM84 560l102 134h60l102 -134h-68l-75 106h21l-76 -106h-66z" />
    <glyph glyph-name="Scedilla" unicode="&#x15e;" horiz-adv-x="554" 
d="M279 -10q-70 0 -121.5 27t-80.5 75.5t-33 111.5h70q3 -47 24 -80.5t57 -51t85 -17.5q50 0 85 16t52.5 44t17.5 65q0 43 -23 70t-56.5 43t-91.5 36q-66 22 -106.5 42t-68.5 57t-28 97q0 53 25.5 95t73.5 66t113 24q66 0 115 -27t76 -74.5t30 -107.5h-70q-2 43 -21.5 75.5
t-53 50.5t-76.5 18q-44 0 -76.5 -15.5t-49 -42.5t-16.5 -62q0 -40 22 -65.5t54 -40t89 -33.5q67 -21 109 -41.5t71 -60.5t29 -104q0 -56 -26 -99t-77 -67t-123 -24zM256 -200q-15 0 -29 2.5t-24 5.5v41q9 -3 21.5 -4.5t23.5 -1.5q39 0 55 10t16 28q0 17 -15 27.5t-48 10.5
q-18 0 -38 -4l41 100h45l-36 -77l-21 19h20q48 0 74 -21t26 -55q0 -38 -27.5 -59.5t-83.5 -21.5z" />
    <glyph glyph-name="scedilla" unicode="&#x15f;" horiz-adv-x="435" 
d="M223 -10q-51 0 -92 21.5t-65 57.5t-27 76h65q5 -42 36 -68t83 -26q51 0 78.5 23t27.5 58q0 26 -16 43t-39 27.5t-65 23.5q-51 16 -82 30.5t-53 42t-22 71.5q0 39 20.5 71t57.5 50.5t86 18.5q48 0 86 -20t60 -54.5t25 -75.5h-65q-5 42 -32 65.5t-74 23.5t-73 -21.5
t-26 -54.5q0 -25 15.5 -41.5t39 -27t63.5 -23.5q51 -17 82.5 -32.5t54 -43.5t22.5 -73q0 -40 -20.5 -72.5t-59 -51t-91.5 -18.5zM202 -200q-15 0 -29 2.5t-24 5.5v41q9 -3 21.5 -4.5t23.5 -1.5q39 0 55 10t16 28q0 17 -15 27.5t-48 10.5q-18 0 -38 -4l41 100h45l-36 -77
l-21 19h20q48 0 74 -21t26 -55q0 -38 -27.5 -59.5t-83.5 -21.5z" />
    <glyph glyph-name="Scaron" unicode="&#x160;" horiz-adv-x="554" 
d="M279 -10q-70 0 -121.5 27t-80.5 75.5t-33 111.5h70q3 -47 24 -80.5t57 -51t85 -17.5q50 0 85 16t52.5 44t17.5 65q0 43 -23 70t-56.5 43t-91.5 36q-66 22 -106.5 42t-68.5 57t-28 97q0 53 25.5 95t73.5 66t113 24q66 0 115 -27t76 -74.5t30 -107.5h-70q-2 43 -21.5 75.5
t-53 50.5t-76.5 18q-44 0 -76.5 -15.5t-49 -42.5t-16.5 -62q0 -40 22 -65.5t54 -40t89 -33.5q67 -21 109 -41.5t71 -60.5t29 -104q0 -56 -26 -99t-77 -67t-123 -24zM245 755l-105 128h67l76 -95h-16l77 95h68l-104 -128h-63z" />
    <glyph glyph-name="scaron" unicode="&#x161;" horiz-adv-x="435" 
d="M223 -10q-51 0 -92 21.5t-65 57.5t-27 76h65q5 -42 36 -68t83 -26q51 0 78.5 23t27.5 58q0 26 -16 43t-39 27.5t-65 23.5q-51 16 -82 30.5t-53 42t-22 71.5q0 39 20.5 71t57.5 50.5t86 18.5q48 0 86 -20t60 -54.5t25 -75.5h-65q-5 42 -32 65.5t-74 23.5t-73 -21.5
t-26 -54.5q0 -25 15.5 -41.5t39 -27t63.5 -23.5q51 -17 82.5 -32.5t54 -43.5t22.5 -73q0 -40 -20.5 -72.5t-59 -51t-91.5 -18.5zM186 560l-102 134h66l76 -106h-21l75 106h68l-102 -134h-60z" />
    <glyph glyph-name="uni0162" unicode="&#x162;" horiz-adv-x="536" 
d="M233 0v635h-216v65h502v-65h-216v-635h-70zM244 -200q-15 0 -29 2.5t-24 5.5v41q9 -3 21.5 -4.5t23.5 -1.5q39 0 55 10t16 28q0 17 -15 27.5t-48 10.5q-18 0 -38 -4l41 100h45l-36 -77l-21 19h20q48 0 74 -21t26 -55q0 -38 -27.5 -59.5t-83.5 -21.5z" />
    <glyph glyph-name="uni0163" unicode="&#x163;" horiz-adv-x="320" 
d="M242 -10q-39 0 -70.5 19t-49.5 55t-18 86v289h-89v61h39q30 0 45.5 15t15.5 45v73h54v-133h117v-61h-117v-290q0 -49 22 -73.5t61 -24.5q18 0 34 6v-59q-8 -3 -19 -5.5t-25 -2.5zM179 -200q-15 0 -29 2.5t-24 5.5v41q9 -3 21.5 -4.5t23.5 -1.5q39 0 55 10t16 28
q0 17 -15 27.5t-48 10.5q-18 0 -38 -4l41 100h45l-36 -77l-21 19h20q48 0 74 -21t26 -55q0 -38 -27.5 -59.5t-83.5 -21.5z" />
    <glyph glyph-name="Tcaron" unicode="&#x164;" horiz-adv-x="536" 
d="M233 0v635h-216v65h502v-65h-216v-635h-70zM237 755l-105 128h67l76 -95h-16l77 95h68l-104 -128h-63z" />
    <glyph glyph-name="tcaron" unicode="&#x165;" horiz-adv-x="320" 
d="M242 -10q-39 0 -70.5 19t-49.5 55t-18 86v289h-89v61h39q30 0 45.5 15t15.5 45v73h54v-133h117v-61h-117v-290q0 -49 22 -73.5t61 -24.5q18 0 34 6v-59q-8 -3 -19 -5.5t-25 -2.5zM209 560l32 140h69l-61 -140h-40z" />
    <glyph glyph-name="Tbar" unicode="&#x166;" horiz-adv-x="536" 
d="M118 314v63h300v-63h-300zM233 0v635h-216v65h502v-65h-216v-635h-70z" />
    <glyph glyph-name="tbar" unicode="&#x167;" horiz-adv-x="320" 
d="M19 225v59h263v-59h-263zM242 -10q-39 0 -70.5 19t-49.5 55t-18 86v289h-89v61h39q30 0 45.5 15t15.5 45v73h54v-133h117v-61h-117v-290q0 -49 22 -73.5t61 -24.5q18 0 34 6v-59q-8 -3 -19 -5.5t-25 -2.5z" />
    <glyph glyph-name="Utilde" unicode="&#x168;" horiz-adv-x="668" 
d="M334 -10q-74 0 -131 33t-88 92.5t-31 135.5v449h70v-449q0 -60 22.5 -104t63 -68t94.5 -24q81 0 130.5 53t49.5 143v449h70v-449q0 -76 -31.5 -135.5t-88 -92.5t-130.5 -33zM392 762q-23 0 -39 10t-34 28q-14 13 -22.5 19t-18.5 6q-17 0 -28 -15t-11 -42h-50
q0 53 25.5 81.5t61.5 28.5q23 0 39 -10t34 -28q14 -13 22.5 -19t18.5 -6q17 0 28 15t11 42h50q0 -53 -26 -81.5t-61 -28.5z" />
    <glyph glyph-name="utilde" unicode="&#x169;" 
d="M266 -10q-56 0 -101.5 27t-71.5 77t-26 116v290h65v-290q0 -49 18 -85t49.5 -55t72.5 -19q43 0 76 19t51.5 55t18.5 85v290h65v-500h-48l-17 68h-5q-20 -31 -58.5 -54.5t-88.5 -23.5zM332 566q-23 0 -38.5 11t-33.5 31q-13 14 -21.5 20.5t-18.5 6.5q-16 0 -26.5 -16
t-10.5 -47h-50q0 58 24.5 87t60.5 29q23 0 38.5 -11t33.5 -31q13 -14 21.5 -20.5t18.5 -6.5q15 0 26 16.5t11 46.5h50q0 -58 -24.5 -87t-60.5 -29z" />
    <glyph glyph-name="Umacron" unicode="&#x16a;" horiz-adv-x="668" 
d="M334 -10q-74 0 -131 33t-88 92.5t-31 135.5v449h70v-449q0 -60 22.5 -104t63 -68t94.5 -24q81 0 130.5 53t49.5 143v449h70v-449q0 -76 -31.5 -135.5t-88 -92.5t-130.5 -33zM207 792v55h254v-55h-254z" />
    <glyph glyph-name="umacron" unicode="&#x16b;" 
d="M266 -10q-56 0 -101.5 27t-71.5 77t-26 116v290h65v-290q0 -49 18 -85t49.5 -55t72.5 -19q43 0 76 19t51.5 55t18.5 85v290h65v-500h-48l-17 68h-5q-20 -31 -58.5 -54.5t-88.5 -23.5zM151 600v53h248v-53h-248z" />
    <glyph glyph-name="Ubreve" unicode="&#x16c;" horiz-adv-x="668" 
d="M334 -10q-74 0 -131 33t-88 92.5t-31 135.5v449h70v-449q0 -60 22.5 -104t63 -68t94.5 -24q81 0 130.5 53t49.5 143v449h70v-449q0 -76 -31.5 -135.5t-88 -92.5t-130.5 -33zM334 760q-40 0 -69.5 16.5t-45.5 43.5t-18 59h54q4 -33 24 -51.5t55 -18.5t55 18.5t24 51.5h54
q-2 -32 -18 -59t-45.5 -43.5t-69.5 -16.5z" />
    <glyph glyph-name="ubreve" unicode="&#x16d;" 
d="M266 -10q-56 0 -101.5 27t-71.5 77t-26 116v290h65v-290q0 -49 18 -85t49.5 -55t72.5 -19q43 0 76 19t51.5 55t18.5 85v290h65v-500h-48l-17 68h-5q-20 -31 -58.5 -54.5t-88.5 -23.5zM275 566q-39 0 -68 16.5t-45 44.5t-18 61h54q4 -35 23.5 -54t53.5 -19t53.5 19
t23.5 54h54q-2 -33 -18 -61t-45 -44.5t-68 -16.5z" />
    <glyph glyph-name="Uring" unicode="&#x16e;" horiz-adv-x="668" 
d="M334 -10q-74 0 -131 33t-88 92.5t-31 135.5v449h70v-449q0 -60 22.5 -104t63 -68t94.5 -24q81 0 130.5 53t49.5 143v449h70v-449q0 -76 -31.5 -135.5t-88 -92.5t-130.5 -33zM334 755q-40 0 -67 26.5t-27 64.5q0 25 12.5 46t34 33.5t47.5 12.5q39 0 66 -27t27 -65
q0 -25 -12 -46t-33.5 -33t-47.5 -12zM334 798q21 0 34 13t13 35t-13.5 35.5t-33.5 13.5q-21 0 -34.5 -13.5t-13.5 -35.5t13.5 -35t34.5 -13z" />
    <glyph glyph-name="uring" unicode="&#x16f;" 
d="M266 -10q-56 0 -101.5 27t-71.5 77t-26 116v290h65v-290q0 -49 18 -85t49.5 -55t72.5 -19q43 0 76 19t51.5 55t18.5 85v290h65v-500h-48l-17 68h-5q-20 -31 -58.5 -54.5t-88.5 -23.5zM275 550q-26 0 -47 12t-33 32.5t-12 45.5t12 45.5t33 32.5t47 12t47 -12t33 -32.5
t12 -45.5t-12 -45.5t-33 -32.5t-47 -12zM275 591q22 0 35.5 13.5t13.5 35.5t-13.5 35.5t-35.5 13.5t-35.5 -13.5t-13.5 -35.5t13.5 -35.5t35.5 -13.5z" />
    <glyph glyph-name="Uhungarumlaut" unicode="&#x170;" horiz-adv-x="668" 
d="M334 -10q-74 0 -131 33t-88 92.5t-31 135.5v449h70v-449q0 -60 22.5 -104t63 -68t94.5 -24q81 0 130.5 53t49.5 143v449h70v-449q0 -76 -31.5 -135.5t-88 -92.5t-130.5 -33zM374 755l80 128h78l-104 -128h-54zM241 755l80 128h78l-104 -128h-54z" />
    <glyph glyph-name="uhungarumlaut" unicode="&#x171;" 
d="M266 -10q-56 0 -101.5 27t-71.5 77t-26 116v290h65v-290q0 -49 18 -85t49.5 -55t72.5 -19q43 0 76 19t51.5 55t18.5 85v290h65v-500h-48l-17 68h-5q-20 -31 -58.5 -54.5t-88.5 -23.5zM315 560l76 134h75l-100 -134h-51zM184 560l76 134h75l-100 -134h-51z" />
    <glyph glyph-name="Uogonek" unicode="&#x172;" horiz-adv-x="668" 
d="M405 -200q-42 0 -68 23t-26 62t26 72.5t63 51.5l5 -11q-16 -4 -34.5 -6t-36.5 -2q-74 0 -131 33t-88 92.5t-31 135.5v449h70v-449q0 -60 22.5 -104t63 -68t94.5 -24q81 0 130.5 53t49.5 143v449h70v-449q0 -74 -28 -129.5t-80 -91.5q-34 -24 -58.5 -44.5t-41.5 -44.5
t-17 -48q0 -23 14.5 -36.5t39.5 -13.5q16 0 31 5v-42q-18 -6 -39 -6z" />
    <glyph glyph-name="uogonek" unicode="&#x173;" 
d="M266 -10q-56 0 -101.5 27t-71.5 77t-26 116v290h65v-290q0 -49 18 -85t49.5 -55t72.5 -19q43 0 76 19t51.5 55t18.5 85v290h65v-500h-48l-17 68h-5q-20 -31 -58.5 -54.5t-88.5 -23.5zM444 -200q-42 0 -68 23t-26 62t26 72.5t63 51.5l-5 -20v24l49 -13q-41 -24 -63 -51.5
t-22 -55.5q0 -23 14.5 -36.5t39.5 -13.5q16 0 31 5v-43q-15 -5 -39 -5z" />
    <glyph glyph-name="Wcircumflex" unicode="&#x174;" horiz-adv-x="864" 
d="M222 0l-210 700h73l175 -599h-23l170 599h50l173 -599h-23l175 599h70l-210 -700h-51l-171 587h22l-169 -587h-51zM296 755l105 128h63l104 -128h-68l-77 95h16l-76 -95h-67z" />
    <glyph glyph-name="wcircumflex" unicode="&#x175;" horiz-adv-x="678" 
d="M174 0l-167 500h70l128 -405h-14l126 405h45l126 -405h-14l130 405h67l-167 -500h-47l-126 404h14l-124 -404h-47zM208 560l102 134h60l102 -134h-68l-75 106h21l-76 -106h-66z" />
    <glyph glyph-name="Ycircumflex" unicode="&#x176;" horiz-adv-x="534" 
d="M232 0v274l-230 426h76l199 -372h-17l199 372h73l-230 -426v-274h-70zM133 755l105 128h63l104 -128h-68l-77 95h16l-76 -95h-67z" />
    <glyph glyph-name="ycircumflex" unicode="&#x177;" horiz-adv-x="474" 
d="M111 -185q-11 0 -21 2.5t-18 5.5v59q8 -3 15.5 -4.5t15.5 -1.5q24 0 42.5 15t33.5 52l36 89v-42l-208 510h70l174 -434h-22l170 434h68l-221 -550q-22 -54 -43.5 -83.5t-43 -40.5t-48.5 -11zM106 560l102 134h60l102 -134h-68l-75 106h21l-76 -106h-66z" />
    <glyph glyph-name="Ydieresis" unicode="&#x178;" horiz-adv-x="534" 
d="M232 0v274l-230 426h76l199 -372h-17l199 372h73l-230 -426v-274h-70zM354 776q-17 0 -30 12.5t-13 30.5t13 30.5t30 12.5t30 -12.5t13 -30.5t-13 -30.5t-30 -12.5zM184 776q-17 0 -30 12.5t-13 30.5t13 30.5t30 12.5q18 0 30.5 -12.5t12.5 -30.5t-12.5 -30.5
t-30.5 -12.5z" />
    <glyph glyph-name="Zacute" unicode="&#x179;" horiz-adv-x="543" 
d="M39 0v43l374 609l10 -17h-373v65h441v-43l-374 -609l-9 17h396v-65h-465zM233 755l70 128h78l-94 -128h-54z" />
    <glyph glyph-name="zacute" unicode="&#x17a;" horiz-adv-x="416" 
d="M33 0v55l273 396l6 -12h-274v61h337v-55l-273 -397l-6 13h287v-61h-350zM171 560l66 134h75l-90 -134h-51z" />
    <glyph glyph-name="Zdotaccent" unicode="&#x17b;" horiz-adv-x="543" 
d="M39 0v43l374 609l10 -17h-373v65h441v-43l-374 -609l-9 17h396v-65h-465zM271 774q-19 0 -32 13t-13 32q0 13 6 23.5t16.5 16t22.5 5.5q20 0 32.5 -12.5t12.5 -32.5q0 -13 -6 -23t-16 -16t-23 -6z" />
    <glyph glyph-name="zdotaccent" unicode="&#x17c;" horiz-adv-x="416" 
d="M33 0v55l273 396l6 -12h-274v61h337v-55l-273 -397l-6 13h287v-61h-350zM207 580q-19 0 -32 13t-13 32q0 13 6 23.5t16.5 16t22.5 5.5q20 0 32.5 -12.5t12.5 -32.5q0 -13 -6 -23t-16 -16t-23 -6z" />
    <glyph glyph-name="Zcaron" unicode="&#x17d;" horiz-adv-x="543" 
d="M39 0v43l374 609l10 -17h-373v65h441v-43l-374 -609l-9 17h396v-65h-465zM240 755l-105 128h67l76 -95h-16l77 95h68l-104 -128h-63z" />
    <glyph glyph-name="zcaron" unicode="&#x17e;" horiz-adv-x="416" 
d="M33 0v55l273 396l6 -12h-274v61h337v-55l-273 -397l-6 13h287v-61h-350zM177 560l-102 134h66l76 -106h-21l75 106h68l-102 -134h-60z" />
    <glyph glyph-name="uni018F" unicode="&#x18f;" horiz-adv-x="732" 
d="M363 -10q-83 0 -156.5 47t-118 128.5t-44.5 179.5q0 5 0.5 12t1.5 17h596v-63h-545l19 42v-9.5v-9.5q0 -76 34.5 -140.5t91.5 -101.5t121 -37q68 0 126.5 37.5t93.5 105t35 152.5t-35 152.5t-93.5 105t-126.5 37.5q-71 0 -131.5 -39.5t-93.5 -111.5h-70q21 65 66.5 114
t105.5 75.5t123 26.5q86 0 161 -47t119.5 -129.5t44.5 -183.5t-44.5 -183.5t-119.5 -129.5t-161 -47z" />
    <glyph glyph-name="florin" unicode="&#x192;" horiz-adv-x="364" 
d="M-26 -185q-14 0 -26 3t-20 8l12 56q12 -5 31 -5q45 0 69.5 29.5t36.5 90.5l98 531q17 93 58 137.5t109 44.5q14 0 26 -3t21 -8l-12 -56q-6 2 -14.5 3.5t-17.5 1.5q-45 0 -68.5 -29t-35.5 -91l-24 -130l-3 -14l-72 -387q-17 -93 -58 -137.5t-110 -44.5zM67 352l12 62h252
l-14 -62h-250z" />
    <glyph glyph-name="Ohorn" unicode="&#x1a0;" horiz-adv-x="737" 
d="M368 -10q-86 0 -160.5 47t-119 129.5t-44.5 183.5t44.5 183.5t119 129.5t160.5 47t161 -47t119.5 -129.5t44.5 -183.5t-44.5 -183.5t-119.5 -129.5t-161 -47zM368 55q68 0 126.5 37.5t93.5 105t35 152.5t-35 152.5t-93.5 105t-126.5 37.5q-67 0 -125.5 -37.5t-93.5 -105
t-35 -152.5t35 -152.5t93.5 -105t125.5 -37.5zM477 638l-10 52h70q27 0 39.5 11.5t12.5 35.5q0 22 -13 53h54q6 -12 10.5 -30t4.5 -33q0 -25 -12 -45t-34 -32t-50 -12h-72z" />
    <glyph glyph-name="ohorn" unicode="&#x1a1;" horiz-adv-x="548" 
d="M274 -10q-64 0 -118 33.5t-85.5 93t-31.5 133.5t31.5 133.5t85.5 93t118 33.5t118 -33.5t85.5 -93t31.5 -133.5t-31.5 -133.5t-85.5 -93t-118 -33.5zM274 51q46 0 85 25t62 70.5t23 103.5t-23 103.5t-62 70.5t-85 25t-85 -25t-62 -70.5t-23 -103.5t23 -103.5t62 -70.5
t85 -25zM341 442l-10 48h62q26 0 39 10t13 26q0 15 -4 32t-9 32h48q7 -12 12.5 -30.5t5.5 -35.5q0 -23 -11.5 -41.5t-32.5 -29.5t-49 -11h-64z" />
    <glyph glyph-name="Uhorn" unicode="&#x1af;" horiz-adv-x="688" 
d="M334 -10q-74 0 -131 33t-88 92.5t-31 135.5v449h70v-449q0 -60 22.5 -104t63 -68t94.5 -24q81 0 130.5 53t49.5 143v449h75q27 0 39.5 11.5t12.5 35.5q0 22 -13 53h54q6 -12 10.5 -30t4.5 -33q0 -25 -12 -45t-34 -32t-50 -12h-62l45 44v-441q0 -76 -31.5 -135.5
t-88 -92.5t-130.5 -33z" />
    <glyph glyph-name="uhorn" unicode="&#x1b0;" horiz-adv-x="575" 
d="M266 -10q-56 0 -101.5 27t-71.5 77t-26 116v290h65v-290q0 -49 18 -85t49.5 -55t72.5 -19q43 0 76 19t51.5 55t18.5 85v290h70q26 0 39 10t13 26q0 15 -4 32t-9 32h48q7 -12 12.5 -30.5t5.5 -35.5q0 -23 -11.5 -41.5t-32.5 -29.5t-49 -11h-62l45 42v-494h-48l-17 68h-5
q-20 -31 -58.5 -54.5t-88.5 -23.5z" />
    <glyph glyph-name="uni01F4" unicode="&#x1f4;" horiz-adv-x="743" 
d="M368 -10q-86 0 -160.5 47t-119 129.5t-44.5 183.5t44.5 183.5t119 129.5t160.5 47q69 0 130.5 -29.5t104 -81t57.5 -113.5h-70q-26 70 -83 114.5t-139 44.5q-67 0 -125.5 -37.5t-93.5 -105t-35 -152.5t35 -152.5t93.5 -105t125.5 -37.5q65 0 118.5 30.5t84 84.5t30.5 122
l14 -13h-224v63h280v-342h-49l-22 156h30q-16 -40 -52.5 -78t-90.5 -63t-119 -25zM329 755l70 128h78l-94 -128h-54z" />
    <glyph glyph-name="uni01F5" unicode="&#x1f5;" horiz-adv-x="559" 
d="M273 -190q-53 0 -97.5 18.5t-74 52.5t-40.5 80h65q14 -42 52.5 -66t94.5 -24q67 0 108 40t41 106v79h-5q-9 -14 -31 -32.5t-54 -32.5t-69 -14q-61 0 -112.5 32t-81.5 88.5t-30 125.5q0 70 30 126.5t81.5 88.5t112.5 32q37 0 69 -13.5t54 -32t31 -32.5h5l17 68h48v-483
q0 -61 -27 -108t-75.5 -73t-111.5 -26zM263 78q42 0 78.5 24t58.5 66.5t22 94.5q0 53 -22 95.5t-58.5 66.5t-78.5 24q-43 0 -79.5 -24t-58 -66.5t-21.5 -95.5q0 -52 21.5 -94.5t58 -66.5t79.5 -24zM242 560l66 134h75l-90 -134h-51z" />
    <glyph glyph-name="Aringacute" unicode="&#x1fa;" horiz-adv-x="607" 
d="M5 0l266 700h65l266 -700h-75l-75 200l-9 24l-153 408h24l-153 -408l-9 -24l-75 -200h-72zM119 178l26 65h318l26 -65h-370zM304 745q-40 0 -67 26.5t-27 64.5q0 25 12.5 46t34 33.5t47.5 12.5q39 0 66 -27t27 -65q0 -25 -12 -46t-33.5 -33t-47.5 -12zM304 788
q21 0 34 13t13 35t-13.5 35.5t-33.5 13.5q-21 0 -34.5 -13.5t-13.5 -35.5t13.5 -35t34.5 -13zM278 943l57 114h78l-81 -114h-54z" />
    <glyph glyph-name="aringacute" unicode="&#x1fb;" horiz-adv-x="497" 
d="M206 -10q-50 0 -87.5 20.5t-58 54.5t-20.5 75q0 45 27.5 80.5t77 55.5t113.5 20h123v-59h-113q-77 0 -120 -25.5t-43 -71.5q0 -40 28 -64.5t80 -24.5q46 0 80.5 18.5t53 51t18.5 73.5v131q0 37 -15 65t-42.5 43.5t-62.5 15.5q-51 0 -80.5 -26t-37.5 -68h-65
q5 42 29.5 77.5t64.5 56.5t89 21q53 0 95 -23.5t66 -65.5t24 -96v-325h-48l-17 68h-5q-19 -30 -58.5 -54t-95.5 -24zM247 550q-26 0 -47 12t-33 32.5t-12 45.5t12 45.5t33 32.5t47 12t47 -12t33 -32.5t12 -45.5t-12 -45.5t-33 -32.5t-47 -12zM247 591q22 0 35.5 13.5
t13.5 35.5t-13.5 35.5t-35.5 13.5t-35.5 -13.5t-13.5 -35.5t13.5 -35.5t35.5 -13.5zM222 745l61 124h75l-85 -124h-51z" />
    <glyph glyph-name="AEacute" unicode="&#x1fc;" horiz-adv-x="880" 
d="M-28 0l404 700h449v-65h-333v-570h343v-65h-413v635h-10l-363 -635h-77zM138 178l36 65h262v-65h-298zM476 328v65h311v-65h-311zM419 755l70 128h78l-94 -128h-54z" />
    <glyph glyph-name="aeacute" unicode="&#x1fd;" horiz-adv-x="834" 
d="M207 -10q-51 0 -89 19.5t-58 52t-20 71.5q0 46 27 80t76.5 52.5t115.5 18.5h123v-59h-114q-81 0 -122 -23t-41 -69q0 -37 27.5 -59.5t80.5 -22.5q46 0 81 18.5t54 51t19 73.5v133q0 36 -15.5 63.5t-42.5 43t-61 15.5q-53 0 -82.5 -25.5t-38.5 -68.5h-65q6 42 30.5 77.5
t65 56.5t90.5 21q45 0 81 -18t57.5 -46t27.5 -57h-13q13 32 38 59.5t63 44.5t85 17q61 0 108.5 -30.5t73.5 -85.5t26 -126q0 -15 -1.5 -25.5t-3.5 -17.5h-372v59h350l-44 -45q6 16 6 38q0 45 -16.5 84.5t-49 63.5t-77.5 24q-43 0 -79 -25t-57 -70.5t-21 -103.5
q0 -60 20.5 -105t57 -69.5t81.5 -24.5q42 0 72 19t51 60h65q-16 -43 -43 -74.5t-63.5 -48.5t-81.5 -17q-47 0 -86.5 17.5t-68 47t-43.5 66.5h15q-19 -59 -67.5 -95t-131.5 -36zM383 560l66 134h75l-90 -134h-51z" />
    <glyph glyph-name="Oslashacute" unicode="&#x1fe;" horiz-adv-x="737" 
d="M86 -5l-42 42l101 110l12 13l381 422l12 13l101 110l42 -42l-101 -110l-12 -13l-381 -422l-12 -13zM368 -10q-86 0 -160.5 47t-119 129.5t-44.5 183.5t44.5 183.5t119 129.5t160.5 47t161 -47t119.5 -129.5t44.5 -183.5t-44.5 -183.5t-119.5 -129.5t-161 -47zM368 55
q68 0 126.5 37.5t93.5 105t35 152.5t-35 152.5t-93.5 105t-126.5 37.5q-67 0 -125.5 -37.5t-93.5 -105t-35 -152.5t35 -152.5t93.5 -105t125.5 -37.5zM330 755l70 128h78l-94 -128h-54z" />
    <glyph glyph-name="oslashacute" unicode="&#x1ff;" horiz-adv-x="548" 
d="M77 -5l-38 38l57 62l11 12l296 325l11 12l57 61l38 -38l-57 -62l-11 -12l-296 -324l-11 -12zM274 -10q-64 0 -118 33.5t-85.5 93t-31.5 133.5t31.5 133.5t85.5 93t118 33.5t118 -33.5t85.5 -93t31.5 -133.5t-31.5 -133.5t-85.5 -93t-118 -33.5zM274 51q46 0 85 25
t62 70.5t23 103.5t-23 103.5t-62 70.5t-85 25t-85 -25t-62 -70.5t-23 -103.5t23 -103.5t62 -70.5t85 -25zM238 560l66 134h75l-90 -134h-51z" />
    <glyph glyph-name="uni0218" unicode="&#x218;" horiz-adv-x="554" 
d="M279 -10q-70 0 -121.5 27t-80.5 75.5t-33 111.5h70q3 -47 24 -80.5t57 -51t85 -17.5q50 0 85 16t52.5 44t17.5 65q0 43 -23 70t-56.5 43t-91.5 36q-66 22 -106.5 42t-68.5 57t-28 97q0 53 25.5 95t73.5 66t113 24q66 0 115 -27t76 -74.5t30 -107.5h-70q-2 43 -21.5 75.5
t-53 50.5t-76.5 18q-44 0 -76.5 -15.5t-49 -42.5t-16.5 -62q0 -40 22 -65.5t54 -40t89 -33.5q67 -21 109 -41.5t71 -60.5t29 -104q0 -56 -26 -99t-77 -67t-123 -24zM247 -252q12 12 22.5 35t10.5 54l16 -8q-8 -3 -15 -3q-19 0 -34 13t-15 34t14.5 34t32.5 13q23 0 37 -16
t14 -44t-11.5 -54t-27 -45.5t-29.5 -30.5z" />
    <glyph glyph-name="uni0219" unicode="&#x219;" horiz-adv-x="435" 
d="M223 -10q-51 0 -92 21.5t-65 57.5t-27 76h65q5 -42 36 -68t83 -26q51 0 78.5 23t27.5 58q0 26 -16 43t-39 27.5t-65 23.5q-51 16 -82 30.5t-53 42t-22 71.5q0 39 20.5 71t57.5 50.5t86 18.5q48 0 86 -20t60 -54.5t25 -75.5h-65q-5 42 -32 65.5t-74 23.5t-73 -21.5
t-26 -54.5q0 -25 15.5 -41.5t39 -27t63.5 -23.5q51 -17 82.5 -32.5t54 -43.5t22.5 -73q0 -40 -20.5 -72.5t-59 -51t-91.5 -18.5zM193 -252q12 12 22.5 35t10.5 54l16 -8q-8 -3 -15 -3q-19 0 -34 13t-15 34t14.5 34t32.5 13q23 0 37 -16t14 -44t-11.5 -54t-27 -45.5
t-29.5 -30.5z" />
    <glyph glyph-name="uni021A" unicode="&#x21a;" horiz-adv-x="536" 
d="M233 0v635h-216v65h502v-65h-216v-635h-70zM235 -252q12 12 22.5 35t10.5 54l16 -8q-8 -3 -15 -3q-19 0 -34 13t-15 34t14.5 34t32.5 13q23 0 37 -16t14 -44t-11.5 -54t-27 -45.5t-29.5 -30.5z" />
    <glyph glyph-name="uni021B" unicode="&#x21b;" horiz-adv-x="320" 
d="M242 -10q-39 0 -70.5 19t-49.5 55t-18 86v289h-89v61h39q30 0 45.5 15t15.5 45v73h54v-133h117v-61h-117v-290q0 -49 22 -73.5t61 -24.5q18 0 34 6v-59q-8 -3 -19 -5.5t-25 -2.5zM170 -252q12 12 22.5 35t10.5 54l16 -8q-8 -3 -15 -3q-19 0 -34 13t-15 34t14.5 34
t32.5 13q23 0 37 -16t14 -44t-11.5 -54t-27 -45.5t-29.5 -30.5z" />
    <glyph glyph-name="uni0232" unicode="&#x232;" horiz-adv-x="534" 
d="M232 0v274l-230 426h76l199 -372h-17l199 372h73l-230 -426v-274h-70zM142 792v55h254v-55h-254z" />
    <glyph glyph-name="uni0233" unicode="&#x233;" horiz-adv-x="474" 
d="M111 -185q-11 0 -21 2.5t-18 5.5v59q8 -3 15.5 -4.5t15.5 -1.5q24 0 42.5 15t33.5 52l36 89v-42l-208 510h70l174 -434h-22l170 434h68l-221 -550q-22 -54 -43.5 -83.5t-43 -40.5t-48.5 -11zM114 600v53h248v-53h-248z" />
    <glyph glyph-name="uni0237" unicode="&#x237;" horiz-adv-x="209" 
d="M-1 -185q-14 0 -25 2.5t-19 5.5v59q16 -6 34 -6q39 0 61 24.5t22 73.5v526h65v-526q0 -74 -38.5 -116.5t-99.5 -42.5z" />
    <glyph glyph-name="uni0244" unicode="&#x244;" horiz-adv-x="720" 
d="M15 379v63h690v-63h-690zM360 -10q-74 0 -131 33t-88 92.5t-31 135.5v449h70v-449q0 -60 22.5 -104t63 -68t94.5 -24q81 0 130.5 53t49.5 143v449h70v-449q0 -76 -31.5 -135.5t-88 -92.5t-130.5 -33z" />
    <glyph glyph-name="uni0259" unicode="&#x259;" horiz-adv-x="537" 
d="M263 -10q-63 0 -114.5 32.5t-80.5 88.5t-29 124q0 14 1 25.5t3 21.5h405v-59h-364l25 52q-3 -10 -4 -18t-1 -17q0 -54 20.5 -97t57 -67.5t81.5 -24.5t84.5 25.5t62.5 71t23 102.5q0 60 -22 105t-61 69.5t-89 24.5q-47 0 -81.5 -20t-57.5 -59h-65q15 40 45.5 71.5t72 50
t88.5 18.5q66 0 119.5 -33t84.5 -92t31 -135q0 -74 -31.5 -133.5t-85.5 -93t-118 -33.5z" />
    <glyph glyph-name="uni0289" unicode="&#x289;" horiz-adv-x="591" 
d="M5 276v59h576v-59h-576zM284 -10q-56 0 -101.5 27t-71.5 77t-26 116v290h65v-290q0 -49 18 -85t49.5 -55t72.5 -19q43 0 76 19t51.5 55t18.5 85v290h65v-500h-48l-17 68h-5q-20 -31 -58.5 -54.5t-88.5 -23.5z" />
    <glyph glyph-name="uni02BC" unicode="&#x2bc;" horiz-adv-x="158" 
d="M40 523q14 18 25 44t11 60l18 -8q-7 -3 -15 -3q-19 0 -34 13t-15 34t14.5 34t32.5 13q23 0 37 -16t14 -44q0 -31 -12 -59t-28.5 -49.5t-32.5 -36.5z" />
    <glyph glyph-name="circumflex" unicode="&#x2c6;" horiz-adv-x="324" 
d="M30 560l102 134h60l102 -134h-68l-75 106h21l-76 -106h-66z" />
    <glyph glyph-name="caron" unicode="&#x2c7;" horiz-adv-x="324" 
d="M132 560l-102 134h66l76 -106h-21l75 106h68l-102 -134h-60z" />
    <glyph glyph-name="breve" unicode="&#x2d8;" horiz-adv-x="322" 
d="M161 566q-39 0 -68 16.5t-45 44.5t-18 61h54q4 -35 23.5 -54t53.5 -19t53.5 19t23.5 54h54q-2 -33 -18 -61t-45 -44.5t-68 -16.5z" />
    <glyph glyph-name="dotaccent" unicode="&#x2d9;" horiz-adv-x="150" 
d="M75 580q-19 0 -32 13t-13 32q0 13 6 23.5t16.5 16t22.5 5.5q20 0 32.5 -12.5t12.5 -32.5q0 -13 -6 -23t-16 -16t-23 -6z" />
    <glyph glyph-name="ring" unicode="&#x2da;" horiz-adv-x="244" 
d="M122 550q-26 0 -47 12t-33 32.5t-12 45.5t12 45.5t33 32.5t47 12t47 -12t33 -32.5t12 -45.5t-12 -45.5t-33 -32.5t-47 -12zM122 591q22 0 35.5 13.5t13.5 35.5t-13.5 35.5t-35.5 13.5t-35.5 -13.5t-13.5 -35.5t13.5 -35.5t35.5 -13.5z" />
    <glyph glyph-name="ogonek" unicode="&#x2db;" horiz-adv-x="193" 
d="M124 -200q-42 0 -68 23t-26 62t26 72.5t63 51.5l-5 -20v24l49 -13q-41 -24 -63 -51.5t-22 -55.5q0 -23 14.5 -36.5t39.5 -13.5q16 0 31 5v-43q-15 -5 -39 -5z" />
    <glyph glyph-name="tilde" unicode="&#x2dc;" horiz-adv-x="344" 
d="M229 566q-23 0 -38.5 11t-33.5 31q-13 14 -21.5 20.5t-18.5 6.5q-16 0 -26.5 -16t-10.5 -47h-50q0 58 24.5 87t60.5 29q23 0 38.5 -11t33.5 -31q13 -14 21.5 -20.5t18.5 -6.5q15 0 26 16.5t11 46.5h50q0 -58 -24.5 -87t-60.5 -29z" />
    <glyph glyph-name="hungarumlaut" unicode="&#x2dd;" horiz-adv-x="342" 
d="M161 560l76 134h75l-100 -134h-51zM30 560l76 134h75l-100 -134h-51z" />
    <glyph glyph-name="gravecomb" unicode="&#x300;" horiz-adv-x="0" 
d="M-81 560l-91 134h75l67 -134h-51z" />
    <glyph glyph-name="acutecomb" unicode="&#x301;" horiz-adv-x="0" 
d="M-171 560l66 134h75l-90 -134h-51z" />
    <glyph glyph-name="uni0302" unicode="&#x302;" horiz-adv-x="0" 
d="M-294 560l102 134h60l102 -134h-68l-75 106h21l-76 -106h-66z" />
    <glyph glyph-name="tildecomb" unicode="&#x303;" horiz-adv-x="0" 
d="M-115 566q-23 0 -38.5 11t-33.5 31q-13 14 -21.5 20.5t-18.5 6.5q-16 0 -26.5 -16t-10.5 -47h-50q0 58 24.5 87t60.5 29q23 0 38.5 -11t33.5 -31q13 -14 21.5 -20.5t18.5 -6.5q15 0 26 16.5t11 46.5h50q0 -58 -24.5 -87t-60.5 -29z" />
    <glyph glyph-name="uni0304" unicode="&#x304;" horiz-adv-x="0" 
d="M-278 600v53h248v-53h-248z" />
    <glyph glyph-name="uni0306" unicode="&#x306;" horiz-adv-x="0" 
d="M-161 566q-39 0 -68 16.5t-45 44.5t-18 61h54q4 -35 23.5 -54t53.5 -19t53.5 19t23.5 54h54q-2 -33 -18 -61t-45 -44.5t-68 -16.5z" />
    <glyph glyph-name="uni0307" unicode="&#x307;" horiz-adv-x="0" 
d="M-75 580q-19 0 -32 13t-13 32q0 13 6 23.5t16.5 16t22.5 5.5q20 0 32.5 -12.5t12.5 -32.5q0 -13 -6 -23t-16 -16t-23 -6z" />
    <glyph glyph-name="uni0308" unicode="&#x308;" horiz-adv-x="0" 
d="M-73 582q-18 0 -30.5 12.5t-12.5 30.5q0 19 12.5 31t30.5 12t30.5 -12.5t12.5 -30.5t-13 -30.5t-30 -12.5zM-233 582q-17 0 -30 12.5t-13 30.5t12.5 30.5t30.5 12.5t30.5 -12t12.5 -31q0 -18 -12.5 -30.5t-30.5 -12.5z" />
    <glyph glyph-name="hookabovecomb" unicode="&#x309;" horiz-adv-x="0" 
d="M-106 557q11 16 17 31t6 31q0 28 -13.5 41t-38.5 13q-13 0 -28 -4v48q8 3 19 4.5t23 1.5q43 0 67 -23t24 -64q0 -25 -7.5 -42.5t-20.5 -36.5h-48z" />
    <glyph glyph-name="uni030A" unicode="&#x30a;" horiz-adv-x="0" 
d="M-122 550q-26 0 -47 12t-33 32.5t-12 45.5t12 45.5t33 32.5t47 12t47 -12t33 -32.5t12 -45.5t-12 -45.5t-33 -32.5t-47 -12zM-122 591q22 0 35.5 13.5t13.5 35.5t-13.5 35.5t-35.5 13.5t-35.5 -13.5t-13.5 -35.5t13.5 -35.5t35.5 -13.5z" />
    <glyph glyph-name="uni030B" unicode="&#x30b;" horiz-adv-x="0" 
d="M-181 560l76 134h75l-100 -134h-51zM-312 560l76 134h75l-100 -134h-51z" />
    <glyph glyph-name="uni030C" unicode="&#x30c;" horiz-adv-x="0" 
d="M-192 560l-102 134h66l76 -106h-21l75 106h68l-102 -134h-60z" />
    <glyph glyph-name="uni0312" unicode="&#x312;" horiz-adv-x="0" 
d="M-77 560q-23 0 -37 16t-14 44q0 29 12 54t28.5 43.5t32.5 29.5l14 -18q-15 -12 -26 -33t-11 -52l-16 7q8 3 15 3q19 0 34 -13t15 -34t-14.5 -34t-32.5 -13z" />
    <glyph glyph-name="uni031B" unicode="&#x31b;" horiz-adv-x="0" 
d="M-187 452l-10 48h62q26 0 39 10t13 26q0 15 -4 32t-9 32h48q7 -12 12.5 -30.5t5.5 -35.5q0 -23 -11.5 -41.5t-32.5 -29.5t-49 -11h-64z" />
    <glyph glyph-name="dotbelowcomb" unicode="&#x323;" horiz-adv-x="0" 
d="M-75 -170q-19 0 -32 13t-13 32q0 13 6 23.5t16.5 16t22.5 5.5q20 0 32.5 -12.5t12.5 -32.5q0 -13 -6 -23t-16 -16t-23 -6z" />
    <glyph glyph-name="uni0327" unicode="&#x327;" horiz-adv-x="0" 
d="M-141 -200q-15 0 -29 2.5t-24 5.5v41q9 -3 21.5 -4.5t23.5 -1.5q39 0 55 10t16 28q0 17 -15 27.5t-48 10.5q-18 0 -38 -4l41 100h45l-36 -77l-21 19h20q48 0 74 -21t26 -55q0 -38 -27.5 -59.5t-83.5 -21.5z" />
    <glyph glyph-name="uni0328" unicode="&#x328;" horiz-adv-x="0" 
d="M-69 -200q-42 0 -68 23t-26 62t26 72.5t63 51.5l-5 -20v24l49 -13q-41 -24 -63 -51.5t-22 -55.5q0 -23 14.5 -36.5t39.5 -13.5q16 0 31 5v-43q-15 -5 -39 -5z" />
    <glyph glyph-name="uni0400" unicode="&#x400;" horiz-adv-x="577" 
d="M89 0v700h433v-65h-363v-570h373v-65h-443zM133 328v65h351v-65h-351zM290 755l-95 128h78l71 -128h-54z" />
    <glyph glyph-name="uni0401" unicode="&#x401;" horiz-adv-x="577" 
d="M89 0v700h433v-65h-363v-570h373v-65h-443zM133 328v65h351v-65h-351zM391 776q-17 0 -30 12.5t-13 30.5t13 30.5t30 12.5t30 -12.5t13 -30.5t-13 -30.5t-30 -12.5zM221 776q-17 0 -30 12.5t-13 30.5t13 30.5t30 12.5q18 0 30.5 -12.5t12.5 -30.5t-12.5 -30.5
t-30.5 -12.5z" />
    <glyph glyph-name="uni0402" unicode="&#x402;" horiz-adv-x="710" 
d="M418 10q46 0 83.5 22.5t59 66t21.5 102.5q0 92 -44 141t-118 49q-59 0 -110 -21t-83 -46l15 30v-354h-70v635h-177v65h472v-65h-225v-255l-15 10q30 24 82 45t111 21q69 0 121.5 -29.5t81.5 -87t29 -138.5q0 -77 -30.5 -135t-84 -89.5t-119.5 -31.5v65z" />
    <glyph glyph-name="uni0403" unicode="&#x403;" horiz-adv-x="498" 
d="M89 0v700h397v-65h-327v-635h-70zM250 755l70 128h78l-94 -128h-54z" />
    <glyph glyph-name="uni0404" unicode="&#x404;" horiz-adv-x="699" 
d="M368 -10q-86 0 -160.5 47t-119 129.5t-44.5 183.5t44.5 183.5t119 129.5t160.5 47q68 0 128 -31.5t102 -83.5t59 -114h-70q-16 44 -47 81.5t-75 60t-97 22.5q-67 0 -125.5 -37.5t-93.5 -105t-35 -152.5t35 -152.5t93.5 -105t125.5 -37.5q79 0 138 47t84 117h70
q-17 -63 -59 -115t-103 -83t-130 -31zM102 319v63h305v-63h-305z" />
    <glyph glyph-name="uni0405" unicode="&#x405;" horiz-adv-x="554" 
d="M279 -10q-70 0 -121.5 27t-80.5 75.5t-33 111.5h70q3 -47 24 -80.5t57 -51t85 -17.5q50 0 85 16t52.5 44t17.5 65q0 43 -23 70t-56.5 43t-91.5 36q-66 22 -106.5 42t-68.5 57t-28 97q0 53 25.5 95t73.5 66t113 24q66 0 115 -27t76 -74.5t30 -107.5h-70q-2 43 -21.5 75.5
t-53 50.5t-76.5 18q-44 0 -76.5 -15.5t-49 -42.5t-16.5 -62q0 -40 22 -65.5t54 -40t89 -33.5q67 -21 109 -41.5t71 -60.5t29 -104q0 -56 -26 -99t-77 -67t-123 -24z" />
    <glyph glyph-name="uni0406" unicode="&#x406;" horiz-adv-x="248" 
d="M89 0v700h70v-700h-70z" />
    <glyph glyph-name="uni0407" unicode="&#x407;" horiz-adv-x="248" 
d="M89 0v700h70v-700h-70zM191 776q-17 0 -30 12.5t-13 30.5t13 30.5t30 12.5q18 0 30.5 -12.5t12.5 -30.5t-12.5 -30.5t-30.5 -12.5zM57 776q-17 0 -30 12.5t-13 30.5t13 30.5t30 12.5q18 0 30.5 -12.5t12.5 -30.5t-12.5 -30.5t-30.5 -12.5z" />
    <glyph glyph-name="uni0408" unicode="&#x408;" horiz-adv-x="525" 
d="M230 -10q-62 0 -110.5 27.5t-75.5 73t-27 98.5h70q0 -34 18.5 -65t51 -50t73.5 -19q42 0 74 18.5t49.5 51.5t17.5 76v499h70v-499q0 -62 -26 -110t-74 -74.5t-111 -26.5z" />
    <glyph glyph-name="uni0409" unicode="&#x409;" horiz-adv-x="979" 
d="M29 -10q-12 0 -21.5 1.5t-16.5 3.5v65h17q54 0 85 33t37 106l39 501h405v-315v-10v-310h150q45 0 79.5 18t53.5 50t19 73t-19 72.5t-53.5 49.5t-79.5 18h-186v65h186q63 0 114 -27t79.5 -74t28.5 -104t-28.5 -104.5t-79.5 -74.5t-114 -27h-220v635h-270l-34 -436
q-5 -68 -28.5 -115t-60 -70.5t-82.5 -23.5z" />
    <glyph glyph-name="uni040A" unicode="&#x40a;" horiz-adv-x="986" 
d="M511 0v700h70v-315v-10v-310h150q45 0 79.5 18t53.5 49.5t19 72.5t-19 73t-53.5 50t-79.5 18h-180h-10h-421v65h611q63 0 114 -27t79.5 -74.5t28.5 -104.5t-28.5 -104t-79.5 -74t-114 -27h-220zM89 0v700h70v-700h-70z" />
    <glyph glyph-name="uni040B" unicode="&#x40b;" horiz-adv-x="715" 
d="M172 0v635h-177v65h472v-65h-225v-255l-15 10q30 24 82 45t111 21q68 0 119.5 -27.5t79.5 -80.5t28 -125v-223h-70v223q0 54 -19.5 91.5t-55 57t-82.5 19.5q-59 0 -110 -21t-83 -46l15 30v-354h-70z" />
    <glyph glyph-name="uni040C" unicode="&#x40c;" horiz-adv-x="550" 
d="M468 0l-309 355l299 345h84l-314 -358v34l330 -376h-90zM89 0v700h70v-700h-70zM267 755l70 128h78l-94 -128h-54z" />
    <glyph glyph-name="uni040D" unicode="&#x40d;" horiz-adv-x="690" 
d="M89 0v700h70v-607h-18l393 607h67v-700h-70v607h18l-393 -607h-67zM335 755l-95 128h78l71 -128h-54z" />
    <glyph glyph-name="uni040E" unicode="&#x40e;" horiz-adv-x="551" 
d="M133 -10q-14 0 -27 3.5t-22 7.5v63q9 -4 18 -6.5t21 -2.5q37 0 64 27.5t50 77.5l33 73v-78l-258 545h78l204 -444h-14l196 444h73l-250 -557q-24 -53 -47 -86t-52 -50t-67 -17zM283 760q-42 0 -72.5 16.5t-46.5 43.5t-18 59h54q4 -33 24.5 -51.5t58.5 -18.5t58.5 18.5
t24.5 51.5h54q-2 -32 -18 -59t-46.5 -43.5t-72.5 -16.5z" />
    <glyph glyph-name="uni040F" unicode="&#x40f;" horiz-adv-x="680" 
d="M305 -150v170h70v-170h-70zM89 0v700h70v-635h362v635h70v-700h-502z" />
    <glyph glyph-name="uni0410" unicode="&#x410;" horiz-adv-x="607" 
d="M5 0l266 700h65l266 -700h-75l-75 200l-9 24l-153 408h24l-153 -408l-9 -24l-75 -200h-72zM119 178l26 65h318l26 -65h-370z" />
    <glyph glyph-name="uni0411" unicode="&#x411;" horiz-adv-x="603" 
d="M89 0v700h420v-65h-350v-570h190q44 0 77 17t50.5 48t17.5 74q0 42 -17.5 73t-50.5 48t-77 17h-206v65h206q63 0 111.5 -26t76 -72.5t27.5 -104.5t-27.5 -104.5t-76 -73t-111.5 -26.5h-260z" />
    <glyph glyph-name="uni0412" unicode="&#x412;" horiz-adv-x="614" 
d="M89 0v700h249q60 0 106.5 -24t72 -65.5t25.5 -91.5q0 -43 -18 -74t-43.5 -48.5t-51.5 -24.5v7q27 -6 59.5 -26t57 -58.5t24.5 -92.5q0 -58 -28 -104t-78 -72t-115 -26h-260zM349 65q44 0 78.5 18t53.5 49t19 70t-19 70t-53.5 49t-78.5 18h-206v63h195q41 0 71.5 14.5
t46.5 41t16 61.5q0 52 -36 84t-98 32h-179v-570h190z" />
    <glyph glyph-name="uni0413" unicode="&#x413;" horiz-adv-x="498" 
d="M89 0v700h397v-65h-327v-635h-70z" />
    <glyph glyph-name="uni0414" unicode="&#x414;" horiz-adv-x="677" 
d="M10 -150v215h488v570h-303l37 30l-36 -466q-4 -54 -20 -89t-34 -51h-92q27 15 49 49t27 92l41 500h401v-635h87v-215h-70v150h-505v-150h-70z" />
    <glyph glyph-name="uni0415" unicode="&#x415;" horiz-adv-x="577" 
d="M89 0v700h433v-65h-363v-570h373v-65h-443zM133 328v65h351v-65h-351z" />
    <glyph glyph-name="uni0416" unicode="&#x416;" horiz-adv-x="774" 
d="M696 0l-274 355l264 345h80l-283 -361v40l299 -379h-86zM-8 0l299 379v-40l-283 361h80l264 -345l-274 -355h-86zM352 0v700h70v-700h-70z" />
    <glyph glyph-name="uni0417" unicode="&#x417;" horiz-adv-x="538" 
d="M266 -10q-69 0 -120.5 26t-81.5 71.5t-36 101.5h70q9 -60 52 -97t116 -37q47 0 83 17.5t55.5 47t19.5 66.5q0 41 -19.5 72.5t-56.5 49.5t-87 18h-46v63h46q45 0 78 16t50.5 44.5t17.5 65.5q0 56 -40 93t-107 37q-62 0 -103 -38t-45 -95h-70q4 55 32.5 100t77 71.5
t108.5 26.5q63 0 112.5 -26.5t77 -71.5t27.5 -97q0 -41 -19.5 -73t-48.5 -52.5t-60 -31.5v11q34 -11 66.5 -32t55.5 -59t23 -92q0 -50 -29 -95.5t-81.5 -73t-117.5 -27.5z" />
    <glyph glyph-name="uni0418" unicode="&#x418;" horiz-adv-x="690" 
d="M89 0v700h70v-607h-18l393 607h67v-700h-70v607h18l-393 -607h-67z" />
    <glyph glyph-name="uni0419" unicode="&#x419;" horiz-adv-x="690" 
d="M89 0v700h70v-607h-18l393 607h67v-700h-70v607h18l-393 -607h-67zM351 760q-42 0 -72.5 16.5t-46.5 43.5t-18 59h54q4 -33 24.5 -51.5t58.5 -18.5t58.5 18.5t24.5 51.5h54q-2 -32 -18 -59t-46.5 -43.5t-72.5 -16.5z" />
    <glyph glyph-name="uni041A" unicode="&#x41a;" horiz-adv-x="550" 
d="M468 0l-309 355l299 345h84l-314 -358v34l330 -376h-90zM89 0v700h70v-700h-70z" />
    <glyph glyph-name="uni041B" unicode="&#x41b;" horiz-adv-x="673" 
d="M29 -10q-12 0 -21.5 1.5t-16.5 3.5v65h17q54 0 85 33t37 106l39 501h415v-700h-70v635h-280l-34 -436q-5 -68 -28.5 -115t-60 -70.5t-82.5 -23.5z" />
    <glyph glyph-name="uni041C" unicode="&#x41c;" horiz-adv-x="830" 
d="M89 0v700h65l276 -628h-30l277 628h64v-700h-70v565h18l-251 -565h-47l-250 565h18v-565h-70z" />
    <glyph glyph-name="uni041D" unicode="&#x41d;" horiz-adv-x="680" 
d="M521 0v700h70v-700h-70zM89 0v700h70v-700h-70zM143 325v65h394v-65h-394z" />
    <glyph glyph-name="uni041E" unicode="&#x41e;" horiz-adv-x="737" 
d="M368 -10q-86 0 -160.5 47t-119 129.5t-44.5 183.5t44.5 183.5t119 129.5t160.5 47t161 -47t119.5 -129.5t44.5 -183.5t-44.5 -183.5t-119.5 -129.5t-161 -47zM368 55q68 0 126.5 37.5t93.5 105t35 152.5t-35 152.5t-93.5 105t-126.5 37.5q-67 0 -125.5 -37.5t-93.5 -105
t-35 -152.5t35 -152.5t93.5 -105t125.5 -37.5z" />
    <glyph glyph-name="uni041F" unicode="&#x41f;" horiz-adv-x="680" 
d="M89 0v700h502v-700h-70v635h-362v-635h-70z" />
    <glyph glyph-name="uni0420" unicode="&#x420;" horiz-adv-x="581" 
d="M89 0v700h222q62 0 113.5 -29t81.5 -78.5t30 -108.5q0 -60 -30 -109.5t-81.5 -78.5t-113.5 -29h-168v65h168q44 0 79.5 19.5t55.5 54.5t20 78t-20 77.5t-55.5 54t-79.5 19.5h-152v-330v-10v-295h-70z" />
    <glyph glyph-name="uni0421" unicode="&#x421;" horiz-adv-x="704" 
d="M368 -10q-86 0 -160.5 47t-119 129.5t-44.5 183.5t44.5 183.5t119 129.5t160.5 47q70 0 130.5 -32t102.5 -87.5t59 -124.5h-70q-17 51 -47.5 91.5t-75 64t-99.5 23.5q-67 0 -125.5 -37.5t-93.5 -105t-35 -152.5t35 -152.5t93.5 -105t125.5 -37.5q84 0 142.5 50t84.5 129
h70q-17 -69 -59.5 -124.5t-104 -87.5t-133.5 -32z" />
    <glyph glyph-name="uni0422" unicode="&#x422;" horiz-adv-x="536" 
d="M233 0v635h-216v65h502v-65h-216v-635h-70z" />
    <glyph glyph-name="uni0423" unicode="&#x423;" horiz-adv-x="551" 
d="M133 -10q-14 0 -27 3.5t-22 7.5v63q9 -4 18 -6.5t21 -2.5q37 0 64 27.5t50 77.5l33 73v-78l-258 545h78l204 -444h-14l196 444h73l-250 -557q-24 -53 -47 -86t-52 -50t-67 -17z" />
    <glyph glyph-name="uni0424" unicode="&#x424;" horiz-adv-x="776" 
d="M393 89v65h25q77 0 134 26t87 73t30 109t-30 109t-87 73t-134 26h-25v65h25q95 0 168 -34t113 -96t40 -143t-40 -143t-112.5 -96t-168.5 -34h-25zM358 89q-96 0 -168.5 34t-112.5 96t-40 143t40 143t113 96t168 34h25v-65h-25q-77 0 -134 -26t-87 -73t-30 -109t30 -109
t87 -73t134 -26h25v-65h-25zM353 -10v126v10v472v10v102h70v-102v-10v-472v-10v-126h-70z" />
    <glyph glyph-name="uni0425" unicode="&#x425;" horiz-adv-x="571" 
d="M15 0l230 355l-219 345h80l192 -305h-22l191 305h78l-220 -345l231 -355h-82l-201 315h22l-203 -315h-77z" />
    <glyph glyph-name="uni0426" unicode="&#x426;" horiz-adv-x="684" 
d="M592 -150v150h-503v700h70v-635h346v635h70v-635h87v-215h-70z" />
    <glyph glyph-name="uni0427" unicode="&#x427;" horiz-adv-x="638" 
d="M479 0v296l15 -9q-19 -15 -47.5 -30t-66.5 -26t-80 -11q-68 0 -119 27.5t-79 80t-28 125.5v247h70v-247q0 -54 19 -91.5t54.5 -57t82.5 -19.5q60 0 111 21t83 46l-15 -30v378h70v-700h-70z" />
    <glyph glyph-name="uni0428" unicode="&#x428;" horiz-adv-x="914" 
d="M89 0v700h70v-635h596v635h70v-700h-736zM422 50v650h70v-650h-70z" />
    <glyph glyph-name="uni0429" unicode="&#x429;" horiz-adv-x="934" 
d="M842 -150v150h-753v700h70v-635h596v635h70v-635h87v-215h-70zM422 50v650h70v-650h-70z" />
    <glyph glyph-name="uni042A" unicode="&#x42a;" horiz-adv-x="647" 
d="M162 0v635h-167v65h237v-295v-10v-330h161q45 0 79 18.5t53 53t19 79.5t-19 79.5t-53 53t-79 18.5h-177v65h177q63 0 113.5 -28t79 -77t28.5 -111t-28.5 -111t-79 -77t-113.5 -28h-231z" />
    <glyph glyph-name="uni042B" unicode="&#x42b;" horiz-adv-x="785" 
d="M89 0v700h70v-295v-10v-330h151q45 0 79 18.5t53 53t19 79.5t-19 79.5t-53 53t-79 18.5h-167v65h167q63 0 113.5 -28t79 -77t28.5 -111t-28.5 -111t-79 -77t-113.5 -28h-221zM626 0v700h70v-700h-70z" />
    <glyph glyph-name="uni042C" unicode="&#x42c;" horiz-adv-x="574" 
d="M89 0v700h70v-295v-10v-330h161q45 0 79 18.5t53 53t19 79.5t-19 79.5t-53 53t-79 18.5h-177v65h177q63 0 113.5 -28t79 -77t28.5 -111t-28.5 -111t-79 -77t-113.5 -28h-231z" />
    <glyph glyph-name="uni042D" unicode="&#x42d;" horiz-adv-x="694" 
d="M326 -10q-69 0 -130 31t-103 83t-59 115h70q16 -45 47.5 -82.5t76.5 -59.5t98 -22q67 0 125.5 37.5t93.5 105t35 152.5t-35 152.5t-93.5 105t-125.5 37.5q-78 0 -136 -47.5t-83 -116.5h-70q17 62 59 114t102 83.5t128 31.5q86 0 160.5 -47t119 -129.5t44.5 -183.5
t-44.5 -183.5t-119 -129.5t-160.5 -47zM287 319v63h305v-63h-305z" />
    <glyph glyph-name="uni042E" unicode="&#x42e;" horiz-adv-x="940" 
d="M586 -10q-82 0 -153.5 46t-114 128t-42.5 186t42.5 186t114 128t153.5 46t153.5 -46t114 -128t42.5 -186t-42.5 -186t-114 -128t-153.5 -46zM89 0v700h70v-317h137v-65h-137v-318h-70zM586 55q64 0 119 36.5t88 103.5t33 155t-33 155t-88 103.5t-119 36.5t-119 -36.5
t-88 -103.5t-33 -155t33 -155t88 -103.5t119 -36.5z" />
    <glyph glyph-name="uni042F" unicode="&#x42f;" horiz-adv-x="603" 
d="M444 0v323v10v302h-177q-40 0 -72 -18t-50.5 -50t-18.5 -72q0 -37 18.5 -68t51 -49t71.5 -18h193v-65h-182q-60 0 -111 25t-81 70.5t-30 104.5q0 56 28 103t76.5 74.5t106.5 27.5h247v-700h-70zM35 0l192 315h77l-188 -315h-81z" />
    <glyph glyph-name="uni0430" unicode="&#x430;" horiz-adv-x="497" 
d="M206 -10q-50 0 -87.5 20.5t-58 54.5t-20.5 75q0 45 27.5 80.5t77 55.5t113.5 20h123v-59h-113q-77 0 -120 -25.5t-43 -71.5q0 -40 28 -64.5t80 -24.5q46 0 80.5 18.5t53 51t18.5 73.5v131q0 37 -15 65t-42.5 43.5t-62.5 15.5q-51 0 -80.5 -26t-37.5 -68h-65
q5 42 29.5 77.5t64.5 56.5t89 21q53 0 95 -23.5t66 -65.5t24 -96v-325h-48l-17 68h-5q-19 -30 -58.5 -54t-95.5 -24z" />
    <glyph glyph-name="uni0431" unicode="&#x431;" horiz-adv-x="547" 
d="M281 -10q-64 0 -116.5 32.5t-84 100t-31.5 167.5q0 116 28 199t86.5 132.5t149.5 63.5q21 3 41.5 6.5t39.5 6.5q18 3 35 6t32 6v-63q-33 -6 -70 -12l-74 -12q-74 -12 -117 -46.5t-61.5 -80.5t-23.5 -101h5q10 19 32.5 39.5t57 35.5t77.5 15q59 0 109.5 -31t81 -87.5
t30.5 -129.5t-30.5 -129t-82.5 -87t-114 -31zM281 51q44 0 81 22.5t59 64.5t22 99t-22 99.5t-58.5 65t-81.5 22.5q-44 0 -81 -22.5t-59 -65t-22 -99.5t22 -99t59 -64.5t81 -22.5z" />
    <glyph glyph-name="uni0432" unicode="&#x432;" horiz-adv-x="481" 
d="M72 0v500h201q43 0 77 -17.5t53 -48t19 -66.5q0 -28 -12 -50.5t-29.5 -37t-35.5 -21.5v8q22 -6 44 -21.5t37.5 -42t15.5 -63.5q0 -41 -19 -72.5t-53.5 -49.5t-77.5 -18h-220zM288 61q25 0 45.5 11t32 30t11.5 43q0 35 -25.5 59t-63.5 24h-167v59h146q42 0 66 21t24 55
q0 35 -24 55.5t-66 20.5h-130v-378h151z" />
    <glyph glyph-name="uni0433" unicode="&#x433;" horiz-adv-x="402" 
d="M72 0v500h320v-61h-255v-439h-65z" />
    <glyph glyph-name="uni0434" unicode="&#x434;" 
d="M9 -128v189h383v378h-242l48 43l-26 -305q-4 -49 -17.5 -78.5t-34.5 -44.5h-84q28 14 47.5 44.5t23.5 78.5l27 323h323v-439h77v-189h-65v128h-395v-128h-65z" />
    <glyph glyph-name="uni0435" unicode="&#x435;" horiz-adv-x="537" 
d="M274 -10q-66 0 -119.5 33t-84.5 92t-31 135q0 74 31.5 133.5t85.5 93t118 33.5q63 0 114.5 -32.5t80.5 -88.5t29 -124q0 -14 -1 -25.5t-3 -21.5h-405v59h364l-25 -52q3 10 4 18t1 17q0 54 -20.5 97t-57 67.5t-81.5 24.5t-84.5 -25.5t-62.5 -71t-23 -102.5q0 -60 22 -105
t61 -69.5t89 -24.5q47 0 81.5 20t57.5 59h65q-15 -40 -45.5 -71.5t-72 -50t-88.5 -18.5z" />
    <glyph glyph-name="uni0436" unicode="&#x436;" horiz-adv-x="629" 
d="M555 0l-208 260l192 240h78l-205 -250v27l225 -277h-82zM-8 0l225 277v-27l-205 250h78l192 -240l-208 -260h-82zM282 0v500h65v-500h-65z" />
    <glyph glyph-name="uni0437" unicode="&#x437;" horiz-adv-x="430" 
d="M213 -10q-57 0 -99 21.5t-65 58t-26 80.5h65q4 -46 35 -72.5t90 -26.5q56 0 84.5 23t28.5 63q0 42 -28.5 66.5t-81.5 24.5h-54v59h50q34 0 56.5 9.5t34 26.5t11.5 40t-12.5 43t-36.5 31.5t-56 11.5q-50 0 -78.5 -25.5t-33.5 -67.5h-65q5 65 52 109.5t130 44.5
q49 0 86.5 -20t58 -53.5t20.5 -73.5q0 -33 -13.5 -55.5t-31 -34.5t-33.5 -17v8q20 -6 40.5 -22t35 -43t14.5 -62q0 -40 -21 -73.5t-61.5 -53.5t-95.5 -20z" />
    <glyph glyph-name="uni0438" unicode="&#x438;" horiz-adv-x="556" 
d="M72 0v500h65v-409h-14l304 409h57v-500h-65v409h14l-304 -409h-57z" />
    <glyph glyph-name="uni0439" unicode="&#x439;" horiz-adv-x="556" 
d="M72 0v500h65v-409h-14l304 409h57v-500h-65v409h14l-304 -409h-57zM283 566q-41 0 -71 16.5t-46 44.5t-18 61h54q4 -35 24 -54t57 -19t57 19t24 54h54q-2 -33 -18 -61t-46 -44.5t-71 -16.5z" />
    <glyph glyph-name="uni043A" unicode="&#x43a;" horiz-adv-x="450" 
d="M372 0l-235 255l218 245h81l-233 -257v30l255 -273h-86zM72 0v500h65v-500h-65z" />
    <glyph glyph-name="uni043B" unicode="&#x43b;" horiz-adv-x="534" 
d="M31 -10q-10 0 -18.5 2t-15.5 4v57h17q28 0 47.5 11.5t31 37t14.5 66.5l28 332h327v-500h-65v439h-202l-23 -276q-7 -88 -44.5 -130.5t-96.5 -42.5z" />
    <glyph glyph-name="uni043C" unicode="&#x43c;" horiz-adv-x="651" 
d="M72 0v500h66l205 -442h-30l205 442h61v-500h-65v377h11l-178 -377h-43l-178 377h11v-377h-65z" />
    <glyph glyph-name="uni043D" unicode="&#x43d;" horiz-adv-x="552" 
d="M415 0v500h65v-500h-65zM72 0v500h65v-500h-65zM121 222v61h310v-61h-310z" />
    <glyph glyph-name="uni043E" unicode="&#x43e;" horiz-adv-x="548" 
d="M274 -10q-64 0 -118 33.5t-85.5 93t-31.5 133.5t31.5 133.5t85.5 93t118 33.5t118 -33.5t85.5 -93t31.5 -133.5t-31.5 -133.5t-85.5 -93t-118 -33.5zM274 51q46 0 85 25t62 70.5t23 103.5t-23 103.5t-62 70.5t-85 25t-85 -25t-62 -70.5t-23 -103.5t23 -103.5t62 -70.5
t85 -25z" />
    <glyph glyph-name="uni043F" unicode="&#x43f;" horiz-adv-x="542" 
d="M72 0v500h398v-500h-65v439h-268v-439h-65z" />
    <glyph glyph-name="uni0440" unicode="&#x440;" horiz-adv-x="571" 
d="M72 -180v680h48l17 -68h5q10 14 32.5 32t56 32t71.5 14q63 0 115.5 -33t83.5 -92.5t31 -134.5t-31 -134.5t-83.5 -92.5t-115.5 -33q-38 0 -71.5 14t-56.5 32t-32 32h-5v-248h-65zM302 51q45 0 83 25t60 70.5t22 103.5t-22 103.5t-60 70.5t-83 25t-83 -25t-60 -70.5
t-22 -103.5t22 -103.5t60 -70.5t83 -25z" />
    <glyph glyph-name="uni0441" unicode="&#x441;" horiz-adv-x="526" 
d="M274 -10q-64 0 -118 33.5t-85.5 93t-31.5 133.5t31.5 133.5t85.5 93t118 33.5q56 0 102 -25.5t76 -68.5t40 -93h-65q-11 38 -32 66t-51.5 44t-69.5 16q-46 0 -85 -25t-62 -70.5t-23 -103.5t23 -103.5t62 -70.5t85 -25q39 0 69.5 15.5t51.5 44t32 66.5h65
q-10 -50 -40 -92.5t-76.5 -68.5t-101.5 -26z" />
    <glyph glyph-name="uni0442" unicode="&#x442;" horiz-adv-x="417" 
d="M176 0v439h-161v61h387v-61h-161v-439h-65z" />
    <glyph glyph-name="uni0443" unicode="&#x443;" horiz-adv-x="474" 
d="M111 -185q-11 0 -21 2.5t-18 5.5v59q8 -3 15.5 -4.5t15.5 -1.5q24 0 42.5 15t33.5 52l36 89v-42l-208 510h70l174 -434h-22l170 434h68l-221 -550q-22 -54 -43.5 -83.5t-43 -40.5t-48.5 -11z" />
    <glyph glyph-name="uni0444" unicode="&#x444;" horiz-adv-x="683" 
d="M356 -10v61h28q57 0 101.5 25t69 70t24.5 104t-24.5 104t-69 70t-101.5 25h-28v61h33q72 0 130.5 -33.5t91.5 -92.5t33 -134q0 -74 -33 -133.5t-91.5 -93t-130.5 -33.5h-33zM294 -10q-72 0 -130.5 33.5t-91.5 93t-33 133.5q0 75 33 134t91.5 92.5t130.5 33.5h33v-61h-28
q-57 0 -101.5 -25t-69 -70t-24.5 -104t25 -104t69 -70t101 -25h28v-61h-33zM309 -180v196v10v450v10v214h65v-214v-10v-450v-10v-196h-65z" />
    <glyph glyph-name="uni0445" unicode="&#x445;" horiz-adv-x="454" 
d="M11 0l175 255l-164 245h75l143 -218h-24l143 218h73l-164 -245l175 -255h-76l-154 228h25l-154 -228h-73z" />
    <glyph glyph-name="uni0446" unicode="&#x446;" horiz-adv-x="560" 
d="M474 -128v128h-402v500h65v-439h260v439h65v-439h77v-189h-65z" />
    <glyph glyph-name="uni0447" unicode="&#x447;" horiz-adv-x="508" 
d="M371 0v211l10 -11q-21 -17 -60 -31.5t-86 -14.5q-52 0 -93 22.5t-64.5 62.5t-23.5 93v168h65v-168q0 -54 33.5 -85.5t90.5 -31.5q45 0 81 16.5t57 35.5l-10 -25v258h65v-500h-65z" />
    <glyph glyph-name="uni0448" unicode="&#x448;" horiz-adv-x="741" 
d="M72 0v500h65v-439h467v439h65v-500h-597zM338 46v454h65v-454h-65z" />
    <glyph glyph-name="uni0449" unicode="&#x449;" horiz-adv-x="767" 
d="M681 -128v128h-609v500h65v-439h467v439h65v-439h77v-189h-65zM338 46v454h65v-454h-65z" />
    <glyph glyph-name="uni044A" unicode="&#x44a;" horiz-adv-x="511" 
d="M122 0v439h-122v61h187v-209v-10v-220h125q50 0 78.5 25.5t28.5 71.5t-28.5 72t-78.5 26h-141v61h141q52 0 91 -20t60 -56t21 -83t-21 -82.5t-60 -55.5t-91 -20h-190z" />
    <glyph glyph-name="uni044B" unicode="&#x44b;" horiz-adv-x="650" 
d="M72 0v500h65v-209v-10v-220h120q50 0 78.5 25.5t28.5 71.5t-28.5 72t-78.5 26h-136v61h136q52 0 91 -20t60 -56t21 -83t-21 -82.5t-60 -55.5t-91 -20h-185zM513 0v500h65v-500h-65z" />
    <glyph glyph-name="uni044C" unicode="&#x44c;" horiz-adv-x="461" 
d="M72 0v500h65v-209v-10v-220h125q50 0 78.5 25.5t28.5 71.5t-28.5 72t-78.5 26h-141v61h141q52 0 91 -20t60 -56t21 -83t-21 -82.5t-60 -55.5t-91 -20h-190z" />
    <glyph glyph-name="uni044D" unicode="&#x44d;" horiz-adv-x="521" 
d="M247 -10q-55 0 -101.5 26t-76.5 68.5t-40 92.5h65q17 -59 55.5 -92.5t97.5 -33.5q46 0 85 25t62 70.5t23 103.5t-23 103.5t-62 70.5t-85 25q-39 0 -69.5 -16t-51.5 -44t-32 -66h-65q10 50 40 93t76 68.5t102 25.5q64 0 118 -33.5t85.5 -93t31.5 -133.5t-31.5 -133.5
t-85.5 -93t-118 -33.5zM225 221v59h203v-59h-203z" />
    <glyph glyph-name="uni044E" unicode="&#x44e;" horiz-adv-x="699" 
d="M438 -10q-61 0 -112 32.5t-80.5 91.5t-29.5 136t29.5 136.5t80.5 91.5t112 32t112 -32t80.5 -91.5t29.5 -136.5t-29.5 -136t-80.5 -91.5t-112 -32.5zM72 0v500h65v-219h96v-61h-96v-220h-65zM438 51q43 0 78.5 24t57 69.5t21.5 105.5t-21.5 105t-57.5 69.5t-78 24.5
t-78 -24.5t-57.5 -69.5t-21.5 -105t21.5 -105.5t57 -69.5t78.5 -24z" />
    <glyph glyph-name="uni044F" unicode="&#x44f;" horiz-adv-x="484" 
d="M347 0v215v10v214h-131q-29 0 -53 -12.5t-37.5 -34t-13.5 -48.5q0 -42 28.5 -68.5t75.5 -26.5h146v-61h-149q-46 0 -84 21t-60 56.5t-22 78.5t22 78.5t60.5 56.5t85.5 21h197v-500h-65zM30 0l135 209h72l-130 -209h-77z" />
    <glyph glyph-name="uni0450" unicode="&#x450;" horiz-adv-x="537" 
d="M274 -10q-66 0 -119.5 33t-84.5 92t-31 135q0 74 31.5 133.5t85.5 93t118 33.5q63 0 114.5 -32.5t80.5 -88.5t29 -124q0 -14 -1 -25.5t-3 -21.5h-405v59h364l-25 -52q3 10 4 18t1 17q0 54 -20.5 97t-57 67.5t-81.5 24.5t-84.5 -25.5t-62.5 -71t-23 -102.5q0 -60 22 -105
t61 -69.5t89 -24.5q47 0 81.5 20t57.5 59h65q-15 -40 -45.5 -71.5t-72 -50t-88.5 -18.5zM257 560l-91 134h75l67 -134h-51z" />
    <glyph glyph-name="uni0451" unicode="&#x451;" horiz-adv-x="537" 
d="M274 -10q-66 0 -119.5 33t-84.5 92t-31 135q0 74 31.5 133.5t85.5 93t118 33.5q63 0 114.5 -32.5t80.5 -88.5t29 -124q0 -14 -1 -25.5t-3 -21.5h-405v59h364l-25 -52q3 10 4 18t1 17q0 54 -20.5 97t-57 67.5t-81.5 24.5t-84.5 -25.5t-62.5 -71t-23 -102.5q0 -60 22 -105
t61 -69.5t89 -24.5q47 0 81.5 20t57.5 59h65q-15 -40 -45.5 -71.5t-72 -50t-88.5 -18.5zM352 582q-18 0 -30.5 12.5t-12.5 30.5q0 19 12.5 31t30.5 12t30.5 -12.5t12.5 -30.5t-13 -30.5t-30 -12.5zM192 582q-17 0 -30 12.5t-13 30.5t12.5 30.5t30.5 12.5t30.5 -12t12.5 -31
q0 -18 -12.5 -30.5t-30.5 -12.5z" />
    <glyph glyph-name="uni0452" unicode="&#x452;" horiz-adv-x="563" 
d="M286 6q53 0 88.5 22.5t53.5 70.5t18 122q0 109 -39 161t-106 52q-43 0 -76 -19t-51.5 -55t-18.5 -85v-275h-65v700h65v-283h5q12 19 33 36.5t50 29.5t64 12q59 0 105 -30.5t72.5 -92t26.5 -151.5t-27.5 -152t-78 -93t-119.5 -31v61zM10 558v59h320v-59h-320z" />
    <glyph glyph-name="uni0453" unicode="&#x453;" horiz-adv-x="402" 
d="M72 0v500h320v-61h-255v-439h-65zM196 560l66 134h75l-90 -134h-51z" />
    <glyph glyph-name="uni0454" unicode="&#x454;" horiz-adv-x="526" 
d="M274 -10q-64 0 -118 33.5t-85.5 93t-31.5 133.5t31.5 133.5t85.5 93t118 33.5q56 0 102 -25.5t76 -68.5t40 -93h-65q-11 38 -32 66t-51.5 44t-69.5 16q-46 0 -85 -25t-62 -70.5t-23 -103.5t23 -103.5t62 -70.5t85 -25q59 0 97.5 33.5t55.5 92.5h65q-10 -50 -40 -92.5
t-76.5 -68.5t-101.5 -26zM93 221v59h203v-59h-203z" />
    <glyph glyph-name="uni0455" unicode="&#x455;" horiz-adv-x="435" 
d="M223 -10q-51 0 -92 21.5t-65 57.5t-27 76h65q5 -42 36 -68t83 -26q51 0 78.5 23t27.5 58q0 26 -16 43t-39 27.5t-65 23.5q-51 16 -82 30.5t-53 42t-22 71.5q0 39 20.5 71t57.5 50.5t86 18.5q48 0 86 -20t60 -54.5t25 -75.5h-65q-5 42 -32 65.5t-74 23.5t-73 -21.5
t-26 -54.5q0 -25 15.5 -41.5t39 -27t63.5 -23.5q51 -17 82.5 -32.5t54 -43.5t22.5 -73q0 -40 -20.5 -72.5t-59 -51t-91.5 -18.5z" />
    <glyph glyph-name="uni0456" unicode="&#x456;" horiz-adv-x="209" 
d="M72 0v500h65v-500h-65zM105 580q-19 0 -32 13t-13 32q0 13 6 23.5t16.5 16t22.5 5.5q20 0 32.5 -12.5t12.5 -32.5q0 -13 -6 -23t-16 -16t-23 -6z" />
    <glyph glyph-name="uni0457" unicode="&#x457;" horiz-adv-x="209" 
d="M72 0v500h65v-500h-65zM167 582q-17 0 -30 12.5t-13 30.5t12.5 30.5t30.5 12.5t30.5 -12t12.5 -31q0 -18 -12.5 -30.5t-30.5 -12.5zM43 582q-17 0 -30 12.5t-13 30.5t12.5 30.5t30.5 12.5t30.5 -12t12.5 -31q0 -18 -12.5 -30.5t-30.5 -12.5z" />
    <glyph glyph-name="uni0458" unicode="&#x458;" horiz-adv-x="209" 
d="M-1 -185q-14 0 -25 2.5t-19 5.5v59q16 -6 34 -6q39 0 61 24.5t22 73.5v526h65v-526q0 -74 -38.5 -116.5t-99.5 -42.5zM105 580q-19 0 -32 13t-13 32q0 13 6 23.5t16.5 16t22.5 5.5q20 0 32.5 -12.5t12.5 -32.5q0 -13 -6 -23t-16 -16t-23 -6z" />
    <glyph glyph-name="uni0459" unicode="&#x459;" horiz-adv-x="766" 
d="M31 -10q-10 0 -18.5 2t-15.5 4v57h17q28 0 47.5 11.5t31 37t14.5 66.5l28 332h317v-221v-10v-208h115q33 0 57 11t37 31.5t13 47.5q0 40 -28.5 64.5t-78.5 24.5h-150v61h150q52 0 91 -19.5t60 -53.5t21 -77t-21 -77.5t-60 -54t-91 -19.5h-180v439h-192l-23 -276
q-7 -88 -44.5 -130.5t-96.5 -42.5z" />
    <glyph glyph-name="uni045A" unicode="&#x45a;" horiz-adv-x="784" 
d="M405 0v500h65v-225v-10v-204h115q33 0 57 11t37 31.5t13 47.5q0 40 -28.5 64.5t-78.5 24.5h-142h-10h-328v61h480q52 0 91 -19.5t60 -53.5t21 -77t-21 -77.5t-60 -54t-91 -19.5h-180zM72 0v500h65v-500h-65z" />
    <glyph glyph-name="uni045B" unicode="&#x45b;" horiz-adv-x="573" 
d="M90 0v700h65v-283h5q12 19 33 36.5t50 29.5t64 12q56 0 101.5 -27t71.5 -77t26 -116v-275h-65v275q0 49 -18 85t-49.5 55t-72.5 19q-43 0 -76 -19t-51.5 -55t-18.5 -85v-275h-65zM10 558v59h320v-59h-320z" />
    <glyph glyph-name="uni045C" unicode="&#x45c;" horiz-adv-x="450" 
d="M372 0l-235 255l218 245h81l-233 -257v30l255 -273h-86zM72 0v500h65v-500h-65zM210 560l66 134h75l-90 -134h-51z" />
    <glyph glyph-name="uni045D" unicode="&#x45d;" horiz-adv-x="556" 
d="M72 0v500h65v-409h-14l304 409h57v-500h-65v409h14l-304 -409h-57zM268 560l-91 134h75l67 -134h-51z" />
    <glyph glyph-name="uni045E" unicode="&#x45e;" horiz-adv-x="474" 
d="M111 -185q-11 0 -21 2.5t-18 5.5v59q8 -3 15.5 -4.5t15.5 -1.5q24 0 42.5 15t33.5 52l36 89v-42l-208 510h70l174 -434h-22l170 434h68l-221 -550q-22 -54 -43.5 -83.5t-43 -40.5t-48.5 -11zM238 566q-41 0 -71 16.5t-46 44.5t-18 61h54q4 -35 24 -54t57 -19t57 19t24 54
h54q-2 -33 -18 -61t-46 -44.5t-71 -16.5z" />
    <glyph glyph-name="uni045F" unicode="&#x45f;" horiz-adv-x="546" 
d="M240 -128v148h65v-148h-65zM72 0v500h65v-439h272v439h65v-500h-402z" />
    <glyph glyph-name="uni0462" unicode="&#x462;" horiz-adv-x="620" 
d="M135 0v700h70v-295v-10v-330h161q45 0 79 18.5t53 53t19 79.5t-19 79.5t-53 53t-79 18.5h-177v65h177q63 0 113.5 -28t79 -77t28.5 -111t-28.5 -111t-79 -77t-113.5 -28h-231zM-5 524v65h396v-65h-396z" />
    <glyph glyph-name="uni0463" unicode="&#x463;" horiz-adv-x="494" 
d="M105 0v700h65v-409v-10v-220h125q33 0 57 11.5t37 33.5t13 52q0 46 -28.5 72t-78.5 26h-141v61h141q52 0 91 -20t60 -56t21 -83t-21 -82.5t-60 -55.5t-91 -20h-190zM-5 465v59h330v-59h-330z" />
    <glyph glyph-name="uni0472" unicode="&#x472;" horiz-adv-x="737" 
d="M78 318v63h580v-63h-580zM368 -10q-86 0 -160.5 47t-119 129.5t-44.5 183.5t44.5 183.5t119 129.5t160.5 47t161 -47t119.5 -129.5t44.5 -183.5t-44.5 -183.5t-119.5 -129.5t-161 -47zM368 55q68 0 126.5 37.5t93.5 105t35 152.5t-35 152.5t-93.5 105t-126.5 37.5
q-67 0 -125.5 -37.5t-93.5 -105t-35 -152.5t35 -152.5t93.5 -105t125.5 -37.5z" />
    <glyph glyph-name="uni0473" unicode="&#x473;" horiz-adv-x="548" 
d="M84 220v59h379v-59h-379zM274 -10q-64 0 -118 33.5t-85.5 93t-31.5 133.5t31.5 133.5t85.5 93t118 33.5t118 -33.5t85.5 -93t31.5 -133.5t-31.5 -133.5t-85.5 -93t-118 -33.5zM274 51q46 0 85 25t62 70.5t23 103.5t-23 103.5t-62 70.5t-85 25t-85 -25t-62 -70.5
t-23 -103.5t23 -103.5t62 -70.5t85 -25z" />
    <glyph glyph-name="uni0474" unicode="&#x474;" horiz-adv-x="648" 
d="M267 0l-255 700h75l228 -634h-16l178 496q21 58 42.5 91t48.5 47.5t64 14.5q21 0 36.5 -5t24.5 -11l-20 -63q-7 7 -17 10.5t-24 3.5q-30 0 -49 -21.5t-41 -81.5l-200 -547h-75z" />
    <glyph glyph-name="uni0475" unicode="&#x475;" horiz-adv-x="499" 
d="M211 0l-204 500h70l171 -432h-15l134 340q23 59 49.5 83t67.5 24q17 0 29.5 -4.5t20.5 -11.5l-14 -54q-6 4 -15 6.5t-19 2.5q-18 0 -31 -12.5t-28 -50.5l-158 -391h-58z" />
    <glyph glyph-name="uni048A" unicode="&#x48a;" horiz-adv-x="710" 
d="M570 -150l42 150h-81v607h18l-393 -607h-67v700h70v-607h-18l393 607h67v-635h102v-11l-76 -204h-57zM351 760q-42 0 -72.5 16.5t-46.5 43.5t-18 59h54q4 -33 24.5 -51.5t58.5 -18.5t58.5 18.5t24.5 51.5h54q-2 -32 -18 -59t-46.5 -43.5t-72.5 -16.5z" />
    <glyph glyph-name="uni048B" unicode="&#x48b;" horiz-adv-x="582" 
d="M449 -128l31 128h-61v409h14l-304 -409h-57v500h65v-409h-14l304 409h57v-439h82v-11l-61 -178h-56zM283 566q-41 0 -71 16.5t-46 44.5t-18 61h54q4 -35 24 -54t57 -19t57 19t24 54h54q-2 -33 -18 -61t-46 -44.5t-71 -16.5z" />
    <glyph glyph-name="uni048C" unicode="&#x48c;" horiz-adv-x="620" 
d="M135 0v700h70v-295v-10v-330h161q45 0 79 18.5t53 53t19 79.5t-19 79.5t-53 53t-79 18.5h-177v65h177q63 0 113.5 -28t79 -77t28.5 -111t-28.5 -111t-79 -77t-113.5 -28h-231zM-5 524v65h396v-65h-396z" />
    <glyph glyph-name="uni048D" unicode="&#x48d;" horiz-adv-x="494" 
d="M105 0v700h65v-409v-10v-220h125q33 0 57 11.5t37 33.5t13 52q0 46 -28.5 72t-78.5 26h-141v61h141q52 0 91 -20t60 -56t21 -83t-21 -82.5t-60 -55.5t-91 -20h-190zM-5 465v59h330v-59h-330z" />
    <glyph glyph-name="uni048E" unicode="&#x48e;" horiz-adv-x="581" 
d="M469 188l-170 241l52 37l169 -241zM89 0v700h222q62 0 113.5 -29t81.5 -78.5t30 -108.5q0 -60 -30 -109.5t-81.5 -78.5t-113.5 -29h-168v65h168q44 0 79.5 19.5t55.5 54.5t20 78t-20 77.5t-55.5 54t-79.5 19.5h-152v-330v-10v-295h-70z" />
    <glyph glyph-name="uni048F" unicode="&#x48f;" horiz-adv-x="571" 
d="M474 -58l-161 220l48 37l161 -220zM72 -180v680h48l17 -68h5q10 14 32.5 32t56 32t71.5 14q63 0 115.5 -33t83.5 -92.5t31 -134.5t-31 -134.5t-83.5 -92.5t-115.5 -33q-38 0 -71.5 14t-56.5 32t-32 32h-5v-248h-65zM302 51q45 0 83 25t60 70.5t22 103.5t-22 103.5
t-60 70.5t-83 25t-83 -25t-60 -70.5t-22 -103.5t22 -103.5t60 -70.5t83 -25z" />
    <glyph glyph-name="uni0490" unicode="&#x490;" horiz-adv-x="498" 
d="M89 0v700h327v125h70v-190h-327v-635h-70z" />
    <glyph glyph-name="uni0491" unicode="&#x491;" horiz-adv-x="402" 
d="M72 0v500h255v100h65v-161h-255v-439h-65z" />
    <glyph glyph-name="uni0492" unicode="&#x492;" horiz-adv-x="529" 
d="M20 308v65h404v-65h-404zM115 0v700h397v-65h-327v-635h-70z" />
    <glyph glyph-name="uni0493" unicode="&#x493;" horiz-adv-x="425" 
d="M10 196v61h335v-61h-335zM90 0v500h320v-61h-255v-439h-65z" />
    <glyph glyph-name="uni0494" unicode="&#x494;" horiz-adv-x="627" 
d="M335 10q46 0 83.5 22.5t59 66t21.5 102.5q0 93 -45.5 141.5t-124.5 48.5q-49 0 -87.5 -21t-60.5 -58t-22 -83v-229h-70v700h387v-65h-317v-285h-17q12 23 39 47.5t67.5 41.5t90.5 17q68 0 120 -29.5t81 -87t29 -138.5q0 -77 -30.5 -135t-84 -89.5t-119.5 -31.5v65z" />
    <glyph glyph-name="uni0495" unicode="&#x495;" horiz-adv-x="497" 
d="M268 -124q40 0 71.5 19.5t49.5 58.5t18 93t-18 92t-47.5 58t-65.5 20q-39 0 -70.5 -19t-50 -53t-18.5 -77v-68h-65v500h310v-61h-245v-228h5q19 27 54.5 47t83.5 20q53 0 97 -28t69.5 -80.5t25.5 -122.5q0 -69 -27 -121.5t-73.5 -81.5t-103.5 -29v61z" />
    <glyph glyph-name="uni0496" unicode="&#x496;" horiz-adv-x="797" 
d="M732 -150v150h-36l-274 355l264 345h80l-283 -361v40l248 -314h71v-215h-70zM-8 0l299 379v-40l-283 361h80l264 -345l-274 -355h-86zM352 0v700h70v-700h-70z" />
    <glyph glyph-name="uni0497" unicode="&#x497;" horiz-adv-x="649" 
d="M589 -128v128h-34l-208 260l192 240h78l-205 -250v27l176 -216h66v-189h-65zM-8 0l225 277v-27l-205 250h78l192 -240l-208 -260h-82zM282 0v500h65v-500h-65z" />
    <glyph glyph-name="uni0498" unicode="&#x498;" horiz-adv-x="538" 
d="M231 -150v170h70v-170h-70zM266 -10q-69 0 -120.5 26t-81.5 71.5t-36 101.5h70q9 -60 52 -97t116 -37q47 0 83 17.5t55.5 47t19.5 66.5q0 41 -19.5 72.5t-56.5 49.5t-87 18h-46v63h46q45 0 78 16t50.5 44.5t17.5 65.5q0 56 -40 93t-107 37q-62 0 -103 -38t-45 -95h-70
q4 55 32.5 100t77 71.5t108.5 26.5q63 0 112.5 -26.5t77 -71.5t27.5 -97q0 -41 -19.5 -73t-48.5 -52.5t-60 -31.5v11q34 -11 66.5 -32t55.5 -59t23 -92q0 -50 -29 -95.5t-81.5 -73t-117.5 -27.5z" />
    <glyph glyph-name="uni0499" unicode="&#x499;" horiz-adv-x="430" 
d="M179 -128v148h65v-148h-65zM213 -10q-57 0 -99 21.5t-65 58t-26 80.5h65q4 -46 35 -72.5t90 -26.5q56 0 84.5 23t28.5 63q0 42 -28.5 66.5t-81.5 24.5h-54v59h50q34 0 56.5 9.5t34 26.5t11.5 40t-12.5 43t-36.5 31.5t-56 11.5q-50 0 -78.5 -25.5t-33.5 -67.5h-65
q5 65 52 109.5t130 44.5q49 0 86.5 -20t58 -53.5t20.5 -73.5q0 -33 -13.5 -55.5t-31 -34.5t-33.5 -17v8q20 -6 40.5 -22t35 -43t14.5 -62q0 -40 -21 -73.5t-61.5 -53.5t-95.5 -20z" />
    <glyph glyph-name="uni049A" unicode="&#x49a;" horiz-adv-x="569" 
d="M504 -150v150h-36l-309 355l299 345h84l-314 -358v34l273 -311h73v-215h-70zM89 0v700h70v-700h-70z" />
    <glyph glyph-name="uni049B" unicode="&#x49b;" horiz-adv-x="466" 
d="M406 -128v128h-34l-235 255l218 245h81l-233 -257v30l198 -212h70v-189h-65zM72 0v500h65v-500h-65z" />
    <glyph glyph-name="uni049C" unicode="&#x49c;" horiz-adv-x="620" 
d="M541 0l-257 319h-141v63h136l252 318h82l-300 -375v61l315 -386h-87zM89 0v700h70v-700h-70zM192 214v273h65v-273h-65z" />
    <glyph glyph-name="uni049D" unicode="&#x49d;" horiz-adv-x="484" 
d="M410 0l-173 221h-115v59h111l160 220h77l-209 -279v66l231 -287h-82zM72 0v500h65v-500h-65zM167 126v249h53v-249h-53z" />
    <glyph glyph-name="uni049E" unicode="&#x49e;" horiz-adv-x="576" 
d="M0 564v63h298v-63h-298zM494 0l-309 355l299 345h84l-314 -358v34l330 -376h-90zM115 0v700h70v-700h-70z" />
    <glyph glyph-name="uni049F" unicode="&#x49f;" horiz-adv-x="468" 
d="M10 558v59h295v-59h-295zM390 0l-235 255l218 245h81l-233 -257v30l255 -273h-86zM90 0v700h65v-700h-65z" />
    <glyph glyph-name="uni04A0" unicode="&#x4a0;" horiz-adv-x="623" 
d="M541 0l-309 355l299 345h84l-314 -358v34l330 -376h-90zM162 0v635h-167v65h237v-700h-70z" />
    <glyph glyph-name="uni04A1" unicode="&#x4a1;" horiz-adv-x="500" 
d="M422 0l-235 255l218 245h81l-233 -257v30l255 -273h-86zM122 0v439h-122v61h187v-500h-65z" />
    <glyph glyph-name="uni04A2" unicode="&#x4a2;" horiz-adv-x="700" 
d="M608 -150v150h-87v700h70v-635h87v-215h-70zM89 0v700h70v-700h-70zM143 325v65h394v-65h-394z" />
    <glyph glyph-name="uni04A3" unicode="&#x4a3;" horiz-adv-x="578" 
d="M492 -128v128h-77v500h65v-439h77v-189h-65zM72 0v500h65v-500h-65zM121 222v61h310v-61h-310z" />
    <glyph glyph-name="uni04A4" unicode="&#x4a4;" horiz-adv-x="900" 
d="M506 0v700h382v-65h-312v-635h-70zM89 0v700h70v-700h-70zM143 325v65h378v-65h-378z" />
    <glyph glyph-name="uni04A5" unicode="&#x4a5;" horiz-adv-x="715" 
d="M400 0v500h305v-61h-240v-439h-65zM72 0v500h65v-500h-65zM121 222v61h295v-61h-295z" />
    <glyph glyph-name="uni04A8" unicode="&#x4a8;" horiz-adv-x="744" 
d="M356 -10q-82 0 -153.5 46.5t-115 129t-43.5 184.5q0 94 37.5 172t101.5 127.5t139 60.5v-65q-57 -11 -104.5 -51t-75.5 -103t-28 -141q0 -86 33.5 -153t89.5 -104.5t121 -37.5q25 0 44.5 5.5t31.5 12.5v-17q-30 20 -65 60t-62 107t-27 154q0 85 28.5 146.5t75.5 93.5
t102 32t102.5 -32t76 -93.5t28.5 -146.5q0 -96 -33 -167.5t-73 -111t-62 -46.5v26q18 -11 41.5 -17t47.5 -6q27 0 52.5 7.5t48.5 20.5l34 -52q-12 -8 -32 -17.5t-47 -16.5t-55 -7q-30 0 -58.5 8t-50 19t-34.5 21h28q-17 -13 -38 -23.5t-48 -17.5t-58 -7zM473 88q30 17 64 54
t60 97t26 138q0 68 -19 115t-50.5 69.5t-67.5 22.5q-37 0 -67.5 -22.5t-49.5 -69.5t-19 -115q0 -78 26 -138.5t60.5 -97.5t62.5 -53h-26z" />
    <glyph glyph-name="uni04A9" unicode="&#x4a9;" horiz-adv-x="554" 
d="M271 -10q-64 0 -117 33.5t-84 92.5t-31 134q0 69 26 125t69.5 91t92.5 44v-65q-30 -9 -58.5 -35.5t-46.5 -68t-18 -91.5q0 -58 23 -103.5t61 -70.5t83 -25q13 0 20.5 1t17.5 6v-12q-14 10 -37 38t-42.5 75.5t-19.5 106.5q0 62 20 105.5t54 66t76 22.5t76 -22.5t54 -66
t20 -105.5q0 -58 -19.5 -105t-43.5 -76t-39 -39v13q15 -5 24.5 -6.5t16.5 -1.5q28 0 49 6t29 13l32 -48q-11 -10 -40.5 -21t-69.5 -11q-34 0 -60.5 9.5t-40.5 25.5h26q-23 -18 -48.5 -26.5t-54.5 -8.5zM351 62q20 20 40 46t37 67.5t17 90.5q0 45 -11.5 75t-30.5 44t-43 14
t-43 -14t-30.5 -44t-11.5 -75q0 -50 18 -92.5t38.5 -68.5t38.5 -43h-19z" />
    <glyph glyph-name="uni04AA" unicode="&#x4aa;" horiz-adv-x="704" 
d="M334 -150v170h70v-170h-70zM368 -10q-86 0 -160.5 47t-119 129.5t-44.5 183.5t44.5 183.5t119 129.5t160.5 47q70 0 130.5 -32t102.5 -87.5t59 -124.5h-70q-17 51 -47.5 91.5t-75 64t-99.5 23.5q-67 0 -125.5 -37.5t-93.5 -105t-35 -152.5t35 -152.5t93.5 -105
t125.5 -37.5q84 0 142.5 50t84.5 129h70q-17 -69 -59.5 -124.5t-104 -87.5t-133.5 -32z" />
    <glyph glyph-name="uni04AB" unicode="&#x4ab;" horiz-adv-x="526" 
d="M248 -128v148h65v-148h-65zM274 -10q-64 0 -118 33.5t-85.5 93t-31.5 133.5t31.5 133.5t85.5 93t118 33.5q56 0 102 -25.5t76 -68.5t40 -93h-65q-11 38 -32 66t-51.5 44t-69.5 16q-46 0 -85 -25t-62 -70.5t-23 -103.5t23 -103.5t62 -70.5t85 -25q39 0 69.5 15.5t51.5 44
t32 66.5h65q-10 -50 -40 -92.5t-76.5 -68.5t-101.5 -26z" />
    <glyph glyph-name="uni04AC" unicode="&#x4ac;" horiz-adv-x="536" 
d="M320 -150v150h-87v635h-216v65h502v-65h-216v-570h87v-215h-70z" />
    <glyph glyph-name="uni04AD" unicode="&#x4ad;" horiz-adv-x="417" 
d="M253 -128v128h-77v439h-161v61h387v-61h-161v-378h77v-189h-65z" />
    <glyph glyph-name="uni04AE" unicode="&#x4ae;" horiz-adv-x="534" 
d="M232 0v274l-230 426h76l199 -372h-17l199 372h73l-230 -426v-274h-70z" />
    <glyph glyph-name="uni04AF" unicode="&#x4af;" horiz-adv-x="478" 
d="M207 -180v186l-200 494h70l174 -440h-20l172 440h68l-199 -494v-186h-65z" />
    <glyph glyph-name="uni04B0" unicode="&#x4b0;" horiz-adv-x="534" 
d="M92 207v63h350v-63h-350zM232 0v274l-230 426h76l199 -372h-17l199 372h73l-230 -426v-274h-70z" />
    <glyph glyph-name="uni04B1" unicode="&#x4b1;" horiz-adv-x="478" 
d="M110 -46v59h259v-59h-259zM207 -180v186l-200 494h70l174 -440h-20l172 440h68l-199 -494v-186h-65z" />
    <glyph glyph-name="uni04B2" unicode="&#x4b2;" horiz-adv-x="576" 
d="M511 -150v150h-37l-201 315h22l-203 -315h-77l230 355l-219 345h80l192 -305h-22l191 305h78l-220 -345l189 -290h67v-215h-70z" />
    <glyph glyph-name="uni04B3" unicode="&#x4b3;" horiz-adv-x="461" 
d="M401 -128v128h-34l-154 228h25l-154 -228h-73l175 255l-164 245h75l143 -218h-24l143 218h73l-164 -245l133 -194h65v-189h-65z" />
    <glyph glyph-name="uni04B4" unicode="&#x4b4;" horiz-adv-x="813" 
d="M721 -150v150h-503v635h-201v65h472v-65h-201v-570h346v635h70v-635h87v-215h-70z" />
    <glyph glyph-name="uni04B5" unicode="&#x4b5;" horiz-adv-x="649" 
d="M563 -128v128h-402v439h-146v61h357v-61h-146v-378h260v439h65v-439h77v-189h-65z" />
    <glyph glyph-name="uni04B6" unicode="&#x4b6;" horiz-adv-x="658" 
d="M566 -150v150h-87v296l15 -9q-19 -15 -47.5 -30t-66.5 -26t-80 -11q-68 0 -119 27.5t-79 80t-28 125.5v247h70v-247q0 -54 19 -91.5t54.5 -57t82.5 -19.5q60 0 111 21t83 46l-15 -30v378h70v-635h87v-215h-70z" />
    <glyph glyph-name="uni04B7" unicode="&#x4b7;" horiz-adv-x="534" 
d="M448 -128v128h-77v211l10 -11q-21 -17 -60 -31.5t-86 -14.5q-52 0 -93 22.5t-64.5 62.5t-23.5 93v168h65v-168q0 -54 33.5 -85.5t90.5 -31.5q45 0 81 16.5t57 35.5l-10 -25v258h65v-439h77v-189h-65z" />
    <glyph glyph-name="uni04B8" unicode="&#x4b8;" horiz-adv-x="638" 
d="M279 114v277h65v-277h-65zM479 0v296l15 -9q-19 -15 -47.5 -30t-66.5 -26t-80 -11q-68 0 -119 27.5t-79 80t-28 125.5v247h70v-247q0 -54 19 -91.5t54.5 -57t82.5 -19.5q60 0 111 21t83 46l-15 -30v378h70v-700h-70z" />
    <glyph glyph-name="uni04B9" unicode="&#x4b9;" horiz-adv-x="508" 
d="M371 0v211l10 -11q-21 -17 -60 -31.5t-86 -14.5q-52 0 -93 22.5t-64.5 62.5t-23.5 93v168h65v-168q0 -54 33.5 -85.5t90.5 -31.5q45 0 81 16.5t57 35.5l-10 -25v258h65v-500h-65zM218 58v253h53v-253h-53z" />
    <glyph glyph-name="uni04BA" unicode="&#x4ba;" horiz-adv-x="638" 
d="M89 0v700h70v-296l-15 9q30 25 81.5 46t111.5 21q68 0 119.5 -27.5t79.5 -80.5t28 -125v-247h-70v247q0 54 -19.5 91.5t-55 57t-82.5 19.5q-59 0 -110 -21t-83 -46l15 30v-378h-70z" />
    <glyph glyph-name="uni04BB" unicode="&#x4bb;" horiz-adv-x="560" 
d="M77 0v700h65v-268h5q12 19 33 36.5t50 29.5t64 12q56 0 101.5 -27t71.5 -77t26 -116v-290h-65v290q0 49 -18 85t-49.5 55t-72.5 19q-43 0 -76 -19t-51.5 -55t-18.5 -85v-290h-65z" />
    <glyph glyph-name="uni04BC" unicode="&#x4bc;" horiz-adv-x="820" 
d="M456 -10q-86 0 -160.5 47t-119 129.5t-44.5 183.5t44.5 183.5t119 129.5t160.5 47q83 0 157 -47t118.5 -128.5t44.5 -179.5q0 -5 -0.5 -12t-1.5 -17h-658q-38 0 -65 14t-41.5 40t-14.5 61v29h65v-25q0 -29 13.5 -42.5t42.5 -13.5h606l-18 -42v9.5v9.5q0 76 -34.5 140.5
t-92 101.5t-121.5 37q-68 0 -126 -37.5t-93 -105t-35 -152.5t35 -152.5t93 -105t126 -37.5q71 0 132 39.5t94 111.5h70q-22 -65 -67.5 -114t-105.5 -75.5t-123 -26.5z" />
    <glyph glyph-name="uni04BD" unicode="&#x4bd;" horiz-adv-x="628" 
d="M365 -10q-66 0 -119.5 33t-84.5 92t-31 135q0 74 31.5 133.5t85.5 93t118 33.5q63 0 114.5 -32.5t80.5 -88.5t29 -124q0 -14 -1 -25.5t-3 -21.5h-464q-38 0 -65.5 13.5t-41.5 38t-14 57.5v18h65v-18q0 -27 12.5 -38.5t43.5 -11.5h423l-25 -52q3 10 4 18t1 17
q0 54 -20.5 97t-57 67.5t-81.5 24.5t-84.5 -25.5t-62.5 -71t-23 -102.5q0 -60 22 -105t61 -69.5t89 -24.5q47 0 81.5 20t57.5 59h65q-15 -40 -45.5 -71.5t-72 -50t-88.5 -18.5z" />
    <glyph glyph-name="uni04BE" unicode="&#x4be;" horiz-adv-x="820" 
d="M421 -150v170h70v-170h-70zM456 -10q-86 0 -160.5 47t-119 129.5t-44.5 183.5t44.5 183.5t119 129.5t160.5 47q83 0 157 -47t118.5 -128.5t44.5 -179.5q0 -5 -0.5 -12t-1.5 -17h-658q-38 0 -65 14t-41.5 40t-14.5 61v29h65v-25q0 -29 13.5 -42.5t42.5 -13.5h606l-18 -42
v9.5v9.5q0 76 -34.5 140.5t-92 101.5t-121.5 37q-68 0 -126 -37.5t-93 -105t-35 -152.5t35 -152.5t93 -105t126 -37.5q71 0 132 39.5t94 111.5h70q-22 -65 -67.5 -114t-105.5 -75.5t-123 -26.5z" />
    <glyph glyph-name="uni04BF" unicode="&#x4bf;" horiz-adv-x="628" 
d="M331 -128v148h65v-148h-65zM365 -10q-66 0 -119.5 33t-84.5 92t-31 135q0 74 31.5 133.5t85.5 93t118 33.5q63 0 114.5 -32.5t80.5 -88.5t29 -124q0 -14 -1 -25.5t-3 -21.5h-464q-38 0 -65.5 13.5t-41.5 38t-14 57.5v18h65v-18q0 -27 12.5 -38.5t43.5 -11.5h423l-25 -52
q3 10 4 18t1 17q0 54 -20.5 97t-57 67.5t-81.5 24.5t-84.5 -25.5t-62.5 -71t-23 -102.5q0 -60 22 -105t61 -69.5t89 -24.5q47 0 81.5 20t57.5 59h65q-15 -40 -45.5 -71.5t-72 -50t-88.5 -18.5z" />
    <glyph glyph-name="uni04C0" unicode="&#x4c0;" horiz-adv-x="248" 
d="M89 0v700h70v-700h-70z" />
    <glyph glyph-name="uni04C1" unicode="&#x4c1;" horiz-adv-x="774" 
d="M696 0l-274 355l264 345h80l-283 -361v40l299 -379h-86zM-8 0l299 379v-40l-283 361h80l264 -345l-274 -355h-86zM352 0v700h70v-700h-70zM387 760q-42 0 -72.5 16.5t-46.5 43.5t-18 59h54q4 -33 24.5 -51.5t58.5 -18.5t58.5 18.5t24.5 51.5h54q-2 -32 -18 -59
t-46.5 -43.5t-72.5 -16.5z" />
    <glyph glyph-name="uni04C2" unicode="&#x4c2;" horiz-adv-x="629" 
d="M555 0l-208 260l192 240h78l-205 -250v27l225 -277h-82zM-8 0l225 277v-27l-205 250h78l192 -240l-208 -260h-82zM282 0v500h65v-500h-65zM315 566q-41 0 -71 16.5t-46 44.5t-18 61h54q4 -35 24 -54t57 -19t57 19t24 54h54q-2 -33 -18 -61t-46 -44.5t-71 -16.5z" />
    <glyph glyph-name="uni04C3" unicode="&#x4c3;" horiz-adv-x="627" 
d="M340 -45q46 0 83.5 23t59 66.5t21.5 103.5q0 59 -22 102.5t-61 66.5t-87 23q-52 0 -91.5 -21.5t-61.5 -59.5t-22 -87v-172h-70v700h70v-381l-13 2l307 379h85l-262 -314l-12 10q15 4 34 6.5t36 2.5q69 0 123.5 -31.5t85.5 -89.5t31 -136t-30.5 -136.5t-84 -90
t-119.5 -31.5v65z" />
    <glyph glyph-name="uni04C4" unicode="&#x4c4;" horiz-adv-x="497" 
d="M268 -124q40 0 71.5 19.5t49.5 58.5t18 93t-18 92t-47.5 58t-65.5 20q-39 0 -70.5 -19t-50 -53t-18.5 -77v-68h-65v500h65v-285l-13 4l221 281h81l-200 -248l-24 8q16 9 36 13.5t42 4.5q53 0 97 -28t69.5 -80.5t25.5 -122.5q0 -69 -27 -121.5t-73.5 -81.5t-103.5 -29v61z
" />
    <glyph glyph-name="uni04C5" unicode="&#x4c5;" horiz-adv-x="693" 
d="M553 -150l42 150h-81v635h-280l-34 -436q-5 -68 -28.5 -115t-60 -70.5t-82.5 -23.5q-12 0 -21.5 1.5t-16.5 3.5v65h17q54 0 85 33t37 106l39 501h415v-635h102v-11l-76 -204h-57z" />
    <glyph glyph-name="uni04C6" unicode="&#x4c6;" horiz-adv-x="560" 
d="M427 -128l31 128h-61v439h-202l-23 -276q-7 -88 -44.5 -130.5t-96.5 -42.5q-10 0 -18.5 2t-15.5 4v57h17q28 0 47.5 11.5t31 37t14.5 66.5l28 332h327v-439h82v-11l-61 -178h-56z" />
    <glyph glyph-name="uni04C7" unicode="&#x4c7;" horiz-adv-x="680" 
d="M441 -195q-16 0 -30.5 2.5t-22.5 5.5v63q10 -3 20.5 -4.5t19.5 -1.5q46 0 69.5 24.5t23.5 75.5v730h70v-730q0 -78 -40.5 -121.5t-109.5 -43.5zM89 0v700h70v-700h-70zM143 325v65h394v-65h-394z" />
    <glyph glyph-name="uni04C8" unicode="&#x4c8;" horiz-adv-x="552" 
d="M348 -185q-18 0 -31 2.5t-19 5.5v58q4 -2 14 -3.5t19 -1.5q40 0 62 24.5t22 73.5v526h65v-526q0 -73 -37.5 -116t-94.5 -43zM72 0v500h65v-500h-65zM121 222v61h310v-61h-310z" />
    <glyph glyph-name="uni04C9" unicode="&#x4c9;" horiz-adv-x="700" 
d="M560 -150l42 150h-81v700h70v-635h102v-11l-76 -204h-57zM89 0v700h70v-700h-70zM143 325v65h394v-65h-394z" />
    <glyph glyph-name="uni04CA" unicode="&#x4ca;" horiz-adv-x="578" 
d="M445 -128l31 128h-61v500h65v-439h82v-11l-61 -178h-56zM72 0v500h65v-500h-65zM121 222v61h310v-61h-310z" />
    <glyph glyph-name="uni04CB" unicode="&#x4cb;" horiz-adv-x="638" 
d="M397 -150v215h82v231l15 -9q-19 -15 -47.5 -30t-66.5 -26t-80 -11q-68 0 -119 27.5t-79 80t-28 125.5v247h70v-247q0 -54 19 -91.5t54.5 -57t82.5 -19.5q60 0 111 21t83 46l-15 -30v378h70v-700h-82v-150h-70z" />
    <glyph glyph-name="uni04CC" unicode="&#x4cc;" horiz-adv-x="508" 
d="M299 -128v189h72v150l10 -11q-21 -17 -60 -31.5t-86 -14.5q-52 0 -93 22.5t-64.5 62.5t-23.5 93v168h65v-168q0 -54 33.5 -85.5t90.5 -31.5q45 0 81 16.5t57 35.5l-10 -25v258h65v-500h-72v-128h-65z" />
    <glyph glyph-name="uni04CD" unicode="&#x4cd;" horiz-adv-x="850" 
d="M710 -150l42 150h-81v565h18l-251 -565h-47l-250 565h18v-565h-70v700h65l276 -628h-30l277 628h64v-635h102v-11l-76 -204h-57z" />
    <glyph glyph-name="uni04CE" unicode="&#x4ce;" horiz-adv-x="677" 
d="M544 -128l31 128h-61v377h11l-178 -377h-43l-178 377h11v-377h-65v500h66l205 -442h-30l205 442h61v-439h82v-11l-61 -178h-56z" />
    <glyph glyph-name="uni04CF" unicode="&#x4cf;" horiz-adv-x="219" 
d="M77 0v700h65v-700h-65z" />
    <glyph glyph-name="uni04D0" unicode="&#x4d0;" horiz-adv-x="607" 
d="M5 0l266 700h65l266 -700h-75l-75 200l-9 24l-153 408h24l-153 -408l-9 -24l-75 -200h-72zM119 178l26 65h318l26 -65h-370zM304 760q-42 0 -72.5 16.5t-46.5 43.5t-18 59h54q4 -33 24.5 -51.5t58.5 -18.5t58.5 18.5t24.5 51.5h54q-2 -32 -18 -59t-46.5 -43.5
t-72.5 -16.5z" />
    <glyph glyph-name="uni04D1" unicode="&#x4d1;" horiz-adv-x="497" 
d="M206 -10q-50 0 -87.5 20.5t-58 54.5t-20.5 75q0 45 27.5 80.5t77 55.5t113.5 20h123v-59h-113q-77 0 -120 -25.5t-43 -71.5q0 -40 28 -64.5t80 -24.5q46 0 80.5 18.5t53 51t18.5 73.5v131q0 37 -15 65t-42.5 43.5t-62.5 15.5q-51 0 -80.5 -26t-37.5 -68h-65
q5 42 29.5 77.5t64.5 56.5t89 21q53 0 95 -23.5t66 -65.5t24 -96v-325h-48l-17 68h-5q-19 -30 -58.5 -54t-95.5 -24zM247 566q-41 0 -71 16.5t-46 44.5t-18 61h54q4 -35 24 -54t57 -19t57 19t24 54h54q-2 -33 -18 -61t-46 -44.5t-71 -16.5z" />
    <glyph glyph-name="uni04D2" unicode="&#x4d2;" horiz-adv-x="607" 
d="M5 0l266 700h65l266 -700h-75l-75 200l-9 24l-153 408h24l-153 -408l-9 -24l-75 -200h-72zM119 178l26 65h318l26 -65h-370zM389 776q-17 0 -30 12.5t-13 30.5t13 30.5t30 12.5t30 -12.5t13 -30.5t-13 -30.5t-30 -12.5zM219 776q-17 0 -30 12.5t-13 30.5t13 30.5t30 12.5
q18 0 30.5 -12.5t12.5 -30.5t-12.5 -30.5t-30.5 -12.5z" />
    <glyph glyph-name="uni04D3" unicode="&#x4d3;" horiz-adv-x="497" 
d="M206 -10q-50 0 -87.5 20.5t-58 54.5t-20.5 75q0 45 27.5 80.5t77 55.5t113.5 20h123v-59h-113q-77 0 -120 -25.5t-43 -71.5q0 -40 28 -64.5t80 -24.5q46 0 80.5 18.5t53 51t18.5 73.5v131q0 37 -15 65t-42.5 43.5t-62.5 15.5q-51 0 -80.5 -26t-37.5 -68h-65
q5 42 29.5 77.5t64.5 56.5t89 21q53 0 95 -23.5t66 -65.5t24 -96v-325h-48l-17 68h-5q-19 -30 -58.5 -54t-95.5 -24zM327 582q-18 0 -30.5 12.5t-12.5 30.5q0 19 12.5 31t30.5 12t30.5 -12.5t12.5 -30.5t-13 -30.5t-30 -12.5zM167 582q-17 0 -30 12.5t-13 30.5t12.5 30.5
t30.5 12.5t30.5 -12t12.5 -31q0 -18 -12.5 -30.5t-30.5 -12.5z" />
    <glyph glyph-name="uni04D4" unicode="&#x4d4;" horiz-adv-x="880" 
d="M-28 0l404 700h449v-65h-333v-570h343v-65h-413v635h-10l-363 -635h-77zM138 178l36 65h262v-65h-298zM476 328v65h311v-65h-311z" />
    <glyph glyph-name="uni04D5" unicode="&#x4d5;" horiz-adv-x="834" 
d="M207 -10q-51 0 -89 19.5t-58 52t-20 71.5q0 46 27 80t76.5 52.5t115.5 18.5h123v-59h-114q-81 0 -122 -23t-41 -69q0 -37 27.5 -59.5t80.5 -22.5q46 0 81 18.5t54 51t19 73.5v133q0 36 -15.5 63.5t-42.5 43t-61 15.5q-53 0 -82.5 -25.5t-38.5 -68.5h-65q6 42 30.5 77.5
t65 56.5t90.5 21q45 0 81 -18t57.5 -46t27.5 -57h-13q13 32 38 59.5t63 44.5t85 17q61 0 108.5 -30.5t73.5 -85.5t26 -126q0 -15 -1.5 -25.5t-3.5 -17.5h-372v59h350l-44 -45q6 16 6 38q0 45 -16.5 84.5t-49 63.5t-77.5 24q-43 0 -79 -25t-57 -70.5t-21 -103.5
q0 -60 20.5 -105t57 -69.5t81.5 -24.5q42 0 72 19t51 60h65q-16 -43 -43 -74.5t-63.5 -48.5t-81.5 -17q-47 0 -86.5 17.5t-68 47t-43.5 66.5h15q-19 -59 -67.5 -95t-131.5 -36z" />
    <glyph glyph-name="uni04D6" unicode="&#x4d6;" horiz-adv-x="577" 
d="M89 0v700h433v-65h-363v-570h373v-65h-443zM133 328v65h351v-65h-351zM306 760q-42 0 -72.5 16.5t-46.5 43.5t-18 59h54q4 -33 24.5 -51.5t58.5 -18.5t58.5 18.5t24.5 51.5h54q-2 -32 -18 -59t-46.5 -43.5t-72.5 -16.5z" />
    <glyph glyph-name="uni04D7" unicode="&#x4d7;" horiz-adv-x="537" 
d="M274 -10q-66 0 -119.5 33t-84.5 92t-31 135q0 74 31.5 133.5t85.5 93t118 33.5q63 0 114.5 -32.5t80.5 -88.5t29 -124q0 -14 -1 -25.5t-3 -21.5h-405v59h364l-25 -52q3 10 4 18t1 17q0 54 -20.5 97t-57 67.5t-81.5 24.5t-84.5 -25.5t-62.5 -71t-23 -102.5q0 -60 22 -105
t61 -69.5t89 -24.5q47 0 81.5 20t57.5 59h65q-15 -40 -45.5 -71.5t-72 -50t-88.5 -18.5zM272 566q-41 0 -71 16.5t-46 44.5t-18 61h54q4 -35 24 -54t57 -19t57 19t24 54h54q-2 -33 -18 -61t-46 -44.5t-71 -16.5z" />
    <glyph glyph-name="uni04D8" unicode="&#x4d8;" horiz-adv-x="732" 
d="M363 -10q-83 0 -156.5 47t-118 128.5t-44.5 179.5q0 5 0.5 12t1.5 17h596v-63h-545l19 42v-9.5v-9.5q0 -76 34.5 -140.5t91.5 -101.5t121 -37q68 0 126.5 37.5t93.5 105t35 152.5t-35 152.5t-93.5 105t-126.5 37.5q-71 0 -131.5 -39.5t-93.5 -111.5h-70q21 65 66.5 114
t105.5 75.5t123 26.5q86 0 161 -47t119.5 -129.5t44.5 -183.5t-44.5 -183.5t-119.5 -129.5t-161 -47z" />
    <glyph glyph-name="uni04D9" unicode="&#x4d9;" horiz-adv-x="537" 
d="M263 -10q-63 0 -114.5 32.5t-80.5 88.5t-29 124q0 14 1 25.5t3 21.5h405v-59h-364l25 52q-3 -10 -4 -18t-1 -17q0 -54 20.5 -97t57 -67.5t81.5 -24.5t84.5 25.5t62.5 71t23 102.5q0 60 -22 105t-61 69.5t-89 24.5q-47 0 -81.5 -20t-57.5 -59h-65q15 40 45.5 71.5t72 50
t88.5 18.5q66 0 119.5 -33t84.5 -92t31 -135q0 -74 -31.5 -133.5t-85.5 -93t-118 -33.5z" />
    <glyph glyph-name="uni04DA" unicode="&#x4da;" horiz-adv-x="732" 
d="M363 -10q-83 0 -156.5 47t-118 128.5t-44.5 179.5q0 5 0.5 12t1.5 17h596v-63h-545l19 42v-9.5v-9.5q0 -76 34.5 -140.5t91.5 -101.5t121 -37q68 0 126.5 37.5t93.5 105t35 152.5t-35 152.5t-93.5 105t-126.5 37.5q-71 0 -131.5 -39.5t-93.5 -111.5h-70q21 65 66.5 114
t105.5 75.5t123 26.5q86 0 161 -47t119.5 -129.5t44.5 -183.5t-44.5 -183.5t-119.5 -129.5t-161 -47zM448 776q-17 0 -30 12.5t-13 30.5t13 30.5t30 12.5t30 -12.5t13 -30.5t-13 -30.5t-30 -12.5zM278 776q-17 0 -30 12.5t-13 30.5t13 30.5t30 12.5q18 0 30.5 -12.5
t12.5 -30.5t-12.5 -30.5t-30.5 -12.5z" />
    <glyph glyph-name="uni04DB" unicode="&#x4db;" horiz-adv-x="537" 
d="M263 -10q-63 0 -114.5 32.5t-80.5 88.5t-29 124q0 14 1 25.5t3 21.5h405v-59h-364l25 52q-3 -10 -4 -18t-1 -17q0 -54 20.5 -97t57 -67.5t81.5 -24.5t84.5 25.5t62.5 71t23 102.5q0 60 -22 105t-61 69.5t-89 24.5q-47 0 -81.5 -20t-57.5 -59h-65q15 40 45.5 71.5t72 50
t88.5 18.5q66 0 119.5 -33t84.5 -92t31 -135q0 -74 -31.5 -133.5t-85.5 -93t-118 -33.5zM344 582q-18 0 -30.5 12.5t-12.5 30.5q0 19 12.5 31t30.5 12t30.5 -12.5t12.5 -30.5t-13 -30.5t-30 -12.5zM184 582q-17 0 -30 12.5t-13 30.5t12.5 30.5t30.5 12.5t30.5 -12t12.5 -31
q0 -18 -12.5 -30.5t-30.5 -12.5z" />
    <glyph glyph-name="uni04DC" unicode="&#x4dc;" horiz-adv-x="774" 
d="M696 0l-274 355l264 345h80l-283 -361v40l299 -379h-86zM-8 0l299 379v-40l-283 361h80l264 -345l-274 -355h-86zM352 0v700h70v-700h-70zM472 776q-17 0 -30 12.5t-13 30.5t13 30.5t30 12.5t30 -12.5t13 -30.5t-13 -30.5t-30 -12.5zM302 776q-17 0 -30 12.5t-13 30.5
t13 30.5t30 12.5q18 0 30.5 -12.5t12.5 -30.5t-12.5 -30.5t-30.5 -12.5z" />
    <glyph glyph-name="uni04DD" unicode="&#x4dd;" horiz-adv-x="629" 
d="M555 0l-208 260l192 240h78l-205 -250v27l225 -277h-82zM-8 0l225 277v-27l-205 250h78l192 -240l-208 -260h-82zM282 0v500h65v-500h-65zM395 582q-18 0 -30.5 12.5t-12.5 30.5q0 19 12.5 31t30.5 12t30.5 -12.5t12.5 -30.5t-13 -30.5t-30 -12.5zM235 582
q-17 0 -30 12.5t-13 30.5t12.5 30.5t30.5 12.5t30.5 -12t12.5 -31q0 -18 -12.5 -30.5t-30.5 -12.5z" />
    <glyph glyph-name="uni04DE" unicode="&#x4de;" horiz-adv-x="538" 
d="M266 -10q-69 0 -120.5 26t-81.5 71.5t-36 101.5h70q9 -60 52 -97t116 -37q47 0 83 17.5t55.5 47t19.5 66.5q0 41 -19.5 72.5t-56.5 49.5t-87 18h-46v63h46q45 0 78 16t50.5 44.5t17.5 65.5q0 56 -40 93t-107 37q-62 0 -103 -38t-45 -95h-70q4 55 32.5 100t77 71.5
t108.5 26.5q63 0 112.5 -26.5t77 -71.5t27.5 -97q0 -41 -19.5 -73t-48.5 -52.5t-60 -31.5v11q34 -11 66.5 -32t55.5 -59t23 -92q0 -50 -29 -95.5t-81.5 -73t-117.5 -27.5zM349 776q-17 0 -30 12.5t-13 30.5t13 30.5t30 12.5t30 -12.5t13 -30.5t-13 -30.5t-30 -12.5zM179 776
q-17 0 -30 12.5t-13 30.5t13 30.5t30 12.5q18 0 30.5 -12.5t12.5 -30.5t-12.5 -30.5t-30.5 -12.5z" />
    <glyph glyph-name="uni04DF" unicode="&#x4df;" horiz-adv-x="430" 
d="M213 -10q-57 0 -99 21.5t-65 58t-26 80.5h65q4 -46 35 -72.5t90 -26.5q56 0 84.5 23t28.5 63q0 42 -28.5 66.5t-81.5 24.5h-54v59h50q34 0 56.5 9.5t34 26.5t11.5 40t-12.5 43t-36.5 31.5t-56 11.5q-50 0 -78.5 -25.5t-33.5 -67.5h-65q5 65 52 109.5t130 44.5
q49 0 86.5 -20t58 -53.5t20.5 -73.5q0 -33 -13.5 -55.5t-31 -34.5t-33.5 -17v8q20 -6 40.5 -22t35 -43t14.5 -62q0 -40 -21 -73.5t-61.5 -53.5t-95.5 -20zM291 582q-18 0 -30.5 12.5t-12.5 30.5q0 19 12.5 31t30.5 12t30.5 -12.5t12.5 -30.5t-13 -30.5t-30 -12.5zM131 582
q-17 0 -30 12.5t-13 30.5t12.5 30.5t30.5 12.5t30.5 -12t12.5 -31q0 -18 -12.5 -30.5t-30.5 -12.5z" />
    <glyph glyph-name="uni04E0" unicode="&#x4e0;" horiz-adv-x="562" 
d="M273 -10q-73 0 -126 25.5t-84 71.5t-40 107h70q9 -61 56 -100t124 -39q52 0 92 20.5t61.5 55t21.5 76.5q0 44 -21.5 78.5t-60.5 54t-92 19.5h-84v58l249 249l13 -31h-392v65h435v-65l-229 -228l-44 17h60q66 0 120 -27t85 -76.5t31 -113.5q0 -61 -30 -110.5t-85.5 -78
t-129.5 -28.5z" />
    <glyph glyph-name="uni04E1" unicode="&#x4e1;" horiz-adv-x="473" 
d="M225 -190q-63 0 -110 24t-74 68t-33 103h65q6 -43 24.5 -73t50.5 -45.5t77 -15.5q44 0 78.5 18t53.5 50t19 72q0 42 -19 74.5t-53 50.5t-78 18h-88v57l226 257l20 -29h-339v61h374v-61l-211 -238l-20 14h47q58 0 105 -26t74 -73t27 -105q0 -57 -27.5 -103t-77 -72
t-111.5 -26z" />
    <glyph glyph-name="uni04E2" unicode="&#x4e2;" horiz-adv-x="690" 
d="M89 0v700h70v-607h-18l393 607h67v-700h-70v607h18l-393 -607h-67zM224 792v55h254v-55h-254z" />
    <glyph glyph-name="uni04E3" unicode="&#x4e3;" horiz-adv-x="556" 
d="M72 0v500h65v-409h-14l304 409h57v-500h-65v409h14l-304 -409h-57zM159 600v53h248v-53h-248z" />
    <glyph glyph-name="uni04E4" unicode="&#x4e4;" horiz-adv-x="690" 
d="M89 0v700h70v-607h-18l393 607h67v-700h-70v607h18l-393 -607h-67zM436 776q-17 0 -30 12.5t-13 30.5t13 30.5t30 12.5t30 -12.5t13 -30.5t-13 -30.5t-30 -12.5zM266 776q-17 0 -30 12.5t-13 30.5t13 30.5t30 12.5q18 0 30.5 -12.5t12.5 -30.5t-12.5 -30.5t-30.5 -12.5z
" />
    <glyph glyph-name="uni04E5" unicode="&#x4e5;" horiz-adv-x="556" 
d="M72 0v500h65v-409h-14l304 409h57v-500h-65v409h14l-304 -409h-57zM363 582q-18 0 -30.5 12.5t-12.5 30.5q0 19 12.5 31t30.5 12t30.5 -12.5t12.5 -30.5t-13 -30.5t-30 -12.5zM203 582q-17 0 -30 12.5t-13 30.5t12.5 30.5t30.5 12.5t30.5 -12t12.5 -31q0 -18 -12.5 -30.5
t-30.5 -12.5z" />
    <glyph glyph-name="uni04E6" unicode="&#x4e6;" horiz-adv-x="737" 
d="M368 -10q-86 0 -160.5 47t-119 129.5t-44.5 183.5t44.5 183.5t119 129.5t160.5 47t161 -47t119.5 -129.5t44.5 -183.5t-44.5 -183.5t-119.5 -129.5t-161 -47zM368 55q68 0 126.5 37.5t93.5 105t35 152.5t-35 152.5t-93.5 105t-126.5 37.5q-67 0 -125.5 -37.5t-93.5 -105
t-35 -152.5t35 -152.5t93.5 -105t125.5 -37.5zM453 776q-17 0 -30 12.5t-13 30.5t13 30.5t30 12.5t30 -12.5t13 -30.5t-13 -30.5t-30 -12.5zM283 776q-17 0 -30 12.5t-13 30.5t13 30.5t30 12.5q18 0 30.5 -12.5t12.5 -30.5t-12.5 -30.5t-30.5 -12.5z" />
    <glyph glyph-name="uni04E7" unicode="&#x4e7;" horiz-adv-x="548" 
d="M274 -10q-64 0 -118 33.5t-85.5 93t-31.5 133.5t31.5 133.5t85.5 93t118 33.5t118 -33.5t85.5 -93t31.5 -133.5t-31.5 -133.5t-85.5 -93t-118 -33.5zM274 51q46 0 85 25t62 70.5t23 103.5t-23 103.5t-62 70.5t-85 25t-85 -25t-62 -70.5t-23 -103.5t23 -103.5t62 -70.5
t85 -25zM354 582q-18 0 -30.5 12.5t-12.5 30.5q0 19 12.5 31t30.5 12t30.5 -12.5t12.5 -30.5t-13 -30.5t-30 -12.5zM194 582q-17 0 -30 12.5t-13 30.5t12.5 30.5t30.5 12.5t30.5 -12t12.5 -31q0 -18 -12.5 -30.5t-30.5 -12.5z" />
    <glyph glyph-name="uni04E8" unicode="&#x4e8;" horiz-adv-x="737" 
d="M78 318v63h580v-63h-580zM368 -10q-86 0 -160.5 47t-119 129.5t-44.5 183.5t44.5 183.5t119 129.5t160.5 47t161 -47t119.5 -129.5t44.5 -183.5t-44.5 -183.5t-119.5 -129.5t-161 -47zM368 55q68 0 126.5 37.5t93.5 105t35 152.5t-35 152.5t-93.5 105t-126.5 37.5
q-67 0 -125.5 -37.5t-93.5 -105t-35 -152.5t35 -152.5t93.5 -105t125.5 -37.5z" />
    <glyph glyph-name="uni04E9" unicode="&#x4e9;" horiz-adv-x="548" 
d="M84 220v59h379v-59h-379zM274 -10q-64 0 -118 33.5t-85.5 93t-31.5 133.5t31.5 133.5t85.5 93t118 33.5t118 -33.5t85.5 -93t31.5 -133.5t-31.5 -133.5t-85.5 -93t-118 -33.5zM274 51q46 0 85 25t62 70.5t23 103.5t-23 103.5t-62 70.5t-85 25t-85 -25t-62 -70.5
t-23 -103.5t23 -103.5t62 -70.5t85 -25z" />
    <glyph glyph-name="uni04EA" unicode="&#x4ea;" horiz-adv-x="737" 
d="M78 318v63h580v-63h-580zM368 -10q-86 0 -160.5 47t-119 129.5t-44.5 183.5t44.5 183.5t119 129.5t160.5 47t161 -47t119.5 -129.5t44.5 -183.5t-44.5 -183.5t-119.5 -129.5t-161 -47zM368 55q68 0 126.5 37.5t93.5 105t35 152.5t-35 152.5t-93.5 105t-126.5 37.5
q-67 0 -125.5 -37.5t-93.5 -105t-35 -152.5t35 -152.5t93.5 -105t125.5 -37.5zM453 776q-17 0 -30 12.5t-13 30.5t13 30.5t30 12.5t30 -12.5t13 -30.5t-13 -30.5t-30 -12.5zM283 776q-17 0 -30 12.5t-13 30.5t13 30.5t30 12.5q18 0 30.5 -12.5t12.5 -30.5t-12.5 -30.5
t-30.5 -12.5z" />
    <glyph glyph-name="uni04EB" unicode="&#x4eb;" horiz-adv-x="548" 
d="M84 220v59h379v-59h-379zM274 -10q-64 0 -118 33.5t-85.5 93t-31.5 133.5t31.5 133.5t85.5 93t118 33.5t118 -33.5t85.5 -93t31.5 -133.5t-31.5 -133.5t-85.5 -93t-118 -33.5zM274 51q46 0 85 25t62 70.5t23 103.5t-23 103.5t-62 70.5t-85 25t-85 -25t-62 -70.5
t-23 -103.5t23 -103.5t62 -70.5t85 -25zM354 582q-18 0 -30.5 12.5t-12.5 30.5q0 19 12.5 31t30.5 12t30.5 -12.5t12.5 -30.5t-13 -30.5t-30 -12.5zM194 582q-17 0 -30 12.5t-13 30.5t12.5 30.5t30.5 12.5t30.5 -12t12.5 -31q0 -18 -12.5 -30.5t-30.5 -12.5z" />
    <glyph glyph-name="uni04EC" unicode="&#x4ec;" horiz-adv-x="694" 
d="M326 -10q-69 0 -130 31t-103 83t-59 115h70q16 -45 47.5 -82.5t76.5 -59.5t98 -22q67 0 125.5 37.5t93.5 105t35 152.5t-35 152.5t-93.5 105t-125.5 37.5q-78 0 -136 -47.5t-83 -116.5h-70q17 62 59 114t102 83.5t128 31.5q86 0 160.5 -47t119 -129.5t44.5 -183.5
t-44.5 -183.5t-119 -129.5t-160.5 -47zM287 319v63h305v-63h-305zM413 776q-17 0 -30 12.5t-13 30.5t13 30.5t30 12.5t30 -12.5t13 -30.5t-13 -30.5t-30 -12.5zM243 776q-17 0 -30 12.5t-13 30.5t13 30.5t30 12.5q18 0 30.5 -12.5t12.5 -30.5t-12.5 -30.5t-30.5 -12.5z" />
    <glyph glyph-name="uni04ED" unicode="&#x4ed;" horiz-adv-x="521" 
d="M247 -10q-55 0 -101.5 26t-76.5 68.5t-40 92.5h65q17 -59 55.5 -92.5t97.5 -33.5q46 0 85 25t62 70.5t23 103.5t-23 103.5t-62 70.5t-85 25q-39 0 -69.5 -16t-51.5 -44t-32 -66h-65q10 50 40 93t76 68.5t102 25.5q64 0 118 -33.5t85.5 -93t31.5 -133.5t-31.5 -133.5
t-85.5 -93t-118 -33.5zM225 221v59h203v-59h-203zM327 582q-18 0 -30.5 12.5t-12.5 30.5q0 19 12.5 31t30.5 12t30.5 -12.5t12.5 -30.5t-13 -30.5t-30 -12.5zM167 582q-17 0 -30 12.5t-13 30.5t12.5 30.5t30.5 12.5t30.5 -12t12.5 -31q0 -18 -12.5 -30.5t-30.5 -12.5z" />
    <glyph glyph-name="uni04EE" unicode="&#x4ee;" horiz-adv-x="551" 
d="M133 -10q-14 0 -27 3.5t-22 7.5v63q9 -4 18 -6.5t21 -2.5q37 0 64 27.5t50 77.5l33 73v-78l-258 545h78l204 -444h-14l196 444h73l-250 -557q-24 -53 -47 -86t-52 -50t-67 -17zM156 792v55h254v-55h-254z" />
    <glyph glyph-name="uni04EF" unicode="&#x4ef;" horiz-adv-x="474" 
d="M111 -185q-11 0 -21 2.5t-18 5.5v59q8 -3 15.5 -4.5t15.5 -1.5q24 0 42.5 15t33.5 52l36 89v-42l-208 510h70l174 -434h-22l170 434h68l-221 -550q-22 -54 -43.5 -83.5t-43 -40.5t-48.5 -11zM114 600v53h248v-53h-248z" />
    <glyph glyph-name="uni04F0" unicode="&#x4f0;" horiz-adv-x="551" 
d="M133 -10q-14 0 -27 3.5t-22 7.5v63q9 -4 18 -6.5t21 -2.5q37 0 64 27.5t50 77.5l33 73v-78l-258 545h78l204 -444h-14l196 444h73l-250 -557q-24 -53 -47 -86t-52 -50t-67 -17zM368 776q-17 0 -30 12.5t-13 30.5t13 30.5t30 12.5t30 -12.5t13 -30.5t-13 -30.5t-30 -12.5z
M198 776q-17 0 -30 12.5t-13 30.5t13 30.5t30 12.5q18 0 30.5 -12.5t12.5 -30.5t-12.5 -30.5t-30.5 -12.5z" />
    <glyph glyph-name="uni04F1" unicode="&#x4f1;" horiz-adv-x="474" 
d="M111 -185q-11 0 -21 2.5t-18 5.5v59q8 -3 15.5 -4.5t15.5 -1.5q24 0 42.5 15t33.5 52l36 89v-42l-208 510h70l174 -434h-22l170 434h68l-221 -550q-22 -54 -43.5 -83.5t-43 -40.5t-48.5 -11zM318 582q-18 0 -30.5 12.5t-12.5 30.5q0 19 12.5 31t30.5 12t30.5 -12.5
t12.5 -30.5t-13 -30.5t-30 -12.5zM158 582q-17 0 -30 12.5t-13 30.5t12.5 30.5t30.5 12.5t30.5 -12t12.5 -31q0 -18 -12.5 -30.5t-30.5 -12.5z" />
    <glyph glyph-name="uni04F2" unicode="&#x4f2;" horiz-adv-x="551" 
d="M133 -10q-14 0 -27 3.5t-22 7.5v63q9 -4 18 -6.5t21 -2.5q37 0 64 27.5t50 77.5l33 73v-78l-258 545h78l204 -444h-14l196 444h73l-250 -557q-24 -53 -47 -86t-52 -50t-67 -17zM323 755l80 128h78l-104 -128h-54zM190 755l80 128h78l-104 -128h-54z" />
    <glyph glyph-name="uni04F3" unicode="&#x4f3;" horiz-adv-x="474" 
d="M111 -185q-11 0 -21 2.5t-18 5.5v59q8 -3 15.5 -4.5t15.5 -1.5q24 0 42.5 15t33.5 52l36 89v-42l-208 510h70l174 -434h-22l170 434h68l-221 -550q-22 -54 -43.5 -83.5t-43 -40.5t-48.5 -11zM278 560l76 134h75l-100 -134h-51zM147 560l76 134h75l-100 -134h-51z" />
    <glyph glyph-name="uni04F4" unicode="&#x4f4;" horiz-adv-x="638" 
d="M479 0v296l15 -9q-19 -15 -47.5 -30t-66.5 -26t-80 -11q-68 0 -119 27.5t-79 80t-28 125.5v247h70v-247q0 -54 19 -91.5t54.5 -57t82.5 -19.5q60 0 111 21t83 46l-15 -30v378h70v-700h-70zM397 776q-17 0 -30 12.5t-13 30.5t13 30.5t30 12.5t30 -12.5t13 -30.5t-13 -30.5
t-30 -12.5zM227 776q-17 0 -30 12.5t-13 30.5t13 30.5t30 12.5q18 0 30.5 -12.5t12.5 -30.5t-12.5 -30.5t-30.5 -12.5z" />
    <glyph glyph-name="uni04F5" unicode="&#x4f5;" horiz-adv-x="508" 
d="M371 0v211l10 -11q-21 -17 -60 -31.5t-86 -14.5q-52 0 -93 22.5t-64.5 62.5t-23.5 93v168h65v-168q0 -54 33.5 -85.5t90.5 -31.5q45 0 81 16.5t57 35.5l-10 -25v258h65v-500h-65zM325 582q-18 0 -30.5 12.5t-12.5 30.5q0 19 12.5 31t30.5 12t30.5 -12.5t12.5 -30.5
t-13 -30.5t-30 -12.5zM165 582q-17 0 -30 12.5t-13 30.5t12.5 30.5t30.5 12.5t30.5 -12t12.5 -31q0 -18 -12.5 -30.5t-30.5 -12.5z" />
    <glyph glyph-name="uni04F6" unicode="&#x4f6;" horiz-adv-x="498" 
d="M176 -150v150h-87v700h397v-65h-327v-570h87v-215h-70z" />
    <glyph glyph-name="uni04F7" unicode="&#x4f7;" horiz-adv-x="402" 
d="M149 -128v128h-77v500h320v-61h-255v-378h77v-189h-65z" />
    <glyph glyph-name="uni04F8" unicode="&#x4f8;" horiz-adv-x="785" 
d="M89 0v700h70v-295v-10v-330h151q45 0 79 18.5t53 53t19 79.5t-19 79.5t-53 53t-79 18.5h-167v65h167q63 0 113.5 -28t79 -77t28.5 -111t-28.5 -111t-79 -77t-113.5 -28h-221zM626 0v700h70v-700h-70zM477 776q-17 0 -30 12.5t-13 30.5t13 30.5t30 12.5t30 -12.5t13 -30.5
t-13 -30.5t-30 -12.5zM307 776q-17 0 -30 12.5t-13 30.5t13 30.5t30 12.5q18 0 30.5 -12.5t12.5 -30.5t-12.5 -30.5t-30.5 -12.5z" />
    <glyph glyph-name="uni04F9" unicode="&#x4f9;" horiz-adv-x="650" 
d="M72 0v500h65v-209v-10v-220h120q50 0 78.5 25.5t28.5 71.5t-28.5 72t-78.5 26h-136v61h136q52 0 91 -20t60 -56t21 -83t-21 -82.5t-60 -55.5t-91 -20h-185zM513 0v500h65v-500h-65zM405 582q-18 0 -30.5 12.5t-12.5 30.5q0 19 12.5 31t30.5 12t30.5 -12.5t12.5 -30.5
t-13 -30.5t-30 -12.5zM245 582q-17 0 -30 12.5t-13 30.5t12.5 30.5t30.5 12.5t30.5 -12t12.5 -31q0 -18 -12.5 -30.5t-30.5 -12.5z" />
    <glyph glyph-name="uni04FA" unicode="&#x4fa;" horiz-adv-x="529" 
d="M169 -195q-17 0 -31 2.5t-23 5.5v63q10 -3 20.5 -4.5t19.5 -1.5q38 0 58.5 22.5t20.5 67.5v84l43 -44h-162v700h397v-65h-327v-572h119v-103q0 -48 -17.5 -83t-48 -53.5t-69.5 -18.5zM20 308v65h404v-65h-404z" />
    <glyph glyph-name="uni04FB" unicode="&#x4fb;" horiz-adv-x="425" 
d="M139 -185q-18 0 -30 2.5t-19 5.5v58q6 -2 14.5 -3.5t18.5 -1.5q30 0 49 21.5t19 61.5v85l44 -44h-145v500h320v-61h-255v-380h101v-100q0 -43 -16 -76t-43 -50.5t-58 -17.5zM10 196v61h335v-61h-335z" />
    <glyph glyph-name="uni04FC" unicode="&#x4fc;" horiz-adv-x="571" 
d="M427 -195q-14 0 -28 2.5t-22 5.5v63q9 -3 20 -4.5t19 -1.5q38 0 56.5 18.5t18.5 50.5q0 23 -10 44.5t-35 60.5l-173 271h22l-203 -315h-77l230 355l-219 345h80l192 -305h-22l191 305h78l-220 -345l181 -278q27 -42 41 -72.5t14 -66.5q0 -38 -17 -68.5t-47.5 -47.5
t-69.5 -17z" />
    <glyph glyph-name="uni04FD" unicode="&#x4fd;" horiz-adv-x="454" 
d="M327 -185q-17 0 -30 2.5t-19 5.5v58q4 -2 14 -3.5t19 -1.5q34 0 53.5 16.5t19.5 48.5q0 21 -8.5 40.5t-30.5 51.5l-132 195h25l-154 -228h-73l175 255l-164 245h75l143 -218h-24l143 218h73l-164 -245l137 -199q22 -31 33 -59.5t11 -55.5q0 -37 -16.5 -66t-44.5 -44.5
t-61 -15.5z" />
    <glyph glyph-name="uni04FE" unicode="&#x4fe;" horiz-adv-x="571" 
d="M80 324v63h411v-63h-411zM15 0l230 355l-219 345h80l192 -305h-22l191 305h78l-220 -345l231 -355h-82l-201 315h22l-203 -315h-77z" />
    <glyph glyph-name="uni04FF" unicode="&#x4ff;" horiz-adv-x="454" 
d="M60 226v59h334v-59h-334zM11 0l175 255l-164 245h75l143 -218h-24l143 218h73l-164 -245l175 -255h-76l-154 228h25l-154 -228h-73z" />
    <glyph glyph-name="uni0510" unicode="&#x510;" horiz-adv-x="538" 
d="M272 -10q-65 0 -117.5 27.5t-81.5 73t-29 95.5q0 54 23 92t55.5 59t66.5 32v-11q-31 11 -60 31.5t-48.5 52.5t-19.5 73q0 52 27.5 97t77 71.5t112.5 26.5q60 0 108.5 -26.5t77 -71.5t32.5 -100h-70q-2 37 -21.5 67.5t-52.5 48t-74 17.5q-45 0 -78 -17t-51 -47t-18 -66
q0 -37 17.5 -65.5t50.5 -44.5t78 -16h46v-63h-46q-50 0 -87 -18t-56.5 -49.5t-19.5 -72.5q0 -37 19.5 -66.5t55.5 -47t83 -17.5q73 0 116 37t52 97h70q-6 -56 -36 -101.5t-81.5 -71.5t-120.5 -26z" />
    <glyph glyph-name="uni0511" unicode="&#x511;" horiz-adv-x="430" 
d="M217 -10q-55 0 -95.5 20t-61.5 53.5t-21 73.5q0 35 14.5 62t35 43t40.5 22v-8q-16 5 -33.5 17t-31 34.5t-13.5 55.5q0 40 20.5 73.5t58 53.5t86.5 20q56 0 96 -21t61.5 -56t24.5 -77h-65q-5 42 -33.5 67.5t-78.5 25.5q-48 0 -76.5 -25t-28.5 -61q0 -23 11.5 -40t34 -26.5
t56.5 -9.5h50v-59h-54q-53 0 -81.5 -24.5t-28.5 -66.5q0 -40 28.5 -63t84.5 -23q59 0 90 26.5t35 72.5h65q-3 -44 -26 -80.5t-65 -58t-99 -21.5z" />
    <glyph glyph-name="uni0512" unicode="&#x512;" horiz-adv-x="673" 
d="M434 -195q-16 0 -30.5 2.5t-22.5 5.5v63q10 -3 20.5 -4.5t19.5 -1.5q46 0 69.5 24.5t23.5 75.5v665h-280l-34 -436q-5 -68 -28.5 -115t-60 -70.5t-82.5 -23.5q-12 0 -21.5 1.5t-16.5 3.5v65h17q54 0 85 33t37 106l39 501h415v-730q0 -78 -40.5 -121.5t-109.5 -43.5z" />
    <glyph glyph-name="uni0513" unicode="&#x513;" horiz-adv-x="534" 
d="M330 -185q-18 0 -31 2.5t-19 5.5v58q4 -2 14 -3.5t19 -1.5q40 0 62 24.5t22 73.5v465h-202l-23 -276q-7 -88 -44.5 -130.5t-96.5 -42.5q-10 0 -18.5 2t-15.5 4v57h17q28 0 47.5 11.5t31 37t14.5 66.5l28 332h327v-526q0 -73 -37.5 -116t-94.5 -43z" />
    <glyph glyph-name="uni051A" unicode="&#x51a;" horiz-adv-x="737" 
d="M625 -15l-224 220l43 45l224 -220zM368 -10q-86 0 -160.5 47t-119 129.5t-44.5 183.5t44.5 183.5t119 129.5t160.5 47t161 -47t119.5 -129.5t44.5 -183.5t-44.5 -183.5t-119.5 -129.5t-161 -47zM368 55q68 0 126.5 37.5t93.5 105t35 152.5t-35 152.5t-93.5 105
t-126.5 37.5q-67 0 -125.5 -37.5t-93.5 -105t-35 -152.5t35 -152.5t93.5 -105t125.5 -37.5z" />
    <glyph glyph-name="uni051B" unicode="&#x51b;" horiz-adv-x="571" 
d="M434 -180v248h-5q-9 -14 -32 -32t-56.5 -32t-71.5 -14q-63 0 -115.5 33t-83.5 92.5t-31 134.5t31 134.5t83.5 92.5t115.5 33q38 0 71.5 -14t56 -32t32.5 -32h5l17 68h48v-680h-65zM269 51q45 0 83 25t60 70.5t22 103.5t-22 103.5t-60 70.5t-83 25t-83 -25t-60 -70.5
t-22 -103.5t22 -103.5t60 -70.5t83 -25z" />
    <glyph glyph-name="uni051C" unicode="&#x51c;" horiz-adv-x="864" 
d="M222 0l-210 700h73l175 -599h-23l170 599h50l173 -599h-23l175 599h70l-210 -700h-51l-171 587h22l-169 -587h-51z" />
    <glyph glyph-name="uni051D" unicode="&#x51d;" horiz-adv-x="678" 
d="M174 0l-167 500h70l128 -405h-14l126 405h45l126 -405h-14l130 405h67l-167 -500h-47l-126 404h14l-124 -404h-47z" />
    <glyph glyph-name="uni0524" unicode="&#x524;" horiz-adv-x="700" 
d="M608 -150v150h-87v635h-362v-635h-70v700h502v-635h87v-215h-70z" />
    <glyph glyph-name="uni0525" unicode="&#x525;" horiz-adv-x="568" 
d="M482 -128v128h-77v439h-268v-439h-65v500h398v-439h77v-189h-65z" />
    <glyph glyph-name="uni0526" unicode="&#x526;" horiz-adv-x="673" 
d="M581 -150v150h-87v247q0 54 -19.5 91.5t-55 57t-82.5 19.5q-59 0 -110 -21t-83 -46l15 30v-378h-70v700h70v-296l-15 9q30 25 81.5 46t111.5 21q68 0 119.5 -27.5t79.5 -80.5t28 -125v-182h87v-215h-70z" />
    <glyph glyph-name="uni0527" unicode="&#x527;" horiz-adv-x="591" 
d="M505 -128v128h-77v290q0 49 -18 85t-49.5 55t-72.5 19q-43 0 -76 -19t-51.5 -55t-18.5 -85v-290h-65v700h65v-268h5q12 19 33 36.5t50 29.5t64 12q56 0 101.5 -27t71.5 -77t26 -116v-229h77v-189h-65z" />
    <glyph glyph-name="uni0528" unicode="&#x528;" horiz-adv-x="680" 
d="M9 -195q-16 0 -30.5 2.5t-22.5 5.5v63q10 -3 20.5 -4.5t19.5 -1.5q46 0 69.5 24.5t23.5 75.5v730h70v-730q0 -78 -40.5 -121.5t-109.5 -43.5zM143 325v65h394v-65h-394zM521 0v700h70v-700h-70z" />
    <glyph glyph-name="uni0529" unicode="&#x529;" horiz-adv-x="552" 
d="M5 -185q-18 0 -31 2.5t-19 5.5v58q4 -2 14 -3.5t19 -1.5q40 0 62 24.5t22 73.5v526h65v-526q0 -73 -37.5 -116t-94.5 -43zM121 222v61h310v-61h-310zM415 0v500h65v-500h-65z" />
    <glyph glyph-name="uni052E" unicode="&#x52e;" horiz-adv-x="693" 
d="M601 -150v150h-87v635h-280l-34 -436q-5 -68 -28.5 -115t-60 -70.5t-82.5 -23.5q-12 0 -21.5 1.5t-16.5 3.5v65h17q54 0 85 33t37 106l39 501h415v-635h87v-215h-70z" />
    <glyph glyph-name="uni052F" unicode="&#x52f;" horiz-adv-x="560" 
d="M474 -128v128h-77v439h-202l-23 -276q-7 -88 -44.5 -130.5t-96.5 -42.5q-10 0 -18.5 2t-15.5 4v57h17q28 0 47.5 11.5t31 37t14.5 66.5l28 332h327v-439h77v-189h-65z" />
    <glyph glyph-name="Wgrave" unicode="&#x1e80;" horiz-adv-x="864" 
d="M222 0l-210 700h73l175 -599h-23l170 599h50l173 -599h-23l175 599h70l-210 -700h-51l-171 587h22l-169 -587h-51zM416 755l-95 128h78l71 -128h-54z" />
    <glyph glyph-name="wgrave" unicode="&#x1e81;" horiz-adv-x="678" 
d="M174 0l-167 500h70l128 -405h-14l126 405h45l126 -405h-14l130 405h67l-167 -500h-47l-126 404h14l-124 -404h-47zM325 560l-91 134h75l67 -134h-51z" />
    <glyph glyph-name="Wacute" unicode="&#x1e82;" horiz-adv-x="864" 
d="M222 0l-210 700h73l175 -599h-23l170 599h50l173 -599h-23l175 599h70l-210 -700h-51l-171 587h22l-169 -587h-51zM394 755l70 128h78l-94 -128h-54z" />
    <glyph glyph-name="wacute" unicode="&#x1e83;" horiz-adv-x="678" 
d="M174 0l-167 500h70l128 -405h-14l126 405h45l126 -405h-14l130 405h67l-167 -500h-47l-126 404h14l-124 -404h-47zM304 560l66 134h75l-90 -134h-51z" />
    <glyph glyph-name="Wdieresis" unicode="&#x1e84;" horiz-adv-x="864" 
d="M222 0l-210 700h73l175 -599h-23l170 599h50l173 -599h-23l175 599h70l-210 -700h-51l-171 587h22l-169 -587h-51zM517 776q-17 0 -30 12.5t-13 30.5t13 30.5t30 12.5t30 -12.5t13 -30.5t-13 -30.5t-30 -12.5zM347 776q-17 0 -30 12.5t-13 30.5t13 30.5t30 12.5
q18 0 30.5 -12.5t12.5 -30.5t-12.5 -30.5t-30.5 -12.5z" />
    <glyph glyph-name="wdieresis" unicode="&#x1e85;" horiz-adv-x="678" 
d="M174 0l-167 500h70l128 -405h-14l126 405h45l126 -405h-14l130 405h67l-167 -500h-47l-126 404h14l-124 -404h-47zM420 582q-18 0 -30.5 12.5t-12.5 30.5q0 19 12.5 31t30.5 12t30.5 -12.5t12.5 -30.5t-13 -30.5t-30 -12.5zM260 582q-17 0 -30 12.5t-13 30.5t12.5 30.5
t30.5 12.5t30.5 -12t12.5 -31q0 -18 -12.5 -30.5t-30.5 -12.5z" />
    <glyph glyph-name="uni1E9E" unicode="&#x1e9e;" horiz-adv-x="650" 
d="M84 500q0 57 26 102.5t71.5 71.5t101.5 26h274v-55l-195 -264l-12 17h51q56 0 103 -27t74.5 -72.5t27.5 -99.5q0 -56 -26.5 -101.5t-73.5 -71.5t-105 -26h-112v65h112q40 0 70.5 16.5t47.5 47t17 70.5q0 38 -18 68.5t-48.5 48t-68.5 17.5h-103v66l183 252l15 -16h-213
q-34 0 -64 -18t-47.5 -48.5t-17.5 -68.5v-500h-70v500z" />
    <glyph glyph-name="uni1EA0" unicode="&#x1ea0;" horiz-adv-x="607" 
d="M5 0l266 700h65l266 -700h-75l-75 200l-9 24l-153 408h24l-153 -408l-9 -24l-75 -200h-72zM119 178l26 65h318l26 -65h-370zM304 -170q-19 0 -32 13t-13 32q0 13 6 23.5t16.5 16t22.5 5.5q20 0 32.5 -12.5t12.5 -32.5q0 -13 -6 -23t-16 -16t-23 -6z" />
    <glyph glyph-name="uni1EA1" unicode="&#x1ea1;" horiz-adv-x="497" 
d="M206 -10q-50 0 -87.5 20.5t-58 54.5t-20.5 75q0 45 27.5 80.5t77 55.5t113.5 20h123v-59h-113q-77 0 -120 -25.5t-43 -71.5q0 -40 28 -64.5t80 -24.5q46 0 80.5 18.5t53 51t18.5 73.5v131q0 37 -15 65t-42.5 43.5t-62.5 15.5q-51 0 -80.5 -26t-37.5 -68h-65
q5 42 29.5 77.5t64.5 56.5t89 21q53 0 95 -23.5t66 -65.5t24 -96v-325h-48l-17 68h-5q-19 -30 -58.5 -54t-95.5 -24zM250 -170q-19 0 -32 13t-13 32q0 13 6 23.5t16.5 16t22.5 5.5q20 0 32.5 -12.5t12.5 -32.5q0 -13 -6 -23t-16 -16t-23 -6z" />
    <glyph glyph-name="uni1EA2" unicode="&#x1ea2;" horiz-adv-x="607" 
d="M5 0l266 700h65l266 -700h-75l-75 200l-9 24l-153 408h24l-153 -408l-9 -24l-75 -200h-72zM119 178l26 65h318l26 -65h-370zM288 752q11 16 16.5 30.5t5.5 30.5q0 21 -13.5 34t-36.5 13q-17 0 -32 -4v50q10 3 20.5 4.5t26.5 1.5q41 0 66 -22t25 -59q0 -24 -7.5 -44
t-20.5 -35h-50z" />
    <glyph glyph-name="uni1EA3" unicode="&#x1ea3;" horiz-adv-x="497" 
d="M206 -10q-50 0 -87.5 20.5t-58 54.5t-20.5 75q0 45 27.5 80.5t77 55.5t113.5 20h123v-59h-113q-77 0 -120 -25.5t-43 -71.5q0 -40 28 -64.5t80 -24.5q46 0 80.5 18.5t53 51t18.5 73.5v131q0 37 -15 65t-42.5 43.5t-62.5 15.5q-51 0 -80.5 -26t-37.5 -68h-65
q5 42 29.5 77.5t64.5 56.5t89 21q53 0 95 -23.5t66 -65.5t24 -96v-325h-48l-17 68h-5q-19 -30 -58.5 -54t-95.5 -24zM227 557q11 16 17 31t6 31q0 28 -13.5 41t-38.5 13q-13 0 -28 -4v48q8 3 19 4.5t23 1.5q43 0 67 -23t24 -64q0 -25 -7.5 -42.5t-20.5 -36.5h-48z" />
    <glyph glyph-name="uni1EA4" unicode="&#x1ea4;" horiz-adv-x="607" 
d="M5 0l266 700h65l266 -700h-75l-75 200l-9 24l-153 408h24l-153 -408l-9 -24l-75 -200h-72zM119 178l26 65h318l26 -65h-370zM168 745l105 128h63l104 -128h-68l-77 95h16l-76 -95h-67zM402 830l56 113h73l-79 -113h-50z" />
    <glyph glyph-name="uni1EA5" unicode="&#x1ea5;" horiz-adv-x="497" 
d="M206 -10q-50 0 -87.5 20.5t-58 54.5t-20.5 75q0 45 27.5 80.5t77 55.5t113.5 20h123v-59h-113q-77 0 -120 -25.5t-43 -71.5q0 -40 28 -64.5t80 -24.5q46 0 80.5 18.5t53 51t18.5 73.5v131q0 37 -15 65t-42.5 43.5t-62.5 15.5q-51 0 -80.5 -26t-37.5 -68h-65
q5 42 29.5 77.5t64.5 56.5t89 21q53 0 95 -23.5t66 -65.5t24 -96v-325h-48l-17 68h-5q-19 -30 -58.5 -54t-95.5 -24zM115 550l102 134h60l102 -134h-68l-75 106h21l-76 -106h-66zM343 635l61 125h75l-85 -125h-51z" />
    <glyph glyph-name="uni1EA6" unicode="&#x1ea6;" horiz-adv-x="607" 
d="M5 0l266 700h65l266 -700h-75l-75 200l-9 24l-153 408h24l-153 -408l-9 -24l-75 -200h-72zM119 178l26 65h318l26 -65h-370zM168 745l105 128h63l104 -128h-68l-77 95h16l-76 -95h-67zM430 830l-79 113h73l56 -113h-50z" />
    <glyph glyph-name="uni1EA7" unicode="&#x1ea7;" horiz-adv-x="497" 
d="M206 -10q-50 0 -87.5 20.5t-58 54.5t-20.5 75q0 45 27.5 80.5t77 55.5t113.5 20h123v-59h-113q-77 0 -120 -25.5t-43 -71.5q0 -40 28 -64.5t80 -24.5q46 0 80.5 18.5t53 51t18.5 73.5v131q0 37 -15 65t-42.5 43.5t-62.5 15.5q-51 0 -80.5 -26t-37.5 -68h-65
q5 42 29.5 77.5t64.5 56.5t89 21q53 0 95 -23.5t66 -65.5t24 -96v-325h-48l-17 68h-5q-19 -30 -58.5 -54t-95.5 -24zM115 550l102 134h60l102 -134h-68l-75 106h21l-76 -106h-66zM369 635l-85 125h75l61 -125h-51z" />
    <glyph glyph-name="uni1EA8" unicode="&#x1ea8;" horiz-adv-x="607" 
d="M5 0l266 700h65l266 -700h-75l-75 200l-9 24l-153 408h24l-153 -408l-9 -24l-75 -200h-72zM119 178l26 65h318l26 -65h-370zM168 745l105 128h63l104 -128h-68l-77 95h16l-76 -95h-67zM405 830q11 15 17 28.5t6 24.5q0 18 -11 29t-32 11q-16 0 -31 -4v50q9 2 20.5 4
t26.5 2q37 0 60 -20t23 -54q0 -20 -8 -38.5t-21 -32.5h-50z" />
    <glyph glyph-name="uni1EA9" unicode="&#x1ea9;" horiz-adv-x="497" 
d="M206 -10q-50 0 -87.5 20.5t-58 54.5t-20.5 75q0 45 27.5 80.5t77 55.5t113.5 20h123v-59h-113q-77 0 -120 -25.5t-43 -71.5q0 -40 28 -64.5t80 -24.5q46 0 80.5 18.5t53 51t18.5 73.5v131q0 37 -15 65t-42.5 43.5t-62.5 15.5q-51 0 -80.5 -26t-37.5 -68h-65
q5 42 29.5 77.5t64.5 56.5t89 21q53 0 95 -23.5t66 -65.5t24 -96v-325h-48l-17 68h-5q-19 -30 -58.5 -54t-95.5 -24zM115 550l102 134h60l102 -134h-68l-75 106h21l-76 -106h-66zM344 635q11 16 16 29.5t5 24.5q0 19 -12.5 30.5t-31.5 11.5q-13 0 -28 -4v48q8 3 19 4.5
t23 1.5q37 0 60 -21.5t23 -53.5q0 -20 -6.5 -36t-19.5 -35h-48z" />
    <glyph glyph-name="uni1EAA" unicode="&#x1eaa;" horiz-adv-x="607" 
d="M5 0l266 700h65l266 -700h-75l-75 200l-9 24l-153 408h24l-153 -408l-9 -24l-75 -200h-72zM119 178l26 65h318l26 -65h-370zM167 745l105 128h63l104 -128h-68l-77 95h16l-76 -95h-67zM354 894q-21 0 -36 9.5t-31 26.5q-10 11 -18 17t-17 6q-14 0 -24.5 -14.5
t-10.5 -38.5h-50q0 51 24.5 78.5t58.5 27.5q21 0 36 -9.5t31 -26.5q10 -11 18 -17t17 -6q14 0 24.5 14.5t10.5 38.5h50q0 -51 -25 -78.5t-58 -27.5z" />
    <glyph glyph-name="uni1EAB" unicode="&#x1eab;" horiz-adv-x="497" 
d="M206 -10q-50 0 -87.5 20.5t-58 54.5t-20.5 75q0 45 27.5 80.5t77 55.5t113.5 20h123v-59h-113q-77 0 -120 -25.5t-43 -71.5q0 -40 28 -64.5t80 -24.5q46 0 80.5 18.5t53 51t18.5 73.5v131q0 37 -15 65t-42.5 43.5t-62.5 15.5q-51 0 -80.5 -26t-37.5 -68h-65
q5 42 29.5 77.5t64.5 56.5t89 21q53 0 95 -23.5t66 -65.5t24 -96v-325h-48l-17 68h-5q-19 -30 -58.5 -54t-95.5 -24zM115 550l102 134h60l102 -134h-68l-75 106h21l-76 -106h-66zM296 706q-21 0 -35.5 9.5t-31.5 27.5q-10 11 -18 17t-17 6q-14 0 -24.5 -15t-10.5 -39h-50
q0 51 24.5 79t58.5 28q21 0 35.5 -9.5t31.5 -27.5q10 -11 18 -17t17 -6q14 0 24.5 15t10.5 39h50q0 -52 -25 -79.5t-58 -27.5z" />
    <glyph glyph-name="uni1EAC" unicode="&#x1eac;" horiz-adv-x="607" 
d="M5 0l266 700h65l266 -700h-75l-75 200l-9 24l-153 408h24l-153 -408l-9 -24l-75 -200h-72zM119 178l26 65h318l26 -65h-370zM304 -170q-19 0 -32 13t-13 32q0 13 6 23.5t16.5 16t22.5 5.5q20 0 32.5 -12.5t12.5 -32.5q0 -13 -6 -23t-16 -16t-23 -6zM168 755l105 128h63
l104 -128h-68l-77 95h16l-76 -95h-67z" />
    <glyph glyph-name="uni1EAD" unicode="&#x1ead;" horiz-adv-x="497" 
d="M206 -10q-50 0 -87.5 20.5t-58 54.5t-20.5 75q0 45 27.5 80.5t77 55.5t113.5 20h123v-59h-113q-77 0 -120 -25.5t-43 -71.5q0 -40 28 -64.5t80 -24.5q46 0 80.5 18.5t53 51t18.5 73.5v131q0 37 -15 65t-42.5 43.5t-62.5 15.5q-51 0 -80.5 -26t-37.5 -68h-65
q5 42 29.5 77.5t64.5 56.5t89 21q53 0 95 -23.5t66 -65.5t24 -96v-325h-48l-17 68h-5q-19 -30 -58.5 -54t-95.5 -24zM250 -170q-19 0 -32 13t-13 32q0 13 6 23.5t16.5 16t22.5 5.5q20 0 32.5 -12.5t12.5 -32.5q0 -13 -6 -23t-16 -16t-23 -6zM115 560l102 134h60l102 -134
h-68l-75 106h21l-76 -106h-66z" />
    <glyph glyph-name="uni1EAE" unicode="&#x1eae;" horiz-adv-x="607" 
d="M5 0l266 700h65l266 -700h-75l-75 200l-9 24l-153 408h24l-153 -408l-9 -24l-75 -200h-72zM119 178l26 65h318l26 -65h-370zM304 750q-40 0 -69.5 16.5t-45.5 43.5t-18 59h54q4 -33 24 -51.5t55 -18.5t55 18.5t24 51.5h54q-2 -32 -18 -59t-45.5 -43.5t-69.5 -16.5z
M277 869l56 113h73l-79 -113h-50z" />
    <glyph glyph-name="uni1EAF" unicode="&#x1eaf;" horiz-adv-x="497" 
d="M206 -10q-50 0 -87.5 20.5t-58 54.5t-20.5 75q0 45 27.5 80.5t77 55.5t113.5 20h123v-59h-113q-77 0 -120 -25.5t-43 -71.5q0 -40 28 -64.5t80 -24.5q46 0 80.5 18.5t53 51t18.5 73.5v131q0 37 -15 65t-42.5 43.5t-62.5 15.5q-51 0 -80.5 -26t-37.5 -68h-65
q5 42 29.5 77.5t64.5 56.5t89 21q53 0 95 -23.5t66 -65.5t24 -96v-325h-48l-17 68h-5q-19 -30 -58.5 -54t-95.5 -24zM247 556q-39 0 -68 16.5t-45 44.5t-18 61h54q4 -35 23.5 -54t53.5 -19t53.5 19t23.5 54h54q-2 -33 -18 -61t-45 -44.5t-68 -16.5zM219 678l61 125h75
l-85 -125h-51z" />
    <glyph glyph-name="uni1EB0" unicode="&#x1eb0;" horiz-adv-x="607" 
d="M5 0l266 700h65l266 -700h-75l-75 200l-9 24l-153 408h24l-153 -408l-9 -24l-75 -200h-72zM119 178l26 65h318l26 -65h-370zM304 750q-40 0 -69.5 16.5t-45.5 43.5t-18 59h54q4 -33 24 -51.5t55 -18.5t55 18.5t24 51.5h54q-2 -32 -18 -59t-45.5 -43.5t-69.5 -16.5z
M281 869l-79 113h73l56 -113h-50z" />
    <glyph glyph-name="uni1EB1" unicode="&#x1eb1;" horiz-adv-x="497" 
d="M206 -10q-50 0 -87.5 20.5t-58 54.5t-20.5 75q0 45 27.5 80.5t77 55.5t113.5 20h123v-59h-113q-77 0 -120 -25.5t-43 -71.5q0 -40 28 -64.5t80 -24.5q46 0 80.5 18.5t53 51t18.5 73.5v131q0 37 -15 65t-42.5 43.5t-62.5 15.5q-51 0 -80.5 -26t-37.5 -68h-65
q5 42 29.5 77.5t64.5 56.5t89 21q53 0 95 -23.5t66 -65.5t24 -96v-325h-48l-17 68h-5q-19 -30 -58.5 -54t-95.5 -24zM247 556q-39 0 -68 16.5t-45 44.5t-18 61h54q4 -35 23.5 -54t53.5 -19t53.5 19t23.5 54h54q-2 -33 -18 -61t-45 -44.5t-68 -16.5zM224 678l-85 125h75
l61 -125h-51z" />
    <glyph glyph-name="uni1EB2" unicode="&#x1eb2;" horiz-adv-x="607" 
d="M5 0l266 700h65l266 -700h-75l-75 200l-9 24l-153 408h24l-153 -408l-9 -24l-75 -200h-72zM119 178l26 65h318l26 -65h-370zM304 750q-40 0 -69.5 16.5t-45.5 43.5t-18 59h54q4 -33 24 -51.5t55 -18.5t55 18.5t24 51.5h54q-2 -32 -18 -59t-45.5 -43.5t-69.5 -16.5z
M279 869q11 15 17 28.5t6 24.5q0 18 -11 29t-32 11q-16 0 -31 -4v50q9 2 20.5 4t26.5 2q37 0 60 -20t23 -54q0 -20 -8 -38.5t-21 -32.5h-50z" />
    <glyph glyph-name="uni1EB3" unicode="&#x1eb3;" horiz-adv-x="497" 
d="M206 -10q-50 0 -87.5 20.5t-58 54.5t-20.5 75q0 45 27.5 80.5t77 55.5t113.5 20h123v-59h-113q-77 0 -120 -25.5t-43 -71.5q0 -40 28 -64.5t80 -24.5q46 0 80.5 18.5t53 51t18.5 73.5v131q0 37 -15 65t-42.5 43.5t-62.5 15.5q-51 0 -80.5 -26t-37.5 -68h-65
q5 42 29.5 77.5t64.5 56.5t89 21q53 0 95 -23.5t66 -65.5t24 -96v-325h-48l-17 68h-5q-19 -30 -58.5 -54t-95.5 -24zM247 556q-39 0 -68 16.5t-45 44.5t-18 61h54q4 -35 23.5 -54t53.5 -19t53.5 19t23.5 54h54q-2 -33 -18 -61t-45 -44.5t-68 -16.5zM223 678q11 16 16 29.5
t5 24.5q0 23 -12.5 35t-31.5 12q-13 0 -28 -4v48q8 3 19 4.5t23 1.5q37 0 60 -22t23 -58q0 -20 -6.5 -36t-19.5 -35h-48z" />
    <glyph glyph-name="uni1EB4" unicode="&#x1eb4;" horiz-adv-x="607" 
d="M5 0l266 700h65l266 -700h-75l-75 200l-9 24l-153 408h24l-153 -408l-9 -24l-75 -200h-72zM119 178l26 65h318l26 -65h-370zM304 750q-40 0 -69.5 16.5t-45.5 43.5t-18 59h54q4 -33 24 -51.5t55 -18.5t55 18.5t24 51.5h54q-2 -32 -18 -59t-45.5 -43.5t-69.5 -16.5z
M356 890q-21 0 -36 9.5t-31 26.5q-10 11 -18 17t-17 6q-14 0 -24.5 -14.5t-10.5 -38.5h-50q0 51 24.5 78.5t58.5 27.5q21 0 36 -9.5t31 -26.5q10 -11 18 -17t17 -6q14 0 24.5 14.5t10.5 38.5h50q0 -51 -25 -78.5t-58 -27.5z" />
    </font>
</defs>
</svg>
